  0
SECTION
  2
HEADER
  9
$ACADVER
  1
AC1018
  9
$ACADMAINTVER
 70
    39
  9
$DWGCODEPAGE
  3
ANSI_1252
  9
$INSBASE
 10
0.0
 20
0.0
 30
0.0
  9
$EXTMIN
 10
153.8264886515868
 20
-178.6837355665264
 30
0.0
  9
$EXTMAX
 10
322.5235519237924
 20
-82.80315667067691
 30
0.0
  9
$LIMMIN
 10
0.0
 20
0.0
  9
$LIMMAX
 10
11.0
 20
8.5
  9
$ORTHOMODE
 70
     1
  9
$REGENMODE
 70
     1
  9
$FILLMODE
 70
     1
  9
$QTEXTMODE
 70
     0
  9
$MIRRTEXT
 70
     1
  9
$LTSCALE
 40
0.605
  9
$ATTMODE
 70
     1
  9
$TEXTSIZE
 40
0.0
  9
$TRACEWID
 40
0.05
  9
$TEXTSTYLE
  7
STANDARD
  9
$CLAYER
  8
6
  9
$CELTYPE
  6
BYLAYER
  9
$CECOLOR
 62
   256
  9
$CELTSCALE
 40
1.0
  9
$DISPSILH
 70
     0
  9
$DIMSCALE
 40
18.0
  9
$DIMASZ
 40
0.18
  9
$DIMEXO
 40
0.0625
  9
$DIMDLI
 40
0.38
  9
$DIMRND
 40
0.0
  9
$DIMDLE
 40
0.0
  9
$DIMEXE
 40
0.18
  9
$DIMTP
 40
0.001
  9
$DIMTM
 40
0.001
  9
$DIMTXT
 40
0.1
  9
$DIMCEN
 40
0.09
  9
$DIMTSZ
 40
0.0
  9
$DIMTOL
 70
     0
  9
$DIMLIM
 70
     0
  9
$DIMTIH
 70
     1
  9
$DIMTOH
 70
     1
  9
$DIMSE1
 70
     0
  9
$DIMSE2
 70
     0
  9
$DIMTAD
 70
     0
  9
$DIMZIN
 70
     0
  9
$DIMBLK
  1

  9
$DIMASO
 70
     1
  9
$DIMSHO
 70
     1
  9
$DIMPOST
  1

  9
$DIMAPOST
  1

  9
$DIMALT
 70
     0
  9
$DIMALTD
 70
     2
  9
$DIMALTF
 40
25.4
  9
$DIMLFAC
 40
1.0
  9
$DIMTOFL
 70
     0
  9
$DIMTVP
 40
0.0
  9
$DIMTIX
 70
     0
  9
$DIMSOXD
 70
     0
  9
$DIMSAH
 70
     0
  9
$DIMBLK1
  1

  9
$DIMBLK2
  1

  9
$DIMSTYLE
  2
STANDARD
  9
$DIMCLRD
 70
     0
  9
$DIMCLRE
 70
     0
  9
$DIMCLRT
 70
     0
  9
$DIMTFAC
 40
1.0
  9
$DIMGAP
 40
0.09
  9
$DIMJUST
 70
     0
  9
$DIMSD1
 70
     0
  9
$DIMSD2
 70
     0
  9
$DIMTOLJ
 70
     1
  9
$DIMTZIN
 70
     0
  9
$DIMALTZ
 70
     0
  9
$DIMALTTZ
 70
     0
  9
$DIMUPT
 70
     0
  9
$DIMDEC
 70
     2
  9
$DIMTDEC
 70
     2
  9
$DIMALTU
 70
     2
  9
$DIMALTTD
 70
     2
  9
$DIMTXSTY
  7
STANDARD
  9
$DIMAUNIT
 70
     0
  9
$DIMADEC
 70
     0
  9
$DIMALTRND
 40
0.0
  9
$DIMAZIN
 70
     0
  9
$DIMDSEP
 70
    46
  9
$DIMATFIT
 70
     0
  9
$DIMFRAC
 70
     0
  9
$DIMLDRBLK
  1

  9
$DIMLUNIT
 70
     2
  9
$DIMLWD
 70
    -2
  9
$DIMLWE
 70
    -2
  9
$DIMTMOVE
 70
     0
  9
$LUNITS
 70
     2
  9
$LUPREC
 70
     4
  9
$SKETCHINC
 40
0.1
  9
$FILLETRAD
 40
0.0
  9
$AUNITS
 70
     0
  9
$AUPREC
 70
     0
  9
$MENU
  1
acad
  9
$ELEVATION
 40
0.0
  9
$PELEVATION
 40
0.0
  9
$THICKNESS
 40
0.0
  9
$LIMCHECK
 70
     0
  9
$CHAMFERA
 40
0.0
  9
$CHAMFERB
 40
0.0
  9
$CHAMFERC
 40
0.0
  9
$CHAMFERD
 40
0.0
  9
$SKPOLY
 70
     0
  9
$TDCREATE
 40
2444971.791666667
  9
$TDUCREATE
 40
2444972.000000000
  9
$TDUPDATE
 40
2454522.534059607
  9
$TDUUPDATE
 40
2454522.742392940
  9
$TDINDWG
 40
0.0185076273
  9
$TDUSRTIMER
 40
0.0185067130
  9
$USRTIMER
 70
     1
  9
$ANGBASE
 50
0.0
  9
$ANGDIR
 70
     0
  9
$PDMODE
 70
     0
  9
$PDSIZE
 40
0.0
  9
$PLINEWID
 40
0.0
  9
$SPLFRAME
 70
     0
  9
$SPLINETYPE
 70
     6
  9
$SPLINESEGS
 70
     8
  9
$HANDSEED
  5
175F
  9
$SURFTAB1
 70
     6
  9
$SURFTAB2
 70
     6
  9
$SURFTYPE
 70
     6
  9
$SURFU
 70
     6
  9
$SURFV
 70
     6
  9
$UCSBASE
  2

  9
$UCSNAME
  2

  9
$UCSORG
 10
0.0
 20
0.0
 30
0.0
  9
$UCSXDIR
 10
1.0
 20
0.0
 30
0.0
  9
$UCSYDIR
 10
0.0
 20
1.0
 30
0.0
  9
$UCSORTHOREF
  2

  9
$UCSORTHOVIEW
 70
     0
  9
$UCSORGTOP
 10
0.0
 20
0.0
 30
0.0
  9
$UCSORGBOTTOM
 10
0.0
 20
0.0
 30
0.0
  9
$UCSORGLEFT
 10
0.0
 20
0.0
 30
0.0
  9
$UCSORGRIGHT
 10
0.0
 20
0.0
 30
0.0
  9
$UCSORGFRONT
 10
0.0
 20
0.0
 30
0.0
  9
$UCSORGBACK
 10
0.0
 20
0.0
 30
0.0
  9
$PUCSBASE
  2

  9
$PUCSNAME
  2

  9
$PUCSORG
 10
0.0
 20
0.0
 30
0.0
  9
$PUCSXDIR
 10
1.0
 20
0.0
 30
0.0
  9
$PUCSYDIR
 10
0.0
 20
1.0
 30
0.0
  9
$PUCSORTHOREF
  2

  9
$PUCSORTHOVIEW
 70
     0
  9
$PUCSORGTOP
 10
0.0
 20
0.0
 30
0.0
  9
$PUCSORGBOTTOM
 10
0.0
 20
0.0
 30
0.0
  9
$PUCSORGLEFT
 10
0.0
 20
0.0
 30
0.0
  9
$PUCSORGRIGHT
 10
0.0
 20
0.0
 30
0.0
  9
$PUCSORGFRONT
 10
0.0
 20
0.0
 30
0.0
  9
$PUCSORGBACK
 10
0.0
 20
0.0
 30
0.0
  9
$USERI1
 70
     0
  9
$USERI2
 70
     0
  9
$USERI3
 70
     0
  9
$USERI4
 70
     0
  9
$USERI5
 70
     0
  9
$USERR1
 40
0.0
  9
$USERR2
 40
0.0
  9
$USERR3
 40
0.0
  9
$USERR4
 40
0.0
  9
$USERR5
 40
0.0
  9
$WORLDVIEW
 70
     1
  9
$SHADEDGE
 70
     3
  9
$SHADEDIF
 70
    70
  9
$TILEMODE
 70
     1
  9
$MAXACTVP
 70
    16
  9
$PINSBASE
 10
0.0
 20
0.0
 30
0.0
  9
$PLIMCHECK
 70
     0
  9
$PEXTMIN
 10
1.000000000000000E+20
 20
1.000000000000000E+20
 30
1.000000000000000E+20
  9
$PEXTMAX
 10
-1.000000000000000E+20
 20
-1.000000000000000E+20
 30
-1.000000000000000E+20
  9
$PLIMMIN
 10
0.0
 20
0.0
  9
$PLIMMAX
 10
12.0
 20
9.0
  9
$UNITMODE
 70
     0
  9
$VISRETAIN
 70
     0
  9
$PLINEGEN
 70
     1
  9
$PSLTSCALE
 70
     0
  9
$TREEDEPTH
 70
  3020
  9
$CMLSTYLE
  2
STANDARD
  9
$CMLJUST
 70
     0
  9
$CMLSCALE
 40
1.0
  9
$PROXYGRAPHICS
 70
     1
  9
$MEASUREMENT
 70
     0
  9
$CELWEIGHT
370
    -1
  9
$ENDCAPS
280
     0
  9
$JOINSTYLE
280
     0
  9
$LWDISPLAY
290
     0
  9
$INSUNITS
 70
     0
  9
$HYPERLINKBASE
  1

  9
$STYLESHEET
  1

  9
$XEDIT
290
     1
  9
$CEPSNTYPE
380
     0
  9
$PSTYLEMODE
290
     1
  9
$FINGERPRINTGUID
  2
{A5E9DCFB-CCA2-45FD-BE76-3E1E56B022F8}
  9
$VERSIONGUID
  2
{9F08002C-C306-4E2B-850B-5D2A68AD5AA4}
  9
$EXTNAMES
290
     1
  9
$PSVPSCALE
 40
0.0
  9
$OLESTARTUP
290
     0
  9
$SORTENTS
280
   127
  9
$INDEXCTL
280
     0
  9
$HIDETEXT
280
     0
  9
$XCLIPFRAME
290
     0
  9
$HALOGAP
280
     0
  9
$OBSCOLOR
 70
   257
  9
$OBSLTYPE
280
     0
  9
$INTERSECTIONDISPLAY
280
     0
  9
$INTERSECTIONCOLOR
 70
   257
  9
$DIMASSOC
280
     1
  9
$PROJECTNAME
  1

  0
ENDSEC
  0
SECTION
  2
CLASSES
  0
CLASS
  1
IMAGE
  2
AcDbRasterImage
  3
ISM
 90
      127
 91
        0
280
     0
281
     1
  0
CLASS
  1
DICTIONARYVAR
  2
AcDbDictionaryVar
  3
ObjectDBX Classes
 90
        0
 91
        3
280
     0
281
     0
  0
CLASS
  1
RASTERVARIABLES
  2
AcDbRasterVariables
  3
ISM
 90
        0
 91
        0
280
     0
281
     0
  0
CLASS
  1
IMAGEDEF
  2
AcDbRasterImageDef
  3
ISM
 90
        0
 91
        0
280
     0
281
     0
  0
CLASS
  1
IMAGEDEF_REACTOR
  2
AcDbRasterImageDefReactor
  3
ISM
 90
        1
 91
        0
280
     0
281
     0
  0
CLASS
  1
IDBUFFER
  2
AcDbIdBuffer
  3
ObjectDBX Classes
 90
        0
 91
        0
280
     0
281
     0
  0
CLASS
  1
SPATIAL_FILTER
  2
AcDbSpatialFilter
  3
ObjectDBX Classes
 90
        0
 91
        0
280
     0
281
     0
  0
CLASS
  1
SORTENTSTABLE
  2
AcDbSortentsTable
  3
ObjectDBX Classes
 90
        0
 91
        1
280
     0
281
     0
  0
CLASS
  1
LAYER_INDEX
  2
AcDbLayerIndex
  3
ObjectDBX Classes
 90
        0
 91
        0
280
     0
281
     0
  0
CLASS
  1
SPATIAL_INDEX
  2
AcDbSpatialIndex
  3
ObjectDBX Classes
 90
        0
 91
        0
280
     0
281
     0
  0
CLASS
  1
OBJECT_PTR
  2
CAseDLPNTableRecord
  3
ASE-LPNTableRecord
 90
        1
 91
        0
280
     0
281
     0
  0
CLASS
  1
PLOTSETTINGS
  2
AcDbPlotSettings
  3
ObjectDBX Classes
 90
        0
 91
        0
280
     0
281
     0
  0
CLASS
  1
ACDBDICTIONARYWDFLT
  2
AcDbDictionaryWithDefault
  3
ObjectDBX Classes
 90
        0
 91
        1
280
     0
281
     0
  0
CLASS
  1
WIPEOUT
  2
AcDbWipeout
  3
"WipeOut|Product Desc: Object Enabler for WipeOut entity^I^I^I^I^I^I|Company: Autodesk, Inc.^I^I^I^I^I^I|WEB Address: www.autodesk.com"
 90
      127
 91
        0
280
     0
281
     1
  0
CLASS
  1
WIPEOUTVARIABLES
  2
AcDbWipeoutVariables
  3
"WipeOut|Product Desc:     WipeOut Dbx Application|Company:          Autodesk, Inc.|WEB Address:      www.autodesk.com"
 90
        0
 91
        0
280
     0
281
     0
  0
CLASS
  1
RTEXT
  2
RText
  3
RText|AutoCAD Express Tool|expresstools@autodesk.com
 90
     1023
 91
        0
280
     0
281
     1
  0
CLASS
  1
ARCALIGNEDTEXT
  2
AcDbArcAlignedText
  3
ATEXT|AutoCAD Express Tool|expresstools@autodesk.com
 90
        0
 91
        0
280
     0
281
     1
  0
CLASS
  1
TABLESTYLE
  2
AcDbTableStyle
  3
ObjectDBX Classes
 90
     2047
 91
        1
280
     0
281
     0
  0
ENDSEC
  0
SECTION
  2
TABLES
  0
TABLE
  2
VPORT
  5
6
330
0
100
AcDbSymbolTable
 70
     2
  0
VPORT
  5
175E
330
6
100
AcDbSymbolTableRecord
100
AcDbViewportTableRecord
  2
*Active
 70
     0
 10
0.0
 20
0.0
 11
1.0
 21
1.0
 12
249.0406638622363
 22
-131.5613755989432
 13
0.0
 23
0.0
 14
1.0
 24
1.0
 15
0.0
 25
0.0
 16
0.0
 26
0.0
 36
1.0
 17
0.0
 27
0.0
 37
0.0
 40
149.5334946173442
 41
1.58267716535433
 42
50.0
 43
0.0
 44
0.0
 50
0.0
 51
0.0
 71
     0
 72
   100
 73
     1
 74
     1
 75
     0
 76
     0
 77
     0
 78
     0
281
     0
 65
     1
110
0.0
120
0.0
130
0.0
111
1.0
121
0.0
131
0.0
112
0.0
122
1.0
132
0.0
 79
     0
146
0.0
  0
ENDTAB
  0
TABLE
  2
LTYPE
  5
3
330
0
100
AcDbSymbolTable
 70
     6
  0
LTYPE
  5
C
330
3
100
AcDbSymbolTableRecord
100
AcDbLinetypeTableRecord
  2
BYBLOCK
 70
     0
  3

 72
    65
 73
     0
 40
0.0
  0
LTYPE
  5
D
330
3
100
AcDbSymbolTableRecord
100
AcDbLinetypeTableRecord
  2
BYLAYER
 70
     0
  3

 72
    65
 73
     0
 40
0.0
  0
LTYPE
  5
E
330
3
100
AcDbSymbolTableRecord
100
AcDbLinetypeTableRecord
  2
CONTINUOUS
 70
     0
  3
Solid line
 72
    65
 73
     0
 40
0.0
  0
LTYPE
  5
F
330
3
100
AcDbSymbolTableRecord
100
AcDbLinetypeTableRecord
  2
CENTER
 70
     0
  3
____ _ ____ _ ____ _ ____ _ ____ _ ____ _ ____
 72
    65
 73
     4
 40
0.6
 49
0.375
 74
     0
 49
-0.075
 74
     0
 49
0.075
 74
     0
 49
-0.075
 74
     0
  0
LTYPE
  5
10
330
3
100
AcDbSymbolTableRecord
100
AcDbLinetypeTableRecord
  2
HIDDEN
 70
     0
  3
- - - - - - - - - - - - - - - - - - - -
 72
    65
 73
     2
 40
0.2
 49
0.1
 74
     0
 49
-0.1
 74
     0
  0
LTYPE
  5
11
330
3
100
AcDbSymbolTableRecord
100
AcDbLinetypeTableRecord
  2
PHANTOM
 70
     0
  3
_____ _ _ _____ _ _ _____ _ _ _____
 72
    65
 73
     6
 40
0.8
 49
0.45
 74
     0
 49
-0.05
 74
     0
 49
0.1
 74
     0
 49
-0.05
 74
     0
 49
0.1
 74
     0
 49
-0.05
 74
     0
  0
LTYPE
  5
12
330
3
100
AcDbSymbolTableRecord
100
AcDbLinetypeTableRecord
  2
DOT
 70
     0
  3
. . . . . . . . . . . . . . . . . . . .
 72
    65
 73
     2
 40
0.2
 49
0.1
 74
     0
 49
-0.1
 74
     0
  0
LTYPE
  5
13
330
3
100
AcDbSymbolTableRecord
100
AcDbLinetypeTableRecord
  2
DASHED
 70
     0
  3
- - - - - - - - - - - - - - - - - - - -
 72
    65
 73
     2
 40
0.2
 49
0.1
 74
     0
 49
-0.1
 74
     0
  0
ENDTAB
  0
TABLE
  2
LAYER
  5
1
330
0
100
AcDbSymbolTable
 70
    10
  0
LAYER
  5
14
330
1
100
AcDbSymbolTableRecord
100
AcDbLayerTableRecord
  2
0
 70
     0
 62
     7
  6
CONTINUOUS
370
    -3
390
CEB
  0
LAYER
  5
15
330
1
100
AcDbSymbolTableRecord
100
AcDbLayerTableRecord
  2
DEFAULT_1
 70
     0
 62
     7
  6
CENTER
370
    -3
390
CEB
  0
LAYER
  5
16
330
1
100
AcDbSymbolTableRecord
100
AcDbLayerTableRecord
  2
DEFAULT_2
 70
     0
 62
     8
  6
HIDDEN
370
    -3
390
CEB
  0
LAYER
  5
17
330
1
100
AcDbSymbolTableRecord
100
AcDbLayerTableRecord
  2
DEFAULT_3
 70
     0
 62
     7
  6
PHANTOM
370
    -3
390
CEB
  0
LAYER
  5
18
330
1
100
AcDbSymbolTableRecord
100
AcDbLayerTableRecord
  2
7_DIM
 70
     0
 62
     7
  6
CONTINUOUS
370
    -3
390
CEB
  0
LAYER
  5
19
330
1
100
AcDbSymbolTableRecord
100
AcDbLayerTableRecord
  2
8_NOTE_BALLOONS_SYMBOLS_GTOLS
 70
     0
 62
     7
  6
CONTINUOUS
370
    -3
390
CEB
  0
LAYER
  5
1A
330
1
100
AcDbSymbolTableRecord
100
AcDbLayerTableRecord
  2
PENME
 70
     0
 62
     7
  6
CONTINUOUS
370
    -3
390
CEB
  0
LAYER
  5
CF8
330
1
100
AcDbSymbolTableRecord
100
AcDbLayerTableRecord
  2
Defpoints
 70
     0
 62
     7
  6
CONTINUOUS
290
     0
370
    -3
390
CEB
  0
LAYER
  5
FA6
330
1
100
AcDbSymbolTableRecord
100
AcDbLayerTableRecord
  2
AM_VIS
 70
     0
 62
     2
  6
CONTINUOUS
370
    30
390
CEB
  0
LAYER
  5
12BF
330
1
100
AcDbSymbolTableRecord
100
AcDbLayerTableRecord
  2
6
 70
     0
 62
     6
  6
CONTINUOUS
370
    -3
390
CEB
  0
ENDTAB
  0
TABLE
  2
STYLE
  5
2
330
0
100
AcDbSymbolTable
 70
     5
  0
STYLE
  5
20
330
2
100
AcDbSymbolTableRecord
100
AcDbTextStyleTableRecord
  2
STANDARD
 70
     0
 40
0.0
 41
1.0
 50
0.0
 71
     0
 42
0.0
  3
txt
  4

  0
STYLE
  5
1D
330
2
100
AcDbSymbolTableRecord
100
AcDbTextStyleTableRecord
  2
TEXTSTYLE_0
 70
     0
 40
0.0
 41
0.8
 50
0.0
 71
     0
 42
0.2
  3
txt
  4

  0
STYLE
  5
1E
330
2
100
AcDbSymbolTableRecord
100
AcDbTextStyleTableRecord
  2
TEXTSTYLE_1
 70
     0
 40
0.0
 41
0.8
 50
0.0
 71
     0
 42
0.2
  3
times.ttf
  4

1001
ACAD
1000
Times New Roman
1071
       18
  0
STYLE
  5
1F
330
2
100
AcDbSymbolTableRecord
100
AcDbTextStyleTableRecord
  2
TEXTSTYLE_2
 70
     0
 40
0.0
 41
0.8
 50
0.0
 71
     0
 42
0.2
  3
txt
  4

  0
STYLE
  5
FA7
330
2
100
AcDbSymbolTableRecord
100
AcDbTextStyleTableRecord
  2
ROMANS
 70
     0
 40
0.0
 41
1.0
 50
0.0
 71
     0
 42
0.275
  3
ROMANS.shx
  4

  0
ENDTAB
  0
TABLE
  2
VIEW
  5
4
330
0
100
AcDbSymbolTable
 70
     0
  0
ENDTAB
  0
TABLE
  2
UCS
  5
5
330
0
100
AcDbSymbolTable
 70
     0
  0
ENDTAB
  0
TABLE
  2
APPID
  5
7
330
0
100
AcDbSymbolTable
 70
     3
  0
APPID
  5
1C
330
7
100
AcDbSymbolTableRecord
100
AcDbRegAppTableRecord
  2
ACAD
 70
     0
  0
APPID
  5
D9E
330
7
100
AcDbSymbolTableRecord
100
AcDbRegAppTableRecord
  2
ACAD_DSTYLE_DIMTEXT_FILL
 70
     0
  0
APPID
  5
F95
330
7
100
AcDbSymbolTableRecord
100
AcDbRegAppTableRecord
  2
DCO15
 70
     0
  0
ENDTAB
  0
TABLE
  2
DIMSTYLE
  5
8
330
0
100
AcDbSymbolTable
 70
     4
100
AcDbDimStyleTable
 71
     1
340
38
  0
DIMSTYLE
105
38
102
{ACAD_REACTORS
330
47
330
46
330
101B
330
102A
330
1038
330
1072
330
1080
330
108E
330
109C
330
10B4
330
1167
330
1641
330
166D
330
167B
330
173C
102
}
330
8
100
AcDbSymbolTableRecord
100
AcDbDimStyleTableRecord
  2
STANDARD
 70
     0
 40
18.0
 47
0.001
 48
0.001
140
0.1
271
     2
272
     2
289
     0
340
20
  0
DIMSTYLE
105
39
330
8
100
AcDbSymbolTableRecord
100
AcDbDimStyleTableRecord
  2
DIMSTYLE_1
 70
     0
 47
0.01
 48
0.01
140
0.1
144
18.1818181818
289
     0
340
20
  0
DIMSTYLE
105
3A
330
8
100
AcDbSymbolTableRecord
100
AcDbDimStyleTableRecord
  2
DIMSTYLE_2
 70
     0
 47
0.01
 48
0.01
140
0.1
144
6.0
289
     0
340
20
  0
DIMSTYLE
105
FA8
330
8
100
AcDbSymbolTableRecord
100
AcDbDimStyleTableRecord
  2
AM_ANSI
 70
     0
  4
mm
 41
0.1
 42
0.05
 43
0.5
 44
0.1
 47
0.1
 48
0.1
 78
     7
 79
     2
140
0.12
141
0.0
146
0.71
147
0.06
176
   256
177
   256
178
     2
274
     4
284
     7
340
20
371
    -1
372
    -1
  0
ENDTAB
  0
TABLE
  2
BLOCK_RECORD
  5
33
330
0
100
AcDbSymbolTable
 70
    30
  0
BLOCK_RECORD
  5
31
102
{ACAD_XDICTIONARY
360
FD4
102
}
330
33
100
AcDbSymbolTableRecord
100
AcDbBlockTableRecord
  2
*MODEL_SPACE
340
CF2
  0
BLOCK_RECORD
  5
32
330
33
100
AcDbSymbolTableRecord
100
AcDbBlockTableRecord
  2
*PAPER_SPACE
340
CF3
  0
BLOCK_RECORD
  5
21
330
33
100
AcDbSymbolTableRecord
100
AcDbBlockTableRecord
  2
*D0
340
0
  0
BLOCK_RECORD
  5
22
330
33
100
AcDbSymbolTableRecord
100
AcDbBlockTableRecord
  2
*D1
340
0
  0
BLOCK_RECORD
  5
23
330
33
100
AcDbSymbolTableRecord
100
AcDbBlockTableRecord
  2
*D2
340
0
  0
BLOCK_RECORD
  5
24
330
33
100
AcDbSymbolTableRecord
100
AcDbBlockTableRecord
  2
*D3
340
0
  0
BLOCK_RECORD
  5
25
330
33
100
AcDbSymbolTableRecord
100
AcDbBlockTableRecord
  2
*D4
340
0
  0
BLOCK_RECORD
  5
26
330
33
100
AcDbSymbolTableRecord
100
AcDbBlockTableRecord
  2
*D5
340
0
  0
BLOCK_RECORD
  5
27
330
33
100
AcDbSymbolTableRecord
100
AcDbBlockTableRecord
  2
*D6
340
0
  0
BLOCK_RECORD
  5
28
330
33
100
AcDbSymbolTableRecord
100
AcDbBlockTableRecord
  2
*D7
340
0
  0
BLOCK_RECORD
  5
29
330
33
100
AcDbSymbolTableRecord
100
AcDbBlockTableRecord
  2
*D8
340
0
  0
BLOCK_RECORD
  5
2A
330
33
100
AcDbSymbolTableRecord
100
AcDbBlockTableRecord
  2
*D9
340
0
  0
BLOCK_RECORD
  5
2B
330
33
100
AcDbSymbolTableRecord
100
AcDbBlockTableRecord
  2
*D10
340
0
  0
BLOCK_RECORD
  5
2C
330
33
100
AcDbSymbolTableRecord
100
AcDbBlockTableRecord
  2
*D11
340
0
  0
BLOCK_RECORD
  5
2D
330
33
100
AcDbSymbolTableRecord
100
AcDbBlockTableRecord
  2
*D12
340
0
  0
BLOCK_RECORD
  5
2E
330
33
100
AcDbSymbolTableRecord
100
AcDbBlockTableRecord
  2
*D13
340
0
  0
BLOCK_RECORD
  5
2F
330
33
100
AcDbSymbolTableRecord
100
AcDbBlockTableRecord
  2
*D14
340
0
  0
BLOCK_RECORD
  5
30
330
33
100
AcDbSymbolTableRecord
100
AcDbBlockTableRecord
  2
*D15
340
0
  0
BLOCK_RECORD
  5
101C
330
33
100
AcDbSymbolTableRecord
100
AcDbBlockTableRecord
  2
*D16
340
0
  0
BLOCK_RECORD
  5
102B
330
33
100
AcDbSymbolTableRecord
100
AcDbBlockTableRecord
  2
*D17
340
0
  0
BLOCK_RECORD
  5
1039
330
33
100
AcDbSymbolTableRecord
100
AcDbBlockTableRecord
  2
*D18
340
0
  0
BLOCK_RECORD
  5
1073
330
33
100
AcDbSymbolTableRecord
100
AcDbBlockTableRecord
  2
*D19
340
0
  0
BLOCK_RECORD
  5
1081
330
33
100
AcDbSymbolTableRecord
100
AcDbBlockTableRecord
  2
*D20
340
0
  0
BLOCK_RECORD
  5
108F
330
33
100
AcDbSymbolTableRecord
100
AcDbBlockTableRecord
  2
*D21
340
0
  0
BLOCK_RECORD
  5
109D
330
33
100
AcDbSymbolTableRecord
100
AcDbBlockTableRecord
  2
*D22
340
0
  0
BLOCK_RECORD
  5
10B5
330
33
100
AcDbSymbolTableRecord
100
AcDbBlockTableRecord
  2
*D23
340
0
  0
BLOCK_RECORD
  5
1168
330
33
100
AcDbSymbolTableRecord
100
AcDbBlockTableRecord
  2
*D24
340
0
  0
BLOCK_RECORD
  5
1634
330
33
100
AcDbSymbolTableRecord
100
AcDbBlockTableRecord
  2
*D25
340
0
  0
BLOCK_RECORD
  5
1642
330
33
100
AcDbSymbolTableRecord
100
AcDbBlockTableRecord
  2
*D26
340
0
  0
BLOCK_RECORD
  5
166E
330
33
100
AcDbSymbolTableRecord
100
AcDbBlockTableRecord
  2
*D27
340
0
  0
BLOCK_RECORD
  5
167C
330
33
100
AcDbSymbolTableRecord
100
AcDbBlockTableRecord
  2
*D28
340
0
  0
BLOCK_RECORD
  5
173D
330
33
100
AcDbSymbolTableRecord
100
AcDbBlockTableRecord
  2
*D29
340
0
  0
ENDTAB
  0
ENDSEC
  0
SECTION
  2
BLOCKS
  0
BLOCK
  5
34
330
31
100
AcDbEntity
  8
0
100
AcDbBlockBegin
  2
*MODEL_SPACE
 70
     0
 10
0.0
 20
0.0
 30
0.0
  3
*MODEL_SPACE
  1

  0
ENDBLK
  5
35
330
31
100
AcDbEntity
  8
0
100
AcDbBlockEnd
  0
BLOCK
  5
36
330
32
100
AcDbEntity
 67
     1
  8
0
100
AcDbBlockBegin
  2
*PAPER_SPACE
 70
     0
 10
0.0
 20
0.0
 30
0.0
  3
*PAPER_SPACE
  1

  0
ENDBLK
  5
37
330
32
100
AcDbEntity
 67
     1
  8
0
100
AcDbBlockEnd
  0
BLOCK
  5
929
330
21
100
AcDbEntity
  8
0
 62
     2
100
AcDbBlockBegin
  2
*D0
 70
     1
 10
0.0
 20
0.0
 30
0.0
  3
*D0
  1

  0
LINE
  5
F6A
330
21
100
AcDbEntity
  8
7_DIM
  6
Continuous
 62
     0
370
    -2
100
AcDbLine
 10
281.4117009187469
 20
-182.0948818774177
 30
0.0
 11
281.411700918747
 21
-200.4434809259838
 31
0.0
  0
LINE
  5
F6B
330
21
100
AcDbEntity
  8
7_DIM
  6
Continuous
 62
     0
370
    -2
100
AcDbLine
 10
190.4122018287419
 20
-182.0948818774177
 30
0.0
 11
190.412201828742
 21
-200.4434809259844
 31
0.0
  0
LINE
  5
F6C
330
21
100
AcDbEntity
  8
7_DIM
  6
Continuous
 62
     0
370
    -2
100
AcDbLine
 10
278.171700918747
 20
-197.2034809259838
 30
0.0
 11
240.5319513737445
 21
-197.2034809259841
 31
0.0
  0
LINE
  5
F6D
330
21
100
AcDbEntity
  8
7_DIM
  6
Continuous
 62
     0
370
    -2
100
AcDbLine
 10
193.652201828742
 20
-197.2034809259844
 30
0.0
 11
231.2919513737444
 21
-197.2034809259841
 31
0.0
  0
SOLID
  5
F6E
330
21
100
AcDbEntity
  8
7_DIM
  6
Continuous
 62
     0
100
AcDbTrace
 10
278.171700918747
 20
-196.6634809259839
 30
0.0
 11
278.171700918747
 21
-197.7434809259839
 31
0.0
 12
281.411700918747
 22
-197.2034809259838
 32
0.0
 13
281.411700918747
 23
-197.2034809259838
 33
0.0
  0
SOLID
  5
F6F
330
21
100
AcDbEntity
  8
7_DIM
  6
Continuous
 62
     0
100
AcDbTrace
 10
193.652201828742
 20
-196.6634809259844
 30
0.0
 11
193.652201828742
 21
-197.7434809259844
 31
0.0
 12
190.412201828742
 22
-197.2034809259844
 32
0.0
 13
190.412201828742
 23
-197.2034809259844
 33
0.0
  0
MTEXT
  5
F70
330
21
100
AcDbEntity
  8
7_DIM
  6
Continuous
 62
     0
100
AcDbMText
 10
235.9119513737445
 20
-197.2034809259841
 30
0.0
 40
1.8
 41
0.0
 71
     5
 72
     1
  1
\A1;91.00
 73
     1
 44
1.0
1001
ACAD
1000
MTEXTBEGIN
1070
    73
1070
     1
1070
    44
1040
1.0
1070
    74
1070
     0
1000
MTEXTEND
  0
POINT
  5
F71
330
21
100
AcDbEntity
  8
Defpoints
  6
Continuous
 62
     0
100
AcDbPoint
 10
281.4117009187469
 20
-180.9698818774178
 30
0.0
  0
POINT
  5
F72
330
21
100
AcDbEntity
  8
Defpoints
  6
Continuous
 62
     0
100
AcDbPoint
 10
190.4122018287419
 20
-180.9698818774178
 30
0.0
  0
POINT
  5
F73
330
21
100
AcDbEntity
  8
Defpoints
  6
Continuous
 62
     0
100
AcDbPoint
 10
190.412201828742
 20
-197.2034809259844
 30
0.0
  0
ENDBLK
  5
93C
330
21
100
AcDbEntity
  8
0
100
AcDbBlockEnd
  0
BLOCK
  5
93D
330
22
100
AcDbEntity
  8
0
 62
     2
100
AcDbBlockBegin
  2
*D1
 70
     1
 10
0.0
 20
0.0
 30
0.0
  3
*D1
  1

  0
LINE
  5
F7E
330
22
100
AcDbEntity
  8
7_DIM
  6
Continuous
 62
     0
370
    -2
100
AcDbLine
 10
275.9097009737669
 20
-178.5798819089314
 30
0.0
 11
275.909700973767
 21
-190.2172095370167
 31
0.0
  0
LINE
  5
F7F
330
22
100
AcDbEntity
  8
7_DIM
  6
Continuous
 62
     0
370
    -2
100
AcDbLine
 10
195.9097017737669
 20
-178.5798819089314
 30
0.0
 11
195.909701773767
 21
-190.2172095370172
 31
0.0
  0
LINE
  5
F80
330
22
100
AcDbEntity
  8
7_DIM
  6
Continuous
 62
     0
370
    -2
100
AcDbLine
 10
272.6697009737669
 20
-186.9772095370167
 30
0.0
 11
240.679701373767
 21
-186.9772095370169
 31
0.0
  0
LINE
  5
F81
330
22
100
AcDbEntity
  8
7_DIM
  6
Continuous
 62
     0
370
    -2
100
AcDbLine
 10
199.1497017737669
 20
-186.9772095370171
 30
0.0
 11
231.139701373767
 21
-186.977209537017
 31
0.0
  0
SOLID
  5
F82
330
22
100
AcDbEntity
  8
7_DIM
  6
Continuous
 62
     0
100
AcDbTrace
 10
272.6697009737669
 20
-186.4372095370167
 30
0.0
 11
272.6697009737669
 21
-187.5172095370166
 31
0.0
 12
275.9097009737669
 22
-186.9772095370167
 32
0.0
 13
275.9097009737669
 23
-186.9772095370167
 33
0.0
  0
SOLID
  5
F83
330
22
100
AcDbEntity
  8
7_DIM
  6
Continuous
 62
     0
100
AcDbTrace
 10
199.1497017737669
 20
-186.4372095370171
 30
0.0
 11
199.1497017737669
 21
-187.5172095370172
 31
0.0
 12
195.9097017737669
 22
-186.9772095370171
 32
0.0
 13
195.9097017737669
 23
-186.9772095370171
 33
0.0
  0
MTEXT
  5
F84
330
22
100
AcDbEntity
  8
7_DIM
  6
Continuous
 62
     0
100
AcDbMText
 10
235.9097013737669
 20
-186.977209537017
 30
0.0
 40
1.8
 41
0.0
 71
     5
 72
     1
  1
\A1;80.00
 73
     1
 44
1.0
1001
ACAD
1000
MTEXTBEGIN
1070
    73
1070
     1
1070
    44
1040
1.0
1070
    74
1070
     0
1000
MTEXTEND
  0
POINT
  5
F85
330
22
100
AcDbEntity
  8
Defpoints
  6
Continuous
 62
     0
100
AcDbPoint
 10
275.9097009737669
 20
-177.4548819089314
 30
0.0
  0
POINT
  5
F86
330
22
100
AcDbEntity
  8
Defpoints
  6
Continuous
 62
     0
100
AcDbPoint
 10
195.9097017737669
 20
-177.4548819089314
 30
0.0
  0
POINT
  5
F87
330
22
100
AcDbEntity
  8
Defpoints
  6
Continuous
 62
     0
100
AcDbPoint
 10
195.9097017737669
 20
-186.9772095370171
 30
0.0
  0
ENDBLK
  5
950
330
22
100
AcDbEntity
  8
0
100
AcDbBlockEnd
  0
BLOCK
  5
951
330
23
100
AcDbEntity
  8
0
 62
     2
100
AcDbBlockBegin
  2
*D2
 70
     1
 10
0.0
 20
0.0
 30
0.0
  3
*D2
  1

  0
LINE
  5
F74
330
23
100
AcDbEntity
  8
7_DIM
  6
Continuous
 62
     0
370
    -2
100
AcDbLine
 10
280.6597009262669
 20
-180.6698818880314
 30
0.0
 11
280.659700926267
 21
-195.26016050428
 31
0.0
  0
LINE
  5
F75
330
23
100
AcDbEntity
  8
7_DIM
  6
Continuous
 62
     0
370
    -2
100
AcDbLine
 10
191.1597018212669
 20
-180.6698818880314
 30
0.0
 11
191.159701821267
 21
-195.2601605042805
 31
0.0
  0
LINE
  5
F76
330
23
100
AcDbEntity
  8
7_DIM
  6
Continuous
 62
     0
370
    -2
100
AcDbLine
 10
277.419700926267
 20
-192.0201605042798
 30
0.0
 11
240.9797013737669
 21
-192.0201605042802
 31
0.0
  0
LINE
  5
F77
330
23
100
AcDbEntity
  8
7_DIM
  6
Continuous
 62
     0
370
    -2
100
AcDbLine
 10
194.399701821267
 20
-192.0201605042804
 30
0.0
 11
230.8397013737669
 21
-192.0201605042803
 31
0.0
  0
SOLID
  5
F78
330
23
100
AcDbEntity
  8
7_DIM
  6
Continuous
 62
     0
100
AcDbTrace
 10
277.419700926267
 20
-191.48016050428
 30
0.0
 11
277.419700926267
 21
-192.56016050428
 31
0.0
 12
280.659700926267
 22
-192.0201605042798
 32
0.0
 13
280.659700926267
 23
-192.0201605042798
 33
0.0
  0
SOLID
  5
F79
330
23
100
AcDbEntity
  8
7_DIM
  6
Continuous
 62
     0
100
AcDbTrace
 10
194.399701821267
 20
-191.4801605042805
 30
0.0
 11
194.399701821267
 21
-192.5601605042805
 31
0.0
 12
191.1597018212669
 22
-192.0201605042805
 32
0.0
 13
191.1597018212669
 23
-192.0201605042805
 33
0.0
  0
MTEXT
  5
F7A
330
23
100
AcDbEntity
  8
7_DIM
  6
Continuous
 62
     0
100
AcDbMText
 10
235.9097013737669
 20
-192.0201605042802
 30
0.0
 40
1.8
 41
0.0
 71
     5
 72
     1
  1
\A1;89.50
 73
     1
 44
1.0
1001
ACAD
1000
MTEXTBEGIN
1070
    73
1070
     1
1070
    44
1040
1.0
1070
    74
1070
     0
1000
MTEXTEND
  0
POINT
  5
F7B
330
23
100
AcDbEntity
  8
Defpoints
  6
Continuous
 62
     0
100
AcDbPoint
 10
280.6597009262669
 20
-179.5448818880314
 30
0.0
  0
POINT
  5
F7C
330
23
100
AcDbEntity
  8
Defpoints
  6
Continuous
 62
     0
100
AcDbPoint
 10
191.1597018212669
 20
-179.5448818880314
 30
0.0
  0
POINT
  5
F7D
330
23
100
AcDbEntity
  8
Defpoints
  6
Continuous
 62
     0
100
AcDbPoint
 10
191.1597018212669
 20
-192.0201605042805
 30
0.0
  0
ENDBLK
  5
964
330
23
100
AcDbEntity
  8
0
100
AcDbBlockEnd
  0
BLOCK
  5
965
330
24
100
AcDbEntity
  8
0
 62
     2
100
AcDbBlockBegin
  2
*D3
 70
     1
 10
0.0
 20
0.0
 30
0.0
  3
*D3
  1

  0
LINE
  5
EDC
330
24
100
AcDbEntity
  8
7_DIM
  6
Continuous
 62
     0
370
    -2
100
AcDbLine
 10
278.1710645987669
 20
-116.3185188839314
 30
0.0
 11
294.0867282880331
 21
-116.3185188839314
 31
0.0
  0
LINE
  5
EDD
330
24
100
AcDbEntity
  8
7_DIM
  6
Continuous
 62
     0
370
    -2
100
AcDbLine
 10
278.1710645987669
 20
-176.3185182839314
 30
0.0
 11
294.086728288033
 21
-176.3185182839314
 31
0.0
  0
LINE
  5
EDE
330
24
100
AcDbEntity
  8
7_DIM
  6
Continuous
 62
     0
370
    -2
100
AcDbLine
 10
290.846728288033
 20
-119.5585188839314
 30
0.0
 11
290.846728288033
 21
-143.7985185839314
 31
0.0
  0
LINE
  5
EDF
330
24
100
AcDbEntity
  8
7_DIM
  6
Continuous
 62
     0
370
    -2
100
AcDbLine
 10
290.846728288033
 20
-173.0785182839314
 30
0.0
 11
290.846728288033
 21
-148.8385185839314
 31
0.0
  0
SOLID
  5
EE0
330
24
100
AcDbEntity
  8
7_DIM
  6
Continuous
 62
     0
100
AcDbTrace
 10
290.306728288033
 20
-119.5585188839314
 30
0.0
 11
291.386728288033
 21
-119.5585188839314
 31
0.0
 12
290.846728288033
 22
-116.3185188839314
 32
0.0
 13
290.846728288033
 23
-116.3185188839314
 33
0.0
  0
SOLID
  5
EE1
330
24
100
AcDbEntity
  8
7_DIM
  6
Continuous
 62
     0
100
AcDbTrace
 10
290.3067282880329
 20
-173.0785182839314
 30
0.0
 11
291.386728288033
 21
-173.0785182839314
 31
0.0
 12
290.846728288033
 22
-176.3185182839314
 32
0.0
 13
290.846728288033
 23
-176.3185182839314
 33
0.0
  0
MTEXT
  5
EE2
330
24
100
AcDbEntity
  8
7_DIM
  6
Continuous
 62
     0
100
AcDbMText
 10
290.846728288033
 20
-146.3185185839313
 30
0.0
 40
1.8
 41
0.0
 71
     5
 72
     1
  1
\A1;60.00
 73
     1
 44
1.0
1001
ACAD
1000
MTEXTBEGIN
1070
    73
1070
     1
1070
    44
1040
1.0
1070
    74
1070
     0
1000
MTEXTEND
  0
POINT
  5
EE3
330
24
100
AcDbEntity
  8
Defpoints
  6
Continuous
 62
     0
100
AcDbPoint
 10
277.0460645987669
 20
-116.3185188839314
 30
0.0
  0
POINT
  5
EE4
330
24
100
AcDbEntity
  8
Defpoints
  6
Continuous
 62
     0
100
AcDbPoint
 10
277.0460645987669
 20
-176.3185182839314
 30
0.0
  0
POINT
  5
EE5
330
24
100
AcDbEntity
  8
Defpoints
  6
Continuous
 62
     0
100
AcDbPoint
 10
290.846728288033
 20
-176.3185182839314
 30
0.0
  0
ENDBLK
  5
978
330
24
100
AcDbEntity
  8
0
100
AcDbBlockEnd
  0
BLOCK
  5
979
330
25
100
AcDbEntity
  8
0
 62
     2
100
AcDbBlockBegin
  2
*D4
 70
     1
 10
0.0
 20
0.0
 30
0.0
  3
*D4
  1

  0
LINE
  5
ED1
330
25
100
AcDbEntity
  8
7_DIM
  6
Continuous
 62
     0
370
    -2
100
AcDbLine
 10
283.0460645500169
 20
-178.3185182639314
 30
0.0
 11
294.086728288033
 21
-178.3185182639314
 31
0.0
  0
LINE
  5
ED2
330
25
100
AcDbEntity
  8
7_DIM
  6
Continuous
 62
     0
370
    -2
100
AcDbLine
 10
278.1710645987669
 20
-176.3185182839314
 30
0.0
 11
294.086728288033
 21
-176.3185182839314
 31
0.0
  0
LINE
  5
ED3
330
25
100
AcDbEntity
  8
7_DIM
  6
Continuous
 62
     0
370
    -2
100
AcDbLine
 10
290.846728288033
 20
-181.5585182639314
 30
0.0
 11
290.846728288033
 21
-184.7985182639314
 31
0.0
  0
LINE
  5
ED4
330
25
100
AcDbEntity
  8
7_DIM
  6
Continuous
 62
     0
370
    -2
100
AcDbLine
 10
290.846728288033
 20
-173.0785182839314
 30
0.0
 11
290.846728288033
 21
-169.8385182839314
 31
0.0
  0
LINE
  5
ED5
330
25
100
AcDbEntity
  8
7_DIM
  6
Continuous
 62
     0
370
    -2
100
AcDbLine
 10
290.846728288033
 20
-169.8385182839314
 30
0.0
 11
294.086728288033
 21
-169.8385182839314
 31
0.0
  0
SOLID
  5
ED6
330
25
100
AcDbEntity
  8
7_DIM
  6
Continuous
 62
     0
100
AcDbTrace
 10
290.3067282880329
 20
-181.5585182639314
 30
0.0
 11
291.386728288033
 21
-181.5585182639314
 31
0.0
 12
290.846728288033
 22
-178.3185182639314
 32
0.0
 13
290.846728288033
 23
-178.3185182639314
 33
0.0
  0
SOLID
  5
ED7
330
25
100
AcDbEntity
  8
7_DIM
  6
Continuous
 62
     0
100
AcDbTrace
 10
290.3067282880329
 20
-173.0785182839314
 30
0.0
 11
291.386728288033
 21
-173.0785182839314
 31
0.0
 12
290.846728288033
 22
-176.3185182839314
 32
0.0
 13
290.846728288033
 23
-176.3185182839314
 33
0.0
  0
MTEXT
  5
ED8
330
25
100
AcDbEntity
  8
7_DIM
  6
Continuous
 62
     0
100
AcDbMText
 10
298.106728288033
 20
-169.8385182839314
 30
0.0
 40
1.8
 41
0.0
 71
     5
 72
     1
  1
\A1;2.00
 73
     1
 44
1.0
1001
ACAD
1000
MTEXTBEGIN
1070
    73
1070
     1
1070
    44
1040
1.0
1070
    74
1070
     0
1000
MTEXTEND
  0
POINT
  5
ED9
330
25
100
AcDbEntity
  8
Defpoints
  6
Continuous
 62
     0
100
AcDbPoint
 10
281.9210645500169
 20
-178.3185182639314
 30
0.0
  0
POINT
  5
EDA
330
25
100
AcDbEntity
  8
Defpoints
  6
Continuous
 62
     0
100
AcDbPoint
 10
277.0460645987669
 20
-176.3185182839314
 30
0.0
  0
POINT
  5
EDB
330
25
100
AcDbEntity
  8
Defpoints
  6
Continuous
 62
     0
100
AcDbPoint
 10
290.846728288033
 20
-176.3185182839314
 30
0.0
  0
ENDBLK
  5
98D
330
25
100
AcDbEntity
  8
0
100
AcDbBlockEnd
  0
BLOCK
  5
98E
330
26
100
AcDbEntity
  8
0
 62
     2
100
AcDbBlockBegin
  2
*D5
 70
     1
 10
0.0
 20
0.0
 30
0.0
  3
*D5
  1

  0
LINE
  5
EC6
330
26
100
AcDbEntity
  8
7_DIM
  6
Continuous
 62
     0
370
    -2
100
AcDbLine
 10
283.0460645500169
 20
-178.3185182639314
 30
0.0
 11
309.2861709324022
 21
-178.3185182639314
 31
0.0
  0
LINE
  5
EC7
330
26
100
AcDbEntity
  8
7_DIM
  6
Continuous
 62
     0
370
    -2
100
AcDbLine
 10
283.0460645500169
 20
-179.8185182489314
 30
0.0
 11
309.2861709324022
 21
-179.8185182489314
 31
0.0
  0
LINE
  5
EC8
330
26
100
AcDbEntity
  8
7_DIM
  6
Continuous
 62
     0
370
    -2
100
AcDbLine
 10
306.0461709324022
 20
-175.0785182639314
 30
0.0
 11
306.0461709324022
 21
-171.8385182639313
 31
0.0
  0
LINE
  5
EC9
330
26
100
AcDbEntity
  8
7_DIM
  6
Continuous
 62
     0
370
    -2
100
AcDbLine
 10
306.0461709324022
 20
-183.0585182489314
 30
0.0
 11
306.0461709324022
 21
-186.2985182489314
 31
0.0
  0
LINE
  5
ECA
330
26
100
AcDbEntity
  8
7_DIM
  6
Continuous
 62
     0
370
    -2
100
AcDbLine
 10
306.0461709324022
 20
-186.2985182489314
 30
0.0
 11
302.8061709324022
 21
-186.2985182489314
 31
0.0
  0
SOLID
  5
ECB
330
26
100
AcDbEntity
  8
7_DIM
  6
Continuous
 62
     0
100
AcDbTrace
 10
305.5061709324022
 20
-175.0785182639314
 30
0.0
 11
306.5861709324023
 21
-175.0785182639314
 31
0.0
 12
306.0461709324022
 22
-178.3185182639314
 32
0.0
 13
306.0461709324022
 23
-178.3185182639314
 33
0.0
  0
SOLID
  5
ECC
330
26
100
AcDbEntity
  8
7_DIM
  6
Continuous
 62
     0
100
AcDbTrace
 10
305.5061709324022
 20
-183.0585182489314
 30
0.0
 11
306.5861709324023
 21
-183.0585182489314
 31
0.0
 12
306.0461709324022
 22
-179.8185182489314
 32
0.0
 13
306.0461709324022
 23
-179.8185182489314
 33
0.0
  0
MTEXT
  5
ECD
330
26
100
AcDbEntity
  8
7_DIM
  6
Continuous
 62
     0
100
AcDbMText
 10
298.9361709324023
 20
-186.2985182489314
 30
0.0
 40
1.8
 41
0.0
 71
     5
 72
     1
  1
\A1;1.50
 73
     1
 44
1.0
1001
ACAD
1000
MTEXTBEGIN
1070
    73
1070
     1
1070
    44
1040
1.0
1070
    74
1070
     0
1000
MTEXTEND
  0
POINT
  5
ECE
330
26
100
AcDbEntity
  8
Defpoints
  6
Continuous
 62
     0
100
AcDbPoint
 10
281.9210645500169
 20
-178.3185182639314
 30
0.0
  0
POINT
  5
ECF
330
26
100
AcDbEntity
  8
Defpoints
  6
Continuous
 62
     0
100
AcDbPoint
 10
281.9210645500169
 20
-179.8185182489314
 30
0.0
  0
POINT
  5
ED0
330
26
100
AcDbEntity
  8
Defpoints
  6
Continuous
 62
     0
100
AcDbPoint
 10
306.0461709324022
 20
-179.8185182489314
 30
0.0
  0
ENDBLK
  5
9A2
330
26
100
AcDbEntity
  8
0
100
AcDbBlockEnd
  0
BLOCK
  5
9A3
330
27
100
AcDbEntity
  8
0
 62
     2
100
AcDbBlockBegin
  2
*D6
 70
     1
 10
0.0
 20
0.0
 30
0.0
  3
*D6
  1

  0
LINE
  5
F88
330
27
100
AcDbEntity
  8
7_DIM
  6
Continuous
 62
     0
370
    -2
100
AcDbLine
 10
195.9097017737669
 20
-178.5798819089314
 30
0.0
 11
195.909701773767
 21
-190.2172095370172
 31
0.0
  0
LINE
  5
F89
330
27
100
AcDbEntity
  8
7_DIM
  6
Continuous
 62
     0
370
    -2
100
AcDbLine
 10
191.1597018212669
 20
-180.5798818889314
 30
0.0
 11
191.1597018212669
 21
-190.2172095370172
 31
0.0
  0
LINE
  5
F8A
330
27
100
AcDbEntity
  8
7_DIM
  6
Continuous
 62
     0
370
    -2
100
AcDbLine
 10
199.1497017737669
 20
-186.9772095370171
 30
0.0
 11
202.3897017737669
 21
-186.9772095370171
 31
0.0
  0
LINE
  5
F8B
330
27
100
AcDbEntity
  8
7_DIM
  6
Continuous
 62
     0
370
    -2
100
AcDbLine
 10
187.9197018212669
 20
-186.9772095370173
 30
0.0
 11
184.6797018212669
 21
-186.9772095370173
 31
0.0
  0
SOLID
  5
F8C
330
27
100
AcDbEntity
  8
7_DIM
  6
Continuous
 62
     0
100
AcDbTrace
 10
199.1497017737669
 20
-186.4372095370171
 30
0.0
 11
199.1497017737669
 21
-187.5172095370172
 31
0.0
 12
195.9097017737669
 22
-186.9772095370171
 32
0.0
 13
195.9097017737669
 23
-186.9772095370171
 33
0.0
  0
SOLID
  5
F8D
330
27
100
AcDbEntity
  8
7_DIM
  6
Continuous
 62
     0
100
AcDbTrace
 10
187.9197018212669
 20
-186.4372095370173
 30
0.0
 11
187.9197018212669
 21
-187.5172095370172
 31
0.0
 12
191.1597018212669
 22
-186.9772095370171
 32
0.0
 13
191.1597018212669
 23
-186.9772095370171
 33
0.0
  0
MTEXT
  5
F8E
330
27
100
AcDbEntity
  8
7_DIM
  6
Continuous
 62
     0
100
AcDbMText
 10
180.3597018212669
 20
-186.9772095370173
 30
0.0
 40
1.8
 41
0.0
 71
     5
 72
     1
  1
\A1;4.75
 73
     1
 44
1.0
1001
ACAD
1000
MTEXTBEGIN
1070
    73
1070
     1
1070
    44
1040
1.0
1070
    74
1070
     0
1000
MTEXTEND
  0
POINT
  5
F8F
330
27
100
AcDbEntity
  8
Defpoints
  6
Continuous
 62
     0
100
AcDbPoint
 10
195.9097017737669
 20
-177.4548819089314
 30
0.0
  0
POINT
  5
F90
330
27
100
AcDbEntity
  8
Defpoints
  6
Continuous
 62
     0
100
AcDbPoint
 10
191.1597018212669
 20
-179.4548818889314
 30
0.0
  0
POINT
  5
F91
330
27
100
AcDbEntity
  8
Defpoints
  6
Continuous
 62
     0
100
AcDbPoint
 10
191.1597018212669
 20
-186.9772095370171
 30
0.0
  0
ENDBLK
  5
9B7
330
27
100
AcDbEntity
  8
0
100
AcDbBlockEnd
  0
BLOCK
  5
9B8
330
28
100
AcDbEntity
  8
0
 62
     2
100
AcDbBlockBegin
  2
*D7
 70
     1
 10
0.0
 20
0.0
 30
0.0
  3
*D7
  1

  0
LINE
  5
F5F
330
28
100
AcDbEntity
  8
7_DIM
  6
Continuous
 62
     0
370
    -2
100
AcDbLine
 10
275.4645151050773
 20
-115.7249377146949
 30
0.0
 11
277.8537012286934
 21
-118.9105191718274
 31
0.0
  0
LINE
  5
F60
330
28
100
AcDbEntity
  8
7_DIM
  6
Continuous
 62
     0
370
    -2
100
AcDbLine
 10
195.4645159050772
 20
-175.7249371146949
 30
0.0
 11
197.8537023995651
 21
-178.910519066323
 31
0.0
  0
LINE
  5
F61
330
28
100
AcDbEntity
  8
7_DIM
  6
Continuous
 62
     0
370
    -2
100
AcDbLine
 10
273.317701224688
 20
-118.2625191998653
 30
0.0
 11
239.2697017548392
 21
-143.7985191310915
 31
0.0
  0
LINE
  5
F62
330
28
100
AcDbEntity
  8
7_DIM
  6
Continuous
 62
     0
370
    -2
100
AcDbLine
 10
198.5017023715272
 20
-174.3745190623176
 30
0.0
 11
232.5497018413759
 21
-148.8385191310915
 31
0.0
  0
SOLID
  5
F63
330
28
100
AcDbEntity
  8
7_DIM
  6
Continuous
 62
     0
100
AcDbTrace
 10
272.9937012220176
 20
-117.830519201868
 30
0.0
 11
273.6417012273582
 21
-118.6945191978626
 31
0.0
 12
275.9097012126717
 22
-116.3185191838436
 32
0.0
 13
275.9097012126717
 23
-116.3185191838436
 33
0.0
  0
SOLID
  5
F64
330
28
100
AcDbEntity
  8
7_DIM
  6
Continuous
 62
     0
100
AcDbTrace
 10
198.1777023688569
 20
-173.9425190643203
 30
0.0
 11
198.8257023741974
 21
-174.8065190603149
 31
0.0
 12
195.9097023835434
 22
-176.3185190783393
 32
0.0
 13
195.9097023835434
 23
-176.3185190783393
 33
0.0
  0
MTEXT
  5
F65
330
28
100
AcDbEntity
  8
7_DIM
  6
Continuous
 62
     0
100
AcDbMText
 10
235.9097017981075
 20
-146.3185191310915
 30
0.0
 40
1.8
 41
0.0
 71
     5
 72
     1
  1
\A1;100.00
 73
     1
 44
1.0
1001
ACAD
1000
MTEXTBEGIN
1070
    73
1070
     1
1070
    44
1040
1.0
1070
    74
1070
     0
1000
MTEXTEND
  0
POINT
  5
F66
330
28
100
AcDbEntity
  8
Defpoints
  6
Continuous
 62
     0
100
AcDbPoint
 10
274.7895150995142
 20
-114.8249377188672
 30
0.0
  0
POINT
  5
F67
330
28
100
AcDbEntity
  8
Defpoints
  6
Continuous
 62
     0
100
AcDbPoint
 10
194.7895158995142
 20
-174.8249371188672
 30
0.0
  0
POINT
  5
F68
330
28
100
AcDbEntity
  8
Defpoints
  6
Continuous
 62
     0
100
AcDbPoint
 10
195.9097023835434
 20
-176.3185190783393
 30
0.0
  0
ENDBLK
  5
9CB
330
28
100
AcDbEntity
  8
0
100
AcDbBlockEnd
  0
BLOCK
  5
9CC
330
29
100
AcDbEntity
  8
0
 62
     2
100
AcDbBlockBegin
  2
*D8
 70
     1
 10
0.0
 20
0.0
 30
0.0
  3
*D8
  1

  0
LINE
  5
D49
330
29
100
AcDbEntity
  8
7_DIM
  6
Continuous
 62
     0
370
    -2
100
AcDbLine
 10
137.9055981901715
 20
-94.40551193698192
 30
0.0
 11
137.9055981901715
 21
-86.99229740812091
 31
0.0
  0
LINE
  5
D4A
330
29
100
AcDbEntity
  8
7_DIM
  6
Continuous
 62
     0
370
    -2
100
AcDbLine
 10
165.1783251901715
 20
-93.86308770058798
 30
0.0
 11
165.1783251901715
 21
-86.99229740812091
 31
0.0
  0
LINE
  5
D4B
330
29
100
AcDbEntity
  8
7_DIM
  6
Continuous
 62
     0
370
    -2
100
AcDbLine
 10
138.0855981901715
 20
-87.1722974081209
 30
0.0
 11
151.1186283568382
 21
-87.1722974081209
 31
0.0
  0
LINE
  5
D4C
330
29
100
AcDbEntity
  8
7_DIM
  6
Continuous
 62
     0
370
    -2
100
AcDbLine
 10
164.9983251901715
 20
-87.1722974081209
 30
0.0
 11
151.9652950235049
 21
-87.1722974081209
 31
0.0
  0
SOLID
  5
D4D
330
29
100
AcDbEntity
  8
7_DIM
  6
Continuous
 62
     0
100
AcDbTrace
 10
138.0855981901715
 20
-87.1422974081209
 30
0.0
 11
138.0855981901715
 21
-87.2022974081209
 31
0.0
 12
137.9055981901715
 22
-87.1722974081209
 32
0.0
 13
137.9055981901715
 23
-87.1722974081209
 33
0.0
  0
SOLID
  5
D4E
330
29
100
AcDbEntity
  8
7_DIM
  6
Continuous
 62
     0
100
AcDbTrace
 10
164.9983251901715
 20
-87.1422974081209
 30
0.0
 11
164.9983251901715
 21
-87.2022974081209
 31
0.0
 12
165.1783251901715
 22
-87.1722974081209
 32
0.0
 13
165.1783251901715
 23
-87.1722974081209
 33
0.0
  0
MTEXT
  5
D4F
330
29
100
AcDbEntity
  8
7_DIM
  6
Continuous
 62
     0
100
AcDbMText
 10
151.5419616901715
 20
-87.1722974081209
 30
0.0
 40
0.1
 41
0.0
 71
     5
 72
     1
  1
\A1;163.6364
 73
     1
 44
1.0
1001
ACAD
1000
MTEXTBEGIN
1070
    73
1070
     1
1070
    44
1040
1.0
1070
    74
1070
     0
1000
MTEXTEND
  0
POINT
  5
D50
330
29
100
AcDbEntity
  8
Defpoints
  6
Continuous
 62
     0
100
AcDbPoint
 10
137.9055981901715
 20
-94.46801193698192
 30
0.0
  0
POINT
  5
D51
330
29
100
AcDbEntity
  8
Defpoints
  6
Continuous
 62
     0
100
AcDbPoint
 10
165.1783251901715
 20
-93.92558770058798
 30
0.0
  0
POINT
  5
D52
330
29
100
AcDbEntity
  8
Defpoints
  6
Continuous
 62
     0
100
AcDbPoint
 10
165.1783251901715
 20
-87.1722974081209
 30
0.0
  0
ENDBLK
  5
9DE
330
29
100
AcDbEntity
  8
0
100
AcDbBlockEnd
  0
BLOCK
  5
9DF
330
2A
100
AcDbEntity
  8
0
 62
     2
100
AcDbBlockBegin
  2
*D9
 70
     1
 10
0.0
 20
0.0
 30
0.0
  3
*D9
  1

  0
LINE
  5
D53
330
2A
100
AcDbEntity
  8
7_DIM
  6
Continuous
 62
     0
370
    -2
100
AcDbLine
 10
142.3571132965655
 20
-94.58733011698194
 30
0.0
 11
142.3571132965655
 21
-91.21022536048704
 31
0.0
  0
LINE
  5
D54
330
2A
100
AcDbEntity
  8
7_DIM
  6
Continuous
 62
     0
370
    -2
100
AcDbLine
 10
160.7268100819594
 20
-94.58733011698194
 30
0.0
 11
160.7268100819594
 21
-91.21022536048704
 31
0.0
  0
LINE
  5
D55
330
2A
100
AcDbEntity
  8
7_DIM
  6
Continuous
 62
     0
370
    -2
100
AcDbLine
 10
142.5371132965655
 20
-91.39022536048706
 30
0.0
 11
151.1602950225958
 21
-91.39022536048706
 31
0.0
  0
LINE
  5
D56
330
2A
100
AcDbEntity
  8
7_DIM
  6
Continuous
 62
     0
370
    -2
100
AcDbLine
 10
160.5468100819594
 20
-91.39022536048706
 30
0.0
 11
151.9236283559291
 21
-91.39022536048706
 31
0.0
  0
SOLID
  5
D57
330
2A
100
AcDbEntity
  8
7_DIM
  6
Continuous
 62
     0
100
AcDbTrace
 10
142.5371132965655
 20
-91.36022536048706
 30
0.0
 11
142.5371132965655
 21
-91.42022536048706
 31
0.0
 12
142.3571132965655
 22
-91.39022536048706
 32
0.0
 13
142.3571132965655
 23
-91.39022536048706
 33
0.0
  0
SOLID
  5
D58
330
2A
100
AcDbEntity
  8
7_DIM
  6
Continuous
 62
     0
100
AcDbTrace
 10
160.5468100819594
 20
-91.36022536048706
 30
0.0
 11
160.5468100819594
 21
-91.42022536048706
 31
0.0
 12
160.7268100819594
 22
-91.39022536048706
 32
0.0
 13
160.7268100819594
 23
-91.39022536048706
 33
0.0
  0
MTEXT
  5
D59
330
2A
100
AcDbEntity
  8
7_DIM
  6
Continuous
 62
     0
100
AcDbMText
 10
151.5419616892625
 20
-91.39022536048706
 30
0.0
 40
0.1
 41
0.0
 71
     5
 72
     1
  1
\A1;110.2182
 73
     1
 44
1.0
1001
ACAD
1000
MTEXTBEGIN
1070
    73
1070
     1
1070
    44
1040
1.0
1070
    74
1070
     0
1000
MTEXTEND
  0
POINT
  5
D5A
330
2A
100
AcDbEntity
  8
Defpoints
  6
Continuous
 62
     0
100
AcDbPoint
 10
142.3571132965655
 20
-94.64983011698194
 30
0.0
  0
POINT
  5
D5B
330
2A
100
AcDbEntity
  8
Defpoints
  6
Continuous
 62
     0
100
AcDbPoint
 10
160.7268100819594
 20
-94.64983011698194
 30
0.0
  0
POINT
  5
D5C
330
2A
100
AcDbEntity
  8
Defpoints
  6
Continuous
 62
     0
100
AcDbPoint
 10
160.7268100819594
 20
-91.39022536048706
 30
0.0
  0
ENDBLK
  5
9F1
330
2A
100
AcDbEntity
  8
0
100
AcDbBlockEnd
  0
BLOCK
  5
9F2
330
2B
100
AcDbEntity
  8
0
 62
     2
100
AcDbBlockBegin
  2
*D10
 70
     1
 10
0.0
 20
0.0
 30
0.0
  3
*D10
  1

  0
LINE
  5
D5D
330
2B
100
AcDbEntity
  8
7_DIM
  6
Continuous
 62
     0
370
    -2
100
AcDbLine
 10
163.2843858145655
 20
-116.2002086893759
 30
0.0
 11
163.2843858145655
 21
-121.9565226457148
 31
0.0
  0
LINE
  5
D5E
330
2B
100
AcDbEntity
  8
7_DIM
  6
Continuous
 62
     0
370
    -2
100
AcDbLine
 10
139.7874163531716
 20
-116.2441480834819
 30
0.0
 11
139.7874163531716
 21
-121.956522645715
 31
0.0
  0
LINE
  5
D5F
330
2B
100
AcDbEntity
  8
7_DIM
  6
Continuous
 62
     0
370
    -2
100
AcDbLine
 10
163.1043858145655
 20
-121.7765226457148
 30
0.0
 11
151.9342344172019
 21
-121.7765226457149
 31
0.0
  0
LINE
  5
D60
330
2B
100
AcDbEntity
  8
7_DIM
  6
Continuous
 62
     0
370
    -2
100
AcDbLine
 10
139.9674163531716
 20
-121.776522645715
 30
0.0
 11
151.1375677505351
 21
-121.7765226457149
 31
0.0
  0
SOLID
  5
D61
330
2B
100
AcDbEntity
  8
7_DIM
  6
Continuous
 62
     0
100
AcDbTrace
 10
163.1043858145655
 20
-121.7465226457148
 30
0.0
 11
163.1043858145655
 21
-121.8065226457148
 31
0.0
 12
163.2843858145655
 22
-121.7765226457148
 32
0.0
 13
163.2843858145655
 23
-121.7765226457148
 33
0.0
  0
SOLID
  5
D62
330
2B
100
AcDbEntity
  8
7_DIM
  6
Continuous
 62
     0
100
AcDbTrace
 10
139.9674163531716
 20
-121.746522645715
 30
0.0
 11
139.9674163531716
 21
-121.806522645715
 31
0.0
 12
139.7874163531716
 22
-121.776522645715
 32
0.0
 13
139.7874163531716
 23
-121.776522645715
 33
0.0
  0
MTEXT
  5
D63
330
2B
100
AcDbEntity
  8
7_DIM
  6
Continuous
 62
     0
100
AcDbMText
 10
151.5359010838686
 20
-121.7765226457149
 30
0.0
 40
0.1
 41
0.0
 71
     5
 72
     1
  1
\A1;140.9818
 73
     1
 44
1.0
1001
ACAD
1000
MTEXTBEGIN
1070
    73
1070
     1
1070
    44
1040
1.0
1070
    74
1070
     0
1000
MTEXTEND
  0
POINT
  5
D64
330
2B
100
AcDbEntity
  8
Defpoints
  6
Continuous
 62
     0
100
AcDbPoint
 10
163.2843858145655
 20
-116.1377086893758
 30
0.0
  0
POINT
  5
D65
330
2B
100
AcDbEntity
  8
Defpoints
  6
Continuous
 62
     0
100
AcDbPoint
 10
139.7874163531716
 20
-116.1816480834819
 30
0.0
  0
POINT
  5
D66
330
2B
100
AcDbEntity
  8
Defpoints
  6
Continuous
 62
     0
100
AcDbPoint
 10
139.7874163531716
 20
-121.776522645715
 30
0.0
  0
ENDBLK
  5
A04
330
2B
100
AcDbEntity
  8
0
100
AcDbBlockEnd
  0
BLOCK
  5
A05
330
2C
100
AcDbEntity
  8
0
 62
     2
100
AcDbBlockBegin
  2
*D11
 70
     1
 10
0.0
 20
0.0
 30
0.0
  3
*D11
  1

  0
LINE
  5
1615
330
2C
100
AcDbEntity
  8
6
 62
     0
370
    -2
100
AcDbLine
 10
191.1507048939341
 20
-97.17801873317732
 30
0.0
 11
191.1507048939341
 21
-88.54532891599246
 31
0.0
  0
LINE
  5
1616
330
2C
100
AcDbEntity
  8
6
 62
     0
370
    -2
100
AcDbLine
 10
292.6537019664768
 20
-97.17801873317732
 30
0.0
 11
292.6537019664768
 21
-88.54532891599246
 31
0.0
  0
LINE
  5
1617
330
2C
100
AcDbEntity
  8
6
 62
     0
370
    -2
100
AcDbLine
 10
194.3907048939341
 20
-91.78532891599244
 30
0.0
 11
215.6822034302055
 21
-91.78532891599244
 31
0.0
  0
LINE
  5
1618
330
2C
100
AcDbEntity
  8
6
 62
     0
370
    -2
100
AcDbLine
 10
289.4137019664768
 20
-91.78532891599244
 30
0.0
 11
268.1222034302055
 21
-91.78532891599244
 31
0.0
  0
SOLID
  5
1619
330
2C
100
AcDbEntity
  8
6
 62
     0
100
AcDbTrace
 10
194.3907048939341
 20
-91.24532891599242
 30
0.0
 11
194.3907048939341
 21
-92.32532891599246
 31
0.0
 12
191.1507048939341
 22
-91.78532891599244
 32
0.0
 13
191.1507048939341
 23
-91.78532891599244
 33
0.0
  0
SOLID
  5
161A
330
2C
100
AcDbEntity
  8
6
 62
     0
100
AcDbTrace
 10
289.4137019664768
 20
-91.24532891599242
 30
0.0
 11
289.4137019664768
 21
-92.32532891599246
 31
0.0
 12
292.6537019664768
 22
-91.78532891599244
 32
0.0
 13
292.6537019664768
 23
-91.78532891599244
 33
0.0
  0
MTEXT
  5
161B
330
2C
100
AcDbEntity
  8
6
 62
     0
100
AcDbMText
 10
241.9022034302055
 20
-91.78532891599244
 30
0.0
 40
1.8
 41
0.0
 71
     5
 72
     1
  1
\A1;101.50 OVERALL LENGTH OF CASE
 73
     1
 44
1.0
  0
POINT
  5
161C
330
2C
100
AcDbEntity
  8
Defpoints
 62
     0
100
AcDbPoint
 10
191.1507048939341
 20
-98.30301873317733
 30
0.0
  0
POINT
  5
161D
330
2C
100
AcDbEntity
  8
Defpoints
 62
     0
100
AcDbPoint
 10
292.6537019664768
 20
-98.30301873317733
 30
0.0
  0
POINT
  5
161E
330
2C
100
AcDbEntity
  8
Defpoints
 62
     0
100
AcDbPoint
 10
292.6537019664768
 20
-91.78532891599244
 30
0.0
  0
ENDBLK
  5
A18
330
2C
100
AcDbEntity
  8
0
100
AcDbBlockEnd
  0
BLOCK
  5
A19
330
2D
100
AcDbEntity
  8
0
 62
     2
100
AcDbBlockBegin
  2
*D12
 70
     1
 10
0.0
 20
0.0
 30
0.0
  3
*D12
  1

  0
LINE
  5
1629
330
2D
100
AcDbEntity
  8
6
 62
     0
370
    -2
100
AcDbLine
 10
293.5347008775168
 20
-102.0416553790864
 30
0.0
 11
293.5347008775167
 21
-82.80315667067691
 31
0.0
  0
LINE
  5
162A
330
2D
100
AcDbEntity
  8
6
 62
     0
370
    -2
100
AcDbLine
 10
190.2847018700169
 20
-101.9226553802764
 30
0.0
 11
190.2847018700166
 21
-82.80315667067773
 31
0.0
  0
LINE
  5
162B
330
2D
100
AcDbEntity
  8
6
 62
     0
370
    -2
100
AcDbLine
 10
290.2947008775167
 20
-86.04315667067693
 30
0.0
 11
272.1797013737667
 21
-86.04315667067707
 31
0.0
  0
LINE
  5
162C
330
2D
100
AcDbEntity
  8
6
 62
     0
370
    -2
100
AcDbLine
 10
193.5247018700168
 20
-86.04315667067771
 30
0.0
 11
211.6397013737667
 21
-86.04315667067757
 31
0.0
  0
SOLID
  5
162D
330
2D
100
AcDbEntity
  8
6
 62
     0
100
AcDbTrace
 10
290.2947008775167
 20
-85.50315667067691
 30
0.0
 11
290.2947008775167
 21
-86.58315667067695
 31
0.0
 12
293.5347008775167
 22
-86.04315667067689
 32
0.0
 13
293.5347008775167
 23
-86.04315667067689
 33
0.0
  0
SOLID
  5
162E
330
2D
100
AcDbEntity
  8
6
 62
     0
100
AcDbTrace
 10
193.5247018700168
 20
-85.50315667067769
 30
0.0
 11
193.5247018700168
 21
-86.58315667067768
 31
0.0
 12
190.2847018700166
 22
-86.04315667067773
 32
0.0
 13
190.2847018700166
 23
-86.04315667067773
 33
0.0
  0
MTEXT
  5
162F
330
2D
100
AcDbEntity
  8
6
 62
     0
100
AcDbMText
 10
241.9097013737667
 20
-86.04315667067732
 30
0.0
 40
1.8
 41
0.0
 71
     5
 72
     1
  1
\A1;103.25 OVERALL LENGTH WITH FLANGE
 73
     1
 44
1.0
  0
POINT
  5
1630
330
2D
100
AcDbEntity
  8
Defpoints
 62
     0
100
AcDbPoint
 10
293.5347008775169
 20
-103.1666553790864
 30
0.0
  0
POINT
  5
1631
330
2D
100
AcDbEntity
  8
Defpoints
 62
     0
100
AcDbPoint
 10
190.2847018700169
 20
-103.0476553802764
 30
0.0
  0
POINT
  5
1632
330
2D
100
AcDbEntity
  8
Defpoints
 62
     0
100
AcDbPoint
 10
190.2847018700166
 20
-86.04315667067773
 30
0.0
  0
ENDBLK
  5
A2C
330
2D
100
AcDbEntity
  8
0
100
AcDbBlockEnd
  0
BLOCK
  5
A2D
330
2E
100
AcDbEntity
  8
0
 62
     2
100
AcDbBlockBegin
  2
*D13
 70
     1
 10
0.0
 20
0.0
 30
0.0
  3
*D13
  1

  0
LINE
  5
150B
330
2E
100
AcDbEntity
  8
6
 62
     0
370
    -2
100
AcDbLine
 10
290.5347009075169
 20
-98.69338513438734
 30
0.0
 11
290.5347009075168
 21
-88.73383950919565
 31
0.0
  0
LINE
  5
150C
330
2E
100
AcDbEntity
  8
6
 62
     0
370
    -2
100
AcDbLine
 10
193.2847018400169
 20
-98.69338513438734
 30
0.0
 11
193.2847018400168
 21
-88.73383950919643
 31
0.0
  0
LINE
  5
150D
330
2E
100
AcDbEntity
  8
6
 62
     0
370
    -2
100
AcDbLine
 10
287.2947009075168
 20
-91.97383950919569
 30
0.0
 11
247.1297013737668
 21
-91.97383950919599
 31
0.0
  0
LINE
  5
150E
330
2E
100
AcDbEntity
  8
6
 62
     0
370
    -2
100
AcDbLine
 10
196.5247018400168
 20
-91.97383950919642
 30
0.0
 11
236.6897013737669
 21
-91.97383950919606
 31
0.0
  0
SOLID
  5
150F
330
2E
100
AcDbEntity
  8
6
 62
     0
100
AcDbTrace
 10
287.2947009075168
 20
-91.43383950919568
 30
0.0
 11
287.2947009075168
 21
-92.51383950919569
 31
0.0
 12
290.5347009075168
 22
-91.97383950919563
 32
0.0
 13
290.5347009075168
 23
-91.97383950919563
 33
0.0
  0
SOLID
  5
1510
330
2E
100
AcDbEntity
  8
6
 62
     0
100
AcDbTrace
 10
196.5247018400168
 20
-91.43383950919641
 30
0.0
 11
196.5247018400168
 21
-92.51383950919642
 31
0.0
 12
193.2847018400168
 22
-91.97383950919642
 32
0.0
 13
193.2847018400168
 23
-91.97383950919642
 33
0.0
  0
MTEXT
  5
1511
330
2E
100
AcDbEntity
  8
6
 62
     0
100
AcDbMText
 10
241.9097013737669
 20
-91.97383950919606
 30
0.0
 40
1.8
 41
0.0
 71
     5
 72
     1
  1
\A1;97.25
 73
     1
 44
1.0
  0
POINT
  5
1512
330
2E
100
AcDbEntity
  8
Defpoints
 62
     0
100
AcDbPoint
 10
290.5347009075169
 20
-99.81838513438733
 30
0.0
  0
POINT
  5
1513
330
2E
100
AcDbEntity
  8
Defpoints
 62
     0
100
AcDbPoint
 10
193.2847018400169
 20
-99.81838513438733
 30
0.0
  0
POINT
  5
1514
330
2E
100
AcDbEntity
  8
Defpoints
 62
     0
100
AcDbPoint
 10
193.2847018400168
 20
-91.97383950919642
 30
0.0
  0
ENDBLK
  5
A40
330
2E
100
AcDbEntity
  8
0
100
AcDbBlockEnd
  0
BLOCK
  5
A41
330
2F
100
AcDbEntity
  8
0
 62
     2
100
AcDbBlockBegin
  2
*D14
 70
     1
 10
0.0
 20
0.0
 30
0.0
  3
*D14
  1

  0
LINE
  5
F4B
330
2F
100
AcDbEntity
  8
7_DIM
  6
Continuous
 62
     0
370
    -2
100
AcDbLine
 10
286.7960645125169
 20
-104.3185190039314
 30
0.0
 11
294.0867282880331
 21
-104.3185190039314
 31
0.0
  0
LINE
  5
F4C
330
2F
100
AcDbEntity
  8
7_DIM
  6
Continuous
 62
     0
370
    -2
100
AcDbLine
 10
278.1710645987669
 20
-116.3185188839314
 30
0.0
 11
294.0867282880331
 21
-116.3185188839314
 31
0.0
  0
LINE
  5
F4D
330
2F
100
AcDbEntity
  8
7_DIM
  6
Continuous
 62
     0
370
    -2
100
AcDbLine
 10
290.846728288033
 20
-107.5585190039314
 30
0.0
 11
290.846728288033
 21
-107.8834965553939
 31
0.0
  0
LINE
  5
F4E
330
2F
100
AcDbEntity
  8
7_DIM
  6
Continuous
 62
     0
370
    -2
100
AcDbLine
 10
290.846728288033
 20
-113.0785188839314
 30
0.0
 11
290.846728288033
 21
-112.9234965553939
 31
0.0
  0
SOLID
  5
F4F
330
2F
100
AcDbEntity
  8
7_DIM
  6
Continuous
 62
     0
100
AcDbTrace
 10
290.306728288033
 20
-107.5585190039314
 30
0.0
 11
291.386728288033
 21
-107.5585190039314
 31
0.0
 12
290.846728288033
 22
-104.3185190039314
 32
0.0
 13
290.846728288033
 23
-104.3185190039314
 33
0.0
  0
SOLID
  5
F50
330
2F
100
AcDbEntity
  8
7_DIM
  6
Continuous
 62
     0
100
AcDbTrace
 10
290.306728288033
 20
-113.0785188839314
 30
0.0
 11
291.386728288033
 21
-113.0785188839314
 31
0.0
 12
290.846728288033
 22
-116.3185188839314
 32
0.0
 13
290.846728288033
 23
-116.3185188839314
 33
0.0
  0
MTEXT
  5
F51
330
2F
100
AcDbEntity
  8
7_DIM
  6
Continuous
 62
     0
100
AcDbMText
 10
290.846728288033
 20
-110.4034965553939
 30
0.0
 40
1.8
 41
0.0
 71
     5
 72
     1
  1
\A1;12.00
 73
     1
 44
1.0
1001
ACAD
1000
MTEXTBEGIN
1070
    73
1070
     1
1070
    44
1040
1.0
1070
    74
1070
     0
1000
MTEXTEND
  0
POINT
  5
F52
330
2F
100
AcDbEntity
  8
Defpoints
  6
Continuous
 62
     0
100
AcDbPoint
 10
285.6710645125168
 20
-104.3185190039314
 30
0.0
  0
POINT
  5
F53
330
2F
100
AcDbEntity
  8
Defpoints
  6
Continuous
 62
     0
100
AcDbPoint
 10
277.0460645987669
 20
-116.3185188839314
 30
0.0
  0
POINT
  5
F54
330
2F
100
AcDbEntity
  8
Defpoints
  6
Continuous
 62
     0
100
AcDbPoint
 10
290.846728288033
 20
-116.3185188839314
 30
0.0
  0
ENDBLK
  5
A54
330
2F
100
AcDbEntity
  8
0
100
AcDbBlockEnd
  0
BLOCK
  5
A55
330
30
100
AcDbEntity
  8
0
 62
     2
100
AcDbBlockBegin
  2
*D15
 70
     1
 10
0.0
 20
0.0
 30
0.0
  3
*D15
  1

  0
LINE
  5
EBC
330
30
100
AcDbEntity
  8
7_DIM
  6
Continuous
 62
     0
370
    -2
100
AcDbLine
 10
286.7960645125169
 20
-104.3185190039314
 30
0.0
 11
313.6200597490634
 21
-104.3185190039314
 31
0.0
  0
LINE
  5
EBD
330
30
100
AcDbEntity
  8
7_DIM
  6
Continuous
 62
     0
370
    -2
100
AcDbLine
 10
283.0460645500169
 20
-179.8185182489314
 30
0.0
 11
313.6200597490633
 21
-179.8185182489314
 31
0.0
  0
LINE
  5
EBE
330
30
100
AcDbEntity
  8
7_DIM
  6
Continuous
 62
     0
370
    -2
100
AcDbLine
 10
310.3800597490634
 20
-107.5585190039314
 30
0.0
 11
310.3800597490633
 21
-139.5485186264314
 31
0.0
  0
LINE
  5
EBF
330
30
100
AcDbEntity
  8
7_DIM
  6
Continuous
 62
     0
370
    -2
100
AcDbLine
 10
310.3800597490633
 20
-176.5785182489314
 30
0.0
 11
310.3800597490633
 21
-144.5885186264314
 31
0.0
  0
SOLID
  5
EC0
330
30
100
AcDbEntity
  8
7_DIM
  6
Continuous
 62
     0
100
AcDbTrace
 10
309.8400597490634
 20
-107.5585190039314
 30
0.0
 11
310.9200597490634
 21
-107.5585190039314
 31
0.0
 12
310.3800597490634
 22
-104.3185190039314
 32
0.0
 13
310.3800597490634
 23
-104.3185190039314
 33
0.0
  0
SOLID
  5
EC1
330
30
100
AcDbEntity
  8
7_DIM
  6
Continuous
 62
     0
100
AcDbTrace
 10
309.8400597490633
 20
-176.5785182489314
 30
0.0
 11
310.9200597490633
 21
-176.5785182489314
 31
0.0
 12
310.3800597490633
 22
-179.8185182489314
 32
0.0
 13
310.3800597490633
 23
-179.8185182489314
 33
0.0
  0
MTEXT
  5
EC2
330
30
100
AcDbEntity
  8
7_DIM
  6
Continuous
 62
     0
100
AcDbMText
 10
310.3800597490634
 20
-142.0685186264313
 30
0.0
 40
1.8
 41
0.0
 71
     5
 72
     1
  1
\A1;75.50
 73
     1
 44
1.0
1001
ACAD
1000
MTEXTBEGIN
1070
    73
1070
     1
1070
    44
1040
1.0
1070
    74
1070
     0
1000
MTEXTEND
  0
POINT
  5
EC3
330
30
100
AcDbEntity
  8
Defpoints
  6
Continuous
 62
     0
100
AcDbPoint
 10
285.6710645125168
 20
-104.3185190039314
 30
0.0
  0
POINT
  5
EC4
330
30
100
AcDbEntity
  8
Defpoints
  6
Continuous
 62
     0
100
AcDbPoint
 10
281.9210645500169
 20
-179.8185182489314
 30
0.0
  0
POINT
  5
EC5
330
30
100
AcDbEntity
  8
Defpoints
  6
Continuous
 62
     0
100
AcDbPoint
 10
310.3800597490633
 20
-179.8185182489314
 30
0.0
  0
ENDBLK
  5
A67
330
30
100
AcDbEntity
  8
0
100
AcDbBlockEnd
  0
BLOCK
  5
1028
330
101C
100
AcDbEntity
  8
0
100
AcDbBlockBegin
  2
*D16
 70
     1
 10
0.0
 20
0.0
 30
0.0
  3
*D16
  1

  0
LINE
  5
15C4
330
101C
100
AcDbEntity
  8
6
 62
     0
370
    -2
100
AcDbLine
 10
291.0346985483124
 20
-106.3185216021131
 30
0.0
 11
311.4781321700647
 21
-106.3185216021131
 31
0.0
  0
LINE
  5
15C5
330
101C
100
AcDbEntity
  8
6
 62
     0
370
    -2
100
AcDbLine
 10
291.0346985483124
 20
-104.3185216021132
 30
0.0
 11
311.4781321700647
 21
-104.3185216021132
 31
0.0
  0
LINE
  5
15C6
330
101C
100
AcDbEntity
  8
6
 62
     0
370
    -2
100
AcDbLine
 10
308.2381321700647
 20
-109.5585216021131
 30
0.0
 11
308.2381321700647
 21
-112.7985216021131
 31
0.0
  0
LINE
  5
15C7
330
101C
100
AcDbEntity
  8
6
 62
     0
370
    -2
100
AcDbLine
 10
308.2381321700647
 20
-101.0785216021132
 30
0.0
 11
308.2381321700647
 21
-97.83852160211321
 31
0.0
  0
LINE
  5
15C8
330
101C
100
AcDbEntity
  8
6
 62
     0
370
    -2
100
AcDbLine
 10
308.2381321700647
 20
-97.83852160211321
 30
0.0
 11
311.4781321700647
 21
-97.83852160211321
 31
0.0
  0
SOLID
  5
15C9
330
101C
100
AcDbEntity
  8
6
 62
     0
100
AcDbTrace
 10
307.6981321700646
 20
-109.5585216021131
 30
0.0
 11
308.7781321700647
 21
-109.5585216021131
 31
0.0
 12
308.2381321700647
 22
-106.3185216021131
 32
0.0
 13
308.2381321700647
 23
-106.3185216021131
 33
0.0
  0
SOLID
  5
15CA
330
101C
100
AcDbEntity
  8
6
 62
     0
100
AcDbTrace
 10
307.6981321700646
 20
-101.0785216021132
 30
0.0
 11
308.7781321700647
 21
-101.0785216021132
 31
0.0
 12
308.2381321700647
 22
-104.3185216021132
 32
0.0
 13
308.2381321700647
 23
-104.3185216021132
 33
0.0
  0
MTEXT
  5
15CB
330
101C
100
AcDbEntity
  8
6
 62
     0
100
AcDbMText
 10
315.7981321700646
 20
-97.83852160211315
 30
0.0
 40
1.8
 41
0.0
 71
     5
 72
     1
  1
\A1;2.00\PBLK.
 73
     1
 44
1.0
  0
POINT
  5
15CC
330
101C
100
AcDbEntity
  8
Defpoints
 62
     0
100
AcDbPoint
 10
289.9096985483124
 20
-106.3185216021131
 30
0.0
  0
POINT
  5
15CD
330
101C
100
AcDbEntity
  8
Defpoints
 62
     0
100
AcDbPoint
 10
289.9096985483124
 20
-104.3185216021132
 30
0.0
  0
POINT
  5
15CE
330
101C
100
AcDbEntity
  8
Defpoints
 62
     0
100
AcDbPoint
 10
308.2381321700647
 20
-104.3185216021132
 30
0.0
  0
ENDBLK
  5
1029
330
101C
100
AcDbEntity
  8
0
100
AcDbBlockEnd
  0
BLOCK
  5
1036
330
102B
100
AcDbEntity
  8
0
100
AcDbBlockBegin
  2
*D17
 70
     1
 10
0.0
 20
0.0
 30
0.0
  3
*D17
  1

  0
LINE
  5
15BA
330
102B
100
AcDbEntity
  8
6
 62
     0
370
    -2
100
AcDbLine
 10
289.0346985483123
 20
-106.3185216021132
 30
0.0
 11
311.4781321700647
 21
-106.3185216021132
 31
0.0
  0
LINE
  5
15BB
330
102B
100
AcDbEntity
  8
6
 62
     0
370
    -2
100
AcDbLine
 10
289.0346985483124
 20
-158.3185216021132
 30
0.0
 11
311.4781321700646
 21
-158.3185216021132
 31
0.0
  0
LINE
  5
15BC
330
102B
100
AcDbEntity
  8
6
 62
     0
370
    -2
100
AcDbLine
 10
308.2381321700647
 20
-109.5585216021132
 30
0.0
 11
308.2381321700646
 21
-128.2985216021131
 31
0.0
  0
LINE
  5
15BD
330
102B
100
AcDbEntity
  8
6
 62
     0
370
    -2
100
AcDbLine
 10
308.2381321700646
 20
-155.0785216021131
 30
0.0
 11
308.2381321700646
 21
-136.3385216021132
 31
0.0
  0
SOLID
  5
15BE
330
102B
100
AcDbEntity
  8
6
 62
     0
100
AcDbTrace
 10
307.6981321700646
 20
-109.5585216021132
 30
0.0
 11
308.7781321700647
 21
-109.5585216021132
 31
0.0
 12
308.2381321700647
 22
-106.3185216021132
 32
0.0
 13
308.2381321700647
 23
-106.3185216021132
 33
0.0
  0
SOLID
  5
15BF
330
102B
100
AcDbEntity
  8
6
 62
     0
100
AcDbTrace
 10
307.6981321700646
 20
-155.0785216021131
 30
0.0
 11
308.7781321700646
 21
-155.0785216021131
 31
0.0
 12
308.2381321700646
 22
-158.3185216021132
 32
0.0
 13
308.2381321700646
 23
-158.3185216021132
 33
0.0
  0
MTEXT
  5
15C0
330
102B
100
AcDbEntity
  8
6
 62
     0
100
AcDbMText
 10
308.2381321700647
 20
-132.3185216021131
 30
0.0
 40
1.8
 41
0.0
 71
     5
 72
     1
  1
\A1;52.00\PV.A.
 73
     1
 44
1.0
  0
POINT
  5
15C1
330
102B
100
AcDbEntity
  8
Defpoints
 62
     0
100
AcDbPoint
 10
287.9096985483123
 20
-106.3185216021132
 30
0.0
  0
POINT
  5
15C2
330
102B
100
AcDbEntity
  8
Defpoints
 62
     0
100
AcDbPoint
 10
287.9096985483124
 20
-158.3185216021132
 30
0.0
  0
POINT
  5
15C3
330
102B
100
AcDbEntity
  8
Defpoints
 62
     0
100
AcDbPoint
 10
308.2381321700646
 20
-158.3185216021132
 30
0.0
  0
ENDBLK
  5
1037
330
102B
100
AcDbEntity
  8
0
100
AcDbBlockEnd
  0
BLOCK
  5
1045
330
1039
100
AcDbEntity
  8
0
100
AcDbBlockBegin
  2
*D18
 70
     1
 10
0.0
 20
0.0
 30
0.0
  3
*D18
  1

  0
LINE
  5
15AF
330
1039
100
AcDbEntity
  8
6
 62
     0
370
    -2
100
AcDbLine
 10
291.0346985483124
 20
-160.5685216021134
 30
0.0
 11
311.4781321700646
 21
-160.5685216021134
 31
0.0
  0
LINE
  5
15B0
330
1039
100
AcDbEntity
  8
6
 62
     0
370
    -2
100
AcDbLine
 10
291.0346985483124
 20
-158.3185216021131
 30
0.0
 11
311.4781321700646
 21
-158.3185216021131
 31
0.0
  0
LINE
  5
15B1
330
1039
100
AcDbEntity
  8
6
 62
     0
370
    -2
100
AcDbLine
 10
308.2381321700646
 20
-155.0785216021131
 30
0.0
 11
308.2381321700646
 21
-151.8385216021131
 31
0.0
  0
LINE
  5
15B2
330
1039
100
AcDbEntity
  8
6
 62
     0
370
    -2
100
AcDbLine
 10
308.2381321700646
 20
-163.8085216021134
 30
0.0
 11
308.2381321700646
 21
-167.0485216021134
 31
0.0
  0
LINE
  5
15B3
330
1039
100
AcDbEntity
  8
6
 62
     0
370
    -2
100
AcDbLine
 10
308.2381321700646
 20
-167.0485216021134
 30
0.0
 11
304.9981321700646
 21
-167.0485216021134
 31
0.0
  0
SOLID
  5
15B4
330
1039
100
AcDbEntity
  8
6
 62
     0
100
AcDbTrace
 10
307.6981321700646
 20
-155.0785216021131
 30
0.0
 11
308.7781321700646
 21
-155.0785216021131
 31
0.0
 12
308.2381321700646
 22
-158.3185216021131
 32
0.0
 13
308.2381321700646
 23
-158.3185216021131
 33
0.0
  0
SOLID
  5
15B5
330
1039
100
AcDbEntity
  8
6
 62
     0
100
AcDbTrace
 10
307.6981321700646
 20
-163.8085216021134
 30
0.0
 11
308.7781321700646
 21
-163.8085216021134
 31
0.0
 12
308.2381321700646
 22
-160.5685216021134
 32
0.0
 13
308.2381321700646
 23
-160.5685216021134
 33
0.0
  0
MTEXT
  5
15B6
330
1039
100
AcDbEntity
  8
6
 62
     0
100
AcDbMText
 10
298.2781321700647
 20
-167.0485216021134
 30
0.0
 40
1.8
 41
0.0
 71
     5
 72
     1
  1
\A1;2.25\PPOCKET
 73
     1
 44
1.0
  0
POINT
  5
15B7
330
1039
100
AcDbEntity
  8
Defpoints
 62
     0
100
AcDbPoint
 10
289.9096985483124
 20
-160.5685216021134
 30
0.0
  0
POINT
  5
15B8
330
1039
100
AcDbEntity
  8
Defpoints
 62
     0
100
AcDbPoint
 10
289.9096985483124
 20
-158.3185216021131
 30
0.0
  0
POINT
  5
15B9
330
1039
100
AcDbEntity
  8
Defpoints
 62
     0
100
AcDbPoint
 10
308.2381321700646
 20
-158.3185216021131
 30
0.0
  0
ENDBLK
  5
1046
330
1039
100
AcDbEntity
  8
0
100
AcDbBlockEnd
  0
BLOCK
  5
107E
330
1073
100
AcDbEntity
  8
0
100
AcDbBlockBegin
  2
*D19
 70
     1
 10
0.0
 20
0.0
 30
0.0
  3
*D19
  1

  0
LINE
  5
15D9
330
1073
100
AcDbEntity
  8
6
 62
     0
370
    -2
100
AcDbLine
 10
293.6596980620623
 20
-104.3185216021132
 30
0.0
 11
322.1635519237923
 21
-104.3185216021132
 31
0.0
  0
LINE
  5
15DA
330
1073
100
AcDbEntity
  8
6
 62
     0
370
    -2
100
AcDbLine
 10
291.0346985483124
 20
-160.5685216021134
 30
0.0
 11
322.1635519237923
 21
-160.5685216021134
 31
0.0
  0
LINE
  5
15DB
330
1073
100
AcDbEntity
  8
6
 62
     0
370
    -2
100
AcDbLine
 10
318.9235519237923
 20
-107.5585216021132
 30
0.0
 11
318.9235519237923
 21
-127.4035216021133
 31
0.0
  0
LINE
  5
15DC
330
1073
100
AcDbEntity
  8
6
 62
     0
370
    -2
100
AcDbLine
 10
318.9235519237923
 20
-157.3285216021134
 30
0.0
 11
318.9235519237923
 21
-132.4435216021133
 31
0.0
  0
SOLID
  5
15DD
330
1073
100
AcDbEntity
  8
6
 62
     0
100
AcDbTrace
 10
318.3835519237923
 20
-107.5585216021132
 30
0.0
 11
319.4635519237924
 21
-107.5585216021132
 31
0.0
 12
318.9235519237923
 22
-104.3185216021132
 32
0.0
 13
318.9235519237923
 23
-104.3185216021132
 33
0.0
  0
SOLID
  5
15DE
330
1073
100
AcDbEntity
  8
6
 62
     0
100
AcDbTrace
 10
318.3835519237923
 20
-157.3285216021134
 30
0.0
 11
319.4635519237923
 21
-157.3285216021134
 31
0.0
 12
318.9235519237923
 22
-160.5685216021134
 32
0.0
 13
318.9235519237923
 23
-160.5685216021134
 33
0.0
  0
MTEXT
  5
15DF
330
1073
100
AcDbEntity
  8
6
 62
     0
100
AcDbMText
 10
318.9235519237923
 20
-129.9235216021133
 30
0.0
 40
1.8
 41
0.0
 71
     5
 72
     1
  1
\A1;56.25
 73
     1
 44
1.0
  0
POINT
  5
15E0
330
1073
100
AcDbEntity
  8
Defpoints
 62
     0
100
AcDbPoint
 10
292.5346980620623
 20
-104.3185216021132
 30
0.0
  0
POINT
  5
15E1
330
1073
100
AcDbEntity
  8
Defpoints
 62
     0
100
AcDbPoint
 10
289.9096985483124
 20
-160.5685216021134
 30
0.0
  0
POINT
  5
15E2
330
1073
100
AcDbEntity
  8
Defpoints
 62
     0
100
AcDbPoint
 10
318.9235519237923
 20
-160.5685216021134
 30
0.0
  0
ENDBLK
  5
107F
330
1073
100
AcDbEntity
  8
0
100
AcDbBlockEnd
  0
BLOCK
  5
108C
330
1081
100
AcDbEntity
  8
0
100
AcDbBlockBegin
  2
*D20
 70
     1
 10
0.0
 20
0.0
 30
0.0
  3
*D20
  1

  0
LINE
  5
15F7
330
1081
100
AcDbEntity
  8
6
 62
     0
370
    -2
100
AcDbLine
 10
290.2846985483124
 20
-161.4323216021134
 30
0.0
 11
290.2846985483124
 21
-178.6837355665264
 31
0.0
  0
LINE
  5
15F8
330
1081
100
AcDbEntity
  8
6
 62
     0
370
    -2
100
AcDbLine
 10
193.5346985483123
 20
-161.4323216021135
 30
0.0
 11
193.5346985483123
 21
-178.6837355665264
 31
0.0
  0
LINE
  5
15F9
330
1081
100
AcDbEntity
  8
6
 62
     0
370
    -2
100
AcDbLine
 10
287.0446985483124
 20
-175.4437355665264
 30
0.0
 11
268.1296985483125
 21
-175.4437355665264
 31
0.0
  0
LINE
  5
15FA
330
1081
100
AcDbEntity
  8
6
 62
     0
370
    -2
100
AcDbLine
 10
196.7746985483123
 20
-175.4437355665264
 30
0.0
 11
215.6896985483124
 21
-175.4437355665264
 31
0.0
  0
SOLID
  5
15FB
330
1081
100
AcDbEntity
  8
6
 62
     0
100
AcDbTrace
 10
287.0446985483124
 20
-174.9037355665264
 30
0.0
 11
287.0446985483124
 21
-175.9837355665264
 31
0.0
 12
290.2846985483124
 22
-175.4437355665264
 32
0.0
 13
290.2846985483124
 23
-175.4437355665264
 33
0.0
  0
SOLID
  5
15FC
330
1081
100
AcDbEntity
  8
6
 62
     0
100
AcDbTrace
 10
196.7746985483123
 20
-174.9037355665264
 30
0.0
 11
196.7746985483123
 21
-175.9837355665264
 31
0.0
 12
193.5346985483123
 22
-175.4437355665264
 32
0.0
 13
193.5346985483123
 23
-175.4437355665264
 33
0.0
  0
MTEXT
  5
15FD
330
1081
100
AcDbEntity
  8
6
 62
     0
100
AcDbMText
 10
241.9096985483124
 20
-175.4437355665264
 30
0.0
 40
1.8
 41
0.0
 71
     5
 72
     1
  1
\A1;96.75 OVERALL LENGTH OF SLAT
 73
     1
 44
1.0
  0
POINT
  5
15FE
330
1081
100
AcDbEntity
  8
Defpoints
 62
     0
100
AcDbPoint
 10
290.2846985483124
 20
-160.3073216021134
 30
0.0
  0
POINT
  5
15FF
330
1081
100
AcDbEntity
  8
Defpoints
 62
     0
100
AcDbPoint
 10
193.5346985483123
 20
-160.3073216021135
 30
0.0
  0
POINT
  5
1600
330
1081
100
AcDbEntity
  8
Defpoints
 62
     0
100
AcDbPoint
 10
193.5346985483123
 20
-175.4437355665264
 30
0.0
  0
ENDBLK
  5
108D
330
1081
100
AcDbEntity
  8
0
100
AcDbBlockEnd
  0
BLOCK
  5
109A
330
108F
100
AcDbEntity
  8
0
100
AcDbBlockBegin
  2
*D21
 70
     1
 10
0.0
 20
0.0
 30
0.0
  3
*D21
  1

  0
LINE
  5
15ED
330
108F
100
AcDbEntity
  8
6
 62
     0
370
    -2
100
AcDbLine
 10
289.9096985483124
 20
-161.6935216021134
 30
0.0
 11
289.9096985483124
 21
-173.8135392851224
 31
0.0
  0
LINE
  5
15EE
330
108F
100
AcDbEntity
  8
6
 62
     0
370
    -2
100
AcDbLine
 10
193.9096985483123
 20
-161.6935216021135
 30
0.0
 11
193.9096985483123
 21
-173.8135392851224
 31
0.0
  0
LINE
  5
15EF
330
108F
100
AcDbEntity
  8
6
 62
     0
370
    -2
100
AcDbLine
 10
286.6696985483124
 20
-170.5735392851224
 30
0.0
 11
258.2296985483123
 21
-170.5735392851224
 31
0.0
  0
LINE
  5
15F0
330
108F
100
AcDbEntity
  8
6
 62
     0
370
    -2
100
AcDbLine
 10
197.1496985483123
 20
-170.5735392851224
 30
0.0
 11
225.5896985483123
 21
-170.5735392851224
 31
0.0
  0
SOLID
  5
15F1
330
108F
100
AcDbEntity
  8
6
 62
     0
100
AcDbTrace
 10
286.6696985483124
 20
-170.0335392851224
 30
0.0
 11
286.6696985483124
 21
-171.1135392851224
 31
0.0
 12
289.9096985483124
 22
-170.5735392851224
 32
0.0
 13
289.9096985483124
 23
-170.5735392851224
 33
0.0
  0
SOLID
  5
15F2
330
108F
100
AcDbEntity
  8
6
 62
     0
100
AcDbTrace
 10
197.1496985483123
 20
-170.0335392851224
 30
0.0
 11
197.1496985483123
 21
-171.1135392851224
 31
0.0
 12
193.9096985483123
 22
-170.5735392851224
 32
0.0
 13
193.9096985483123
 23
-170.5735392851224
 33
0.0
  0
MTEXT
  5
15F3
330
108F
100
AcDbEntity
  8
6
 62
     0
100
AcDbMText
 10
241.9096985483124
 20
-170.5735392851224
 30
0.0
 40
1.8
 41
0.0
 71
     5
 72
     1
  1
\A1;96.00 FABRIC WIDTH
 73
     1
 44
1.0
  0
POINT
  5
15F4
330
108F
100
AcDbEntity
  8
Defpoints
 62
     0
100
AcDbPoint
 10
289.9096985483124
 20
-160.5685216021134
 30
0.0
  0
POINT
  5
15F5
330
108F
100
AcDbEntity
  8
Defpoints
 62
     0
100
AcDbPoint
 10
193.9096985483123
 20
-160.5685216021135
 30
0.0
  0
POINT
  5
15F6
330
108F
100
AcDbEntity
  8
Defpoints
 62
     0
100
AcDbPoint
 10
193.9096985483123
 20
-170.5735392851224
 30
0.0
  0
ENDBLK
  5
109B
330
108F
100
AcDbEntity
  8
0
100
AcDbBlockEnd
  0
BLOCK
  5
10A8
330
109D
100
AcDbEntity
  8
0
100
AcDbBlockBegin
  2
*D22
 70
     1
 10
0.0
 20
0.0
 30
0.0
  3
*D22
  1

  0
LINE
  5
15E3
330
109D
100
AcDbEntity
  8
6
 62
     0
370
    -2
100
AcDbLine
 10
287.9096985483124
 20
-159.4435216021132
 30
0.0
 11
287.9096985483124
 21
-168.7097573333484
 31
0.0
  0
LINE
  5
15E4
330
109D
100
AcDbEntity
  8
6
 62
     0
370
    -2
100
AcDbLine
 10
195.9096985483123
 20
-159.4435216021132
 30
0.0
 11
195.9096985483123
 21
-168.7097573333484
 31
0.0
  0
LINE
  5
15E5
330
109D
100
AcDbEntity
  8
6
 62
     0
370
    -2
100
AcDbLine
 10
284.6696985483124
 20
-165.4697573333484
 30
0.0
 11
250.4296985483124
 21
-165.4697573333484
 31
0.0
  0
LINE
  5
15E6
330
109D
100
AcDbEntity
  8
6
 62
     0
370
    -2
100
AcDbLine
 10
199.1496985483123
 20
-165.4697573333484
 30
0.0
 11
233.3896985483123
 21
-165.4697573333484
 31
0.0
  0
SOLID
  5
15E7
330
109D
100
AcDbEntity
  8
6
 62
     0
100
AcDbTrace
 10
284.6696985483124
 20
-164.9297573333484
 30
0.0
 11
284.6696985483124
 21
-166.0097573333484
 31
0.0
 12
287.9096985483124
 22
-165.4697573333484
 32
0.0
 13
287.9096985483124
 23
-165.4697573333484
 33
0.0
  0
SOLID
  5
15E8
330
109D
100
AcDbEntity
  8
6
 62
     0
100
AcDbTrace
 10
199.1496985483123
 20
-164.9297573333484
 30
0.0
 11
199.1496985483123
 21
-166.0097573333484
 31
0.0
 12
195.9096985483123
 22
-165.4697573333484
 32
0.0
 13
195.9096985483123
 23
-165.4697573333484
 33
0.0
  0
MTEXT
  5
15E9
330
109D
100
AcDbEntity
  8
6
 62
     0
100
AcDbMText
 10
241.9096985483124
 20
-165.4697573333484
 30
0.0
 40
1.8
 41
0.0
 71
     5
 72
     1
  1
\A1;92.00 V.A.
 73
     1
 44
1.0
  0
POINT
  5
15EA
330
109D
100
AcDbEntity
  8
Defpoints
 62
     0
100
AcDbPoint
 10
287.9096985483124
 20
-158.3185216021132
 30
0.0
  0
POINT
  5
15EB
330
109D
100
AcDbEntity
  8
Defpoints
 62
     0
100
AcDbPoint
 10
195.9096985483123
 20
-158.3185216021132
 30
0.0
  0
POINT
  5
15EC
330
109D
100
AcDbEntity
  8
Defpoints
 62
     0
100
AcDbPoint
 10
195.9096985483123
 20
-165.4697573333484
 30
0.0
  0
ENDBLK
  5
10A9
330
109D
100
AcDbEntity
  8
0
100
AcDbBlockEnd
  0
BLOCK
  5
10C0
330
10B5
100
AcDbEntity
  8
0
100
AcDbBlockBegin
  2
*D23
 70
     1
 10
0.0
 20
0.0
 30
0.0
  3
*D23
  1

  0
LINE
  5
16D3
330
10B5
100
AcDbEntity
  8
6
 62
     0
370
    -2
100
AcDbLine
 10
195.9096985483123
 20
-159.4435216021132
 30
0.0
 11
195.9096985483123
 21
-168.7097573333484
 31
0.0
  0
LINE
  5
16D4
330
10B5
100
AcDbEntity
  8
6
 62
     0
370
    -2
100
AcDbLine
 10
193.9096985483123
 20
-161.6935216021135
 30
0.0
 11
193.9096985483123
 21
-168.7097573333484
 31
0.0
  0
LINE
  5
16D5
330
10B5
100
AcDbEntity
  8
6
 62
     0
370
    -2
100
AcDbLine
 10
199.1496985483123
 20
-165.4697573333484
 30
0.0
 11
202.3896985483123
 21
-165.4697573333484
 31
0.0
  0
LINE
  5
16D6
330
10B5
100
AcDbEntity
  8
6
 62
     0
370
    -2
100
AcDbLine
 10
190.6696985483123
 20
-165.4697573333484
 30
0.0
 11
187.4296985483123
 21
-165.4697573333484
 31
0.0
  0
SOLID
  5
16D7
330
10B5
100
AcDbEntity
  8
6
 62
     0
100
AcDbTrace
 10
199.1496985483123
 20
-164.9297573333484
 30
0.0
 11
199.1496985483123
 21
-166.0097573333484
 31
0.0
 12
195.9096985483123
 22
-165.4697573333484
 32
0.0
 13
195.9096985483123
 23
-165.4697573333484
 33
0.0
  0
SOLID
  5
16D8
330
10B5
100
AcDbEntity
  8
6
 62
     0
100
AcDbTrace
 10
190.6696985483123
 20
-164.9297573333484
 30
0.0
 11
190.6696985483123
 21
-166.0097573333484
 31
0.0
 12
193.9096985483123
 22
-165.4697573333484
 32
0.0
 13
193.9096985483123
 23
-165.4697573333484
 33
0.0
  0
MTEXT
  5
16D9
330
10B5
100
AcDbEntity
  8
6
 62
     0
100
AcDbMText
 10
179.8096985483123
 20
-165.4697573333484
 30
0.0
 40
1.8
 41
0.0
 71
     5
 72
     1
  1
\A1;2.00\PBORDERS
 73
     1
 44
1.0
  0
POINT
  5
16DA
330
10B5
100
AcDbEntity
  8
Defpoints
 62
     0
100
AcDbPoint
 10
195.9096985483123
 20
-158.3185216021132
 30
0.0
  0
POINT
  5
16DB
330
10B5
100
AcDbEntity
  8
Defpoints
 62
     0
100
AcDbPoint
 10
193.9096985483123
 20
-160.5685216021135
 30
0.0
  0
POINT
  5
16DC
330
10B5
100
AcDbEntity
  8
Defpoints
 62
     0
100
AcDbPoint
 10
193.9096985483123
 20
-165.4697573333484
 30
0.0
  0
ENDBLK
  5
10C1
330
10B5
100
AcDbEntity
  8
0
100
AcDbBlockEnd
  0
BLOCK
  5
1173
330
1168
100
AcDbEntity
  8
0
100
AcDbBlockBegin
  2
*D24
 70
     1
 10
0.0
 20
0.0
 30
0.0
  3
*D24
  1

  0
LINE
  5
16E8
330
1168
100
AcDbEntity
  8
6
 62
     0
370
    -2
100
AcDbLine
 10
288.4632629620636
 20
-107.2979047956733
 30
0.0
 11
289.5039640599163
 21
-109.1391451995665
 31
0.0
  0
LINE
  5
16E9
330
1168
100
AcDbEntity
  8
6
 62
     0
370
    -2
100
AcDbLine
 10
195.3561341345609
 20
-157.339138408553
 30
0.0
 11
194.3154330367083
 21
-155.4978980046599
 31
0.0
  0
LINE
  5
16EA
330
1168
100
AcDbEntity
  8
6
 62
     0
370
    -2
100
AcDbLine
 10
285.0890749508591
 20
-107.9127871137173
 30
0.0
 11
249.02200624062
 21
-128.2985216021132
 31
0.0
  0
LINE
  5
16EB
330
1168
100
AcDbEntity
  8
6
 62
     0
370
    -2
100
AcDbLine
 10
198.7303221457655
 20
-156.7242560905092
 30
0.0
 11
234.7973908560046
 21
-136.3385216021132
 31
0.0
  0
SOLID
  5
16EC
330
1168
100
AcDbEntity
  8
6
 62
     0
100
AcDbTrace
 10
284.8233640322584
 20
-107.4426831808084
 30
0.0
 11
285.3547858694597
 21
-108.3828910466261
 31
0.0
 12
287.9096985483123
 22
-106.3185216021132
 32
0.0
 13
287.9096985483123
 23
-106.3185216021132
 33
0.0
  0
SOLID
  5
16ED
330
1168
100
AcDbEntity
  8
6
 62
     0
100
AcDbTrace
 10
198.4646112271648
 20
-156.2541521576003
 30
0.0
 11
198.9960330643662
 21
-157.194360023418
 31
0.0
 12
195.9096985483123
 22
-158.3185216021132
 32
0.0
 13
195.9096985483123
 23
-158.3185216021132
 33
0.0
  0
MTEXT
  5
16EE
330
1168
100
AcDbEntity
  8
6
 62
     0
100
AcDbMText
 10
241.9096985483123
 20
-132.3185216021132
 30
0.0
 40
1.8
 41
0.0
 71
     5
 72
     1
  1
\A1;106" DIAG.\PACTUAL 105.68
 73
     1
 44
1.0
  0
POINT
  5
16EF
330
1168
100
AcDbEntity
  8
Defpoints
 62
     0
100
AcDbPoint
 10
287.9096985483123
 20
-106.3185216021132
 30
0.0
  0
POINT
  5
16F0
330
1168
100
AcDbEntity
  8
Defpoints
 62
     0
100
AcDbPoint
 10
195.9096985483123
 20
-158.3185216021132
 30
0.0
  0
POINT
  5
16F1
330
1168
100
AcDbEntity
  8
Defpoints
 62
     0
100
AcDbPoint
 10
195.9096985483123
 20
-158.3185216021132
 30
0.0
  0
ENDBLK
  5
1174
330
1168
100
AcDbEntity
  8
0
100
AcDbBlockEnd
  0
BLOCK
  5
163F
330
1634
100
AcDbEntity
  8
0
100
AcDbBlockBegin
  2
*D25
 70
     1
 10
0.0
 20
0.0
 30
0.0
  3
*D25
  1

  0
LINE
  5
1635
330
1634
100
AcDbEntity
  8
0
 62
     0
370
    -2
100
AcDbLine
 10
169.1263603071545
 20
-96.58351907003142
 30
0.0
 11
169.1263603071545
 21
-90.55636933607578
 31
0.0
  0
LINE
  5
1636
330
1634
100
AcDbEntity
  8
0
 62
     0
370
    -2
100
AcDbLine
 10
178.1263602171545
 20
-96.58351907003142
 30
0.0
 11
178.1263602171545
 21
-90.55636933607578
 31
0.0
  0
LINE
  5
1637
330
1634
100
AcDbEntity
  8
0
 62
     0
370
    -2
100
AcDbLine
 10
165.8863603071545
 20
-93.79636933607576
 30
0.0
 11
162.6463603071546
 21
-93.79636933607576
 31
0.0
  0
LINE
  5
1638
330
1634
100
AcDbEntity
  8
0
 62
     0
370
    -2
100
AcDbLine
 10
181.3663602171545
 20
-93.79636933607576
 30
0.0
 11
184.6063602171545
 21
-93.79636933607576
 31
0.0
  0
SOLID
  5
1639
330
1634
100
AcDbEntity
  8
0
 62
     0
100
AcDbTrace
 10
165.8863603071545
 20
-93.25636933607576
 30
0.0
 11
165.8863603071545
 21
-94.33636933607578
 31
0.0
 12
169.1263603071545
 22
-93.79636933607576
 32
0.0
 13
169.1263603071545
 23
-93.79636933607576
 33
0.0
  0
SOLID
  5
163A
330
1634
100
AcDbEntity
  8
0
 62
     0
100
AcDbTrace
 10
181.3663602171545
 20
-93.25636933607576
 30
0.0
 11
181.3663602171545
 21
-94.33636933607578
 31
0.0
 12
178.1263602171545
 22
-93.79636933607576
 32
0.0
 13
178.1263602171545
 23
-93.79636933607576
 33
0.0
  0
MTEXT
  5
163B
330
1634
100
AcDbEntity
  8
0
 62
     0
100
AcDbMText
 10
188.6263602171545
 20
-93.79636933607576
 30
0.0
 40
1.8
 41
0.0
 71
     5
 72
     1
  1
\A1;9.00
 73
     1
 44
1.0
  0
POINT
  5
163C
330
1634
100
AcDbEntity
  8
Defpoints
 62
     0
100
AcDbPoint
 10
169.1263603071545
 20
-97.70851907003141
 30
0.0
  0
POINT
  5
163D
330
1634
100
AcDbEntity
  8
Defpoints
 62
     0
100
AcDbPoint
 10
178.1263602171545
 20
-97.70851907003141
 30
0.0
  0
POINT
  5
163E
330
1634
100
AcDbEntity
  8
Defpoints
 62
     0
100
AcDbPoint
 10
178.1263602171545
 20
-93.79636933607576
 30
0.0
  0
ENDBLK
  5
1640
330
1634
100
AcDbEntity
  8
0
100
AcDbBlockEnd
  0
BLOCK
  5
164D
330
1642
100
AcDbEntity
  8
0
100
AcDbBlockBegin
  2
*D26
 70
     1
 10
0.0
 20
0.0
 30
0.0
  3
*D26
  1

  0
LINE
  5
1732
330
1642
100
AcDbEntity
  8
6
 62
     0
370
    -2
100
AcDbLine
 10
170.5953602924645
 20
-96.82251906764141
 30
0.0
 11
170.5953602924645
 21
-89.70346218516819
 31
0.0
  0
LINE
  5
1733
330
1642
100
AcDbEntity
  8
6
 62
     0
370
    -2
100
AcDbLine
 10
176.6573602318445
 20
-96.82251906764141
 30
0.0
 11
176.6573602318445
 21
-89.70346218516819
 31
0.0
  0
LINE
  5
1734
330
1642
100
AcDbEntity
  8
6
 62
     0
370
    -2
100
AcDbLine
 10
167.3553602924645
 20
-92.94346218516819
 30
0.0
 11
164.1153602924645
 21
-92.94346218516819
 31
0.0
  0
LINE
  5
1735
330
1642
100
AcDbEntity
  8
6
 62
     0
370
    -2
100
AcDbLine
 10
179.8973602318445
 20
-92.94346218516819
 30
0.0
 11
183.1373602318445
 21
-92.94346218516819
 31
0.0
  0
SOLID
  5
1736
330
1642
100
AcDbEntity
  8
6
 62
     0
100
AcDbTrace
 10
167.3553602924645
 20
-92.40346218516817
 30
0.0
 11
167.3553602924645
 21
-93.4834621851682
 31
0.0
 12
170.5953602924645
 22
-92.94346218516819
 32
0.0
 13
170.5953602924645
 23
-92.94346218516819
 33
0.0
  0
SOLID
  5
1737
330
1642
100
AcDbEntity
  8
6
 62
     0
100
AcDbTrace
 10
179.8973602318445
 20
-92.40346218516817
 30
0.0
 11
179.8973602318445
 21
-93.4834621851682
 31
0.0
 12
176.6573602318445
 22
-92.94346218516819
 32
0.0
 13
176.6573602318445
 23
-92.94346218516819
 33
0.0
  0
MTEXT
  5
1738
330
1642
100
AcDbEntity
  8
6
 62
     0
100
AcDbMText
 10
173.6263602621545
 20
-92.94346218516819
 30
0.0
 40
1.8
 41
0.0
 71
     5
 72
     1
  1
\A1;6.06
 73
     1
 44
1.0
  0
POINT
  5
1739
330
1642
100
AcDbEntity
  8
Defpoints
 62
     0
100
AcDbPoint
 10
170.5953602924645
 20
-97.9475190676414
 30
0.0
  0
POINT
  5
173A
330
1642
100
AcDbEntity
  8
Defpoints
 62
     0
100
AcDbPoint
 10
176.6573602318445
 20
-97.9475190676414
 30
0.0
  0
POINT
  5
173B
330
1642
100
AcDbEntity
  8
Defpoints
 62
     0
100
AcDbPoint
 10
176.6573602318445
 20
-92.94346218516819
 30
0.0
  0
ENDBLK
  5
164E
330
1642
100
AcDbEntity
  8
0
100
AcDbBlockEnd
  0
BLOCK
  5
1679
330
166E
100
AcDbEntity
  8
0
100
AcDbBlockBegin
  2
*D27
 70
     1
 10
0.0
 20
0.0
 30
0.0
  3
*D27
  1

  0
LINE
  5
166F
330
166E
100
AcDbEntity
  8
6
 62
     0
370
    -2
100
AcDbLine
 10
169.7473603009445
 20
-105.4280190040864
 30
0.0
 11
169.7473603009445
 21
-110.5370764066807
 31
0.0
  0
LINE
  5
1670
330
166E
100
AcDbEntity
  8
6
 62
     0
370
    -2
100
AcDbLine
 10
177.5023602233945
 20
-105.4280190040864
 30
0.0
 11
177.5023602233945
 21
-110.5370764066807
 31
0.0
  0
LINE
  5
1671
330
166E
100
AcDbEntity
  8
6
 62
     0
370
    -2
100
AcDbLine
 10
166.5073603009445
 20
-107.2970764066807
 30
0.0
 11
163.2673603009445
 21
-107.2970764066807
 31
0.0
  0
LINE
  5
1672
330
166E
100
AcDbEntity
  8
6
 62
     0
370
    -2
100
AcDbLine
 10
180.7423602233945
 20
-107.2970764066807
 30
0.0
 11
183.9823602233945
 21
-107.2970764066807
 31
0.0
  0
SOLID
  5
1673
330
166E
100
AcDbEntity
  8
6
 62
     0
100
AcDbTrace
 10
166.5073603009445
 20
-106.7570764066807
 30
0.0
 11
166.5073603009445
 21
-107.8370764066807
 31
0.0
 12
169.7473603009445
 22
-107.2970764066807
 32
0.0
 13
169.7473603009445
 23
-107.2970764066807
 33
0.0
  0
SOLID
  5
1674
330
166E
100
AcDbEntity
  8
6
 62
     0
100
AcDbTrace
 10
180.7423602233945
 20
-106.7570764066807
 30
0.0
 11
180.7423602233945
 21
-107.8370764066807
 31
0.0
 12
177.5023602233945
 22
-107.2970764066807
 32
0.0
 13
177.5023602233945
 23
-107.2970764066807
 33
0.0
  0
MTEXT
  5
1675
330
166E
100
AcDbEntity
  8
6
 62
     0
100
AcDbMText
 10
188.3023602233945
 20
-107.2970764066807
 30
0.0
 40
1.8
 41
0.0
 71
     5
 72
     1
  1
\A1;7.75
 73
     1
 44
1.0
  0
POINT
  5
1676
330
166E
100
AcDbEntity
  8
Defpoints
 62
     0
100
AcDbPoint
 10
169.7473603009445
 20
-104.3030190040864
 30
0.0
  0
POINT
  5
1677
330
166E
100
AcDbEntity
  8
Defpoints
 62
     0
100
AcDbPoint
 10
177.5023602233945
 20
-104.3030190040864
 30
0.0
  0
POINT
  5
1678
330
166E
100
AcDbEntity
  8
Defpoints
 62
     0
100
AcDbPoint
 10
177.5023602233945
 20
-107.2970764066807
 30
0.0
  0
ENDBLK
  5
167A
330
166E
100
AcDbEntity
  8
0
100
AcDbBlockEnd
  0
BLOCK
  5
1688
330
167C
100
AcDbEntity
  8
0
100
AcDbBlockBegin
  2
*D28
 70
     1
 10
0.0
 20
0.0
 30
0.0
  3
*D28
  1

  0
LINE
  5
1717
330
167C
100
AcDbEntity
  8
6
 62
     0
370
    -2
100
AcDbLine
 10
169.5303602918645
 20
-97.8875190682414
 30
0.0
 11
153.8264886515868
 21
-97.88751906824137
 31
0.0
  0
LINE
  5
1718
330
167C
100
AcDbEntity
  8
6
 62
     0
370
    -2
100
AcDbLine
 10
168.6223603009445
 20
-104.3030190040864
 30
0.0
 11
153.8264886515868
 21
-104.3030190040864
 31
0.0
  0
LINE
  5
1719
330
167C
100
AcDbEntity
  8
6
 62
     0
370
    -2
100
AcDbLine
 10
157.0664886515868
 20
-94.6475190682414
 30
0.0
 11
157.0664886515868
 21
-91.4075190682414
 31
0.0
  0
LINE
  5
171A
330
167C
100
AcDbEntity
  8
6
 62
     0
370
    -2
100
AcDbLine
 10
157.0664886515868
 20
-107.5430190040864
 30
0.0
 11
157.0664886515868
 21
-110.7830190040864
 31
0.0
  0
SOLID
  5
171B
330
167C
100
AcDbEntity
  8
6
 62
     0
100
AcDbTrace
 10
156.5264886515868
 20
-94.6475190682414
 30
0.0
 11
157.6064886515868
 21
-94.6475190682414
 31
0.0
 12
157.0664886515868
 22
-97.88751906824137
 32
0.0
 13
157.0664886515868
 23
-97.88751906824137
 33
0.0
  0
SOLID
  5
171C
330
167C
100
AcDbEntity
  8
6
 62
     0
100
AcDbTrace
 10
156.5264886515868
 20
-107.5430190040864
 30
0.0
 11
157.6064886515868
 21
-107.5430190040864
 31
0.0
 12
157.0664886515868
 22
-104.3030190040864
 32
0.0
 13
157.0664886515868
 23
-104.3030190040864
 33
0.0
  0
MTEXT
  5
171D
330
167C
100
AcDbEntity
  8
6
 62
     0
100
AcDbMText
 10
157.0664886515869
 20
-101.0952690361639
 30
0.0
 40
1.8
 41
0.0
 71
     5
 72
     1
  1
\A1;6.42
 73
     1
 44
1.0
  0
POINT
  5
171E
330
167C
100
AcDbEntity
  8
Defpoints
 62
     0
100
AcDbPoint
 10
170.6553602918645
 20
-97.8875190682414
 30
0.0
  0
POINT
  5
171F
330
167C
100
AcDbEntity
  8
Defpoints
 62
     0
100
AcDbPoint
 10
169.7473603009445
 20
-104.3030190040864
 30
0.0
  0
POINT
  5
1720
330
167C
100
AcDbEntity
  8
Defpoints
 62
     0
100
AcDbPoint
 10
157.0664886515868
 20
-104.3030190040864
 30
0.0
  0
ENDBLK
  5
1689
330
167C
100
AcDbEntity
  8
0
100
AcDbBlockEnd
  0
BLOCK
  5
1748
330
173D
100
AcDbEntity
  8
0
100
AcDbBlockBegin
  2
*D29
 70
     1
 10
0.0
 20
0.0
 30
0.0
  3
*D29
  1

  0
LINE
  5
1754
330
173D
100
AcDbEntity
  8
6
 62
     0
370
    -2
100
AcDbLine
 10
169.1263603071545
 20
-96.58351907003142
 30
0.0
 11
169.1263603071545
 21
-83.87283445859273
 31
0.0
  0
LINE
  5
1755
330
173D
100
AcDbEntity
  8
6
 62
     0
370
    -2
100
AcDbLine
 10
178.1263602171545
 20
-96.58351907003142
 30
0.0
 11
178.1263602171545
 21
-83.87283445859273
 31
0.0
  0
LINE
  5
1756
330
173D
100
AcDbEntity
  8
6
 62
     0
370
    -2
100
AcDbLine
 10
165.8863603071545
 20
-87.11283445859271
 30
0.0
 11
162.6463603071545
 21
-87.11283445859271
 31
0.0
  0
LINE
  5
1757
330
173D
100
AcDbEntity
  8
6
 62
     0
370
    -2
100
AcDbLine
 10
181.3663602171545
 20
-87.11283445859271
 30
0.0
 11
184.6063602171545
 21
-87.11283445859271
 31
0.0
  0
SOLID
  5
1758
330
173D
100
AcDbEntity
  8
6
 62
     0
100
AcDbTrace
 10
165.8863603071545
 20
-86.5728344585927
 30
0.0
 11
165.8863603071545
 21
-87.65283445859273
 31
0.0
 12
169.1263603071545
 22
-87.11283445859271
 32
0.0
 13
169.1263603071545
 23
-87.11283445859271
 33
0.0
  0
SOLID
  5
1759
330
173D
100
AcDbEntity
  8
6
 62
     0
100
AcDbTrace
 10
181.3663602171545
 20
-86.5728344585927
 30
0.0
 11
181.3663602171545
 21
-87.65283445859273
 31
0.0
 12
178.1263602171545
 22
-87.11283445859271
 32
0.0
 13
178.1263602171545
 23
-87.11283445859271
 33
0.0
  0
MTEXT
  5
175A
330
173D
100
AcDbEntity
  8
6
 62
     0
100
AcDbMText
 10
173.6263602621545
 20
-87.11283445859271
 30
0.0
 40
1.8
 41
0.0
 71
     5
 72
     1
  1
\A1;9.00
 73
     1
 44
1.0
  0
POINT
  5
175B
330
173D
100
AcDbEntity
  8
Defpoints
 62
     0
100
AcDbPoint
 10
169.1263603071545
 20
-97.70851907003141
 30
0.0
  0
POINT
  5
175C
330
173D
100
AcDbEntity
  8
Defpoints
 62
     0
100
AcDbPoint
 10
178.1263602171545
 20
-97.70851907003141
 30
0.0
  0
POINT
  5
175D
330
173D
100
AcDbEntity
  8
Defpoints
 62
     0
100
AcDbPoint
 10
178.1263602171545
 20
-87.11283445859271
 30
0.0
  0
ENDBLK
  5
1749
330
173D
100
AcDbEntity
  8
0
100
AcDbBlockEnd
  0
ENDSEC
  0
SECTION
  2
ENTITIES
  0
DIMENSION
  5
46
330
31
100
AcDbEntity
  8
6
100
AcDbDimension
  2
*D11
 10
292.6537019664768
 20
-91.78532891599244
 30
0.0
 11
241.9022034302055
 21
-91.78532891599244
 31
0.0
 70
   160
  1
<> OVERALL LENGTH OF CASE
 71
     5
 42
101.5029970725427
  3
STANDARD
100
AcDbAlignedDimension
 13
191.1507048939341
 23
-98.30301873317733
 33
0.0
 14
292.6537019664768
 24
-98.30301873317733
 34
0.0
100
AcDbRotatedDimension
  0
DIMENSION
  5
47
330
31
100
AcDbEntity
  8
6
100
AcDbDimension
  2
*D12
 10
190.2847018700166
 20
-86.04315667067773
 30
0.0
 11
241.9097013737667
 21
-86.04315667067732
 31
0.0
 70
   160
  1
<> OVERALL LENGTH WITH FLANGE
 71
     5
 42
103.2499990074999
  3
STANDARD
100
AcDbAlignedDimension
 13
293.5347008775169
 23
-103.1666553790864
 33
0.0
 14
190.2847018700169
 24
-103.0476553802764
 34
0.0
 50
180.0000000000004
100
AcDbRotatedDimension
  0
TEXT
  5
6A
330
31
100
AcDbEntity
  8
0
  6
Continuous
 62
     2
100
AcDbText
 10
7.8499189711
 20
0.2762522449
 30
0.0
 40
0.125
  1
 
 41
0.6000000000000015
  7
TEXTSTYLE_0
 72
     5
 11
7.9249189711
 21
0.2762522449
 31
0.0
100
AcDbText
  0
LWPOLYLINE
  5
85
330
31
100
AcDbEntity
  8
0
  6
Continuous
 62
     7
100
AcDbPolyline
 90
       12
 70
     0
 43
0.0
 10
188.9731023776781
 20
-101.4440343272217
 10
188.9730718594968
 20
-101.4440953617665
 10
188.9696050631678
 20
-101.4511144053327
 10
188.9662908541101
 20
-101.4583897961691
 10
188.9631353359598
 20
-101.4659703615478
 10
188.9601568214442
 20
-101.4738316905601
 10
188.9573980323808
 20
-101.4819493650243
 10
188.9549566251325
 20
-101.4900548340342
 10
188.9529119487893
 20
-101.4977574703208
 10
188.9513006197145
 20
-101.5047276866148
 10
188.9500555033633
 20
-101.5108556156444
 10
188.9491094579182
 20
-101.5162389155906
  0
LINE
  5
93
330
31
100
AcDbEntity
  8
0
  6
Continuous
 62
     7
100
AcDbLine
 10
188.9767034521878
 20
-101.4372838381982
 30
0.0
 11
188.9731023776781
 21
-101.4440343272217
 31
0.0
  0
LWPOLYLINE
  5
94
330
31
100
AcDbEntity
  8
0
  6
Continuous
 62
     7
100
AcDbPolyline
 90
        3
 70
     0
 43
0.0
 10
188.984589193927
 20
-101.42374624197
 10
188.980957601236
 20
-101.4298131364548
 10
188.9767034521878
 20
-101.4372838381983
  0
LINE
  5
99
330
31
100
AcDbEntity
  8
0
  6
Continuous
 62
     7
100
AcDbLine
 10
188.9849065757421
 20
-101.4232213383389
 30
0.0
 11
188.9846502284719
 21
-101.4236485856073
 31
0.0
  0
LINE
  5
9A
330
31
100
AcDbEntity
  8
0
  6
Continuous
 62
     7
100
AcDbLine
 10
188.9846502284719
 20
-101.4236485856073
 30
0.0
 11
188.984589193927
 21
-101.42374624197
 31
0.0
  0
LINE
  5
A0
330
31
100
AcDbEntity
  8
0
  6
Continuous
 62
     7
100
AcDbLine
 10
188.9836492521183
 20
-101.5608800296896
 30
0.0
 11
188.9848943702877
 21
-101.5735265131995
 31
0.0
  0
LINE
  5
A1
330
31
100
AcDbEntity
  8
0
  6
Continuous
 62
     7
100
AcDbLine
 10
188.9832281103043
 20
-101.5480138189091
 30
0.0
 11
188.9836492521183
 21
-101.5608800296896
 31
0.0
  0
LINE
  5
A3
330
31
100
AcDbEntity
  8
0
  6
Continuous
 62
     7
100
AcDbLine
 10
189.0375555024884
 20
-101.7336949679614
 30
0.0
 11
189.0375555024884
 21
-101.3623448753113
 31
0.0
  0
LINE
  5
A4
330
31
100
AcDbEntity
  8
0
  6
Continuous
 62
     7
100
AcDbLine
 10
189.0457036951342
 20
-102.6110142955519
 30
0.0
 11
189.0457036951342
 21
-100.4860143168019
 31
0.0
  0
LINE
  5
A5
330
31
100
AcDbEntity
  8
0
  6
Continuous
 62
     7
100
AcDbLine
 10
189.1057018818069
 20
-102.6280190626545
 30
0.0
 11
189.1057018818069
 21
-100.4680189988
 31
0.0
  0
LINE
  5
A6
330
31
100
AcDbEntity
  8
0
  6
Continuous
 62
     7
100
AcDbLine
 10
189.1657049139341
 20
-102.5030186911773
 30
0.0
 11
189.1657049139341
 21
-100.5930211520954
 31
0.0
  0
LINE
  5
A7
330
31
100
AcDbEntity
  8
0
  6
Continuous
 62
     7
100
AcDbLine
 10
189.2307018805569
 20
-102.6280190626545
 30
0.0
 11
189.2307018805569
 21
-102.6120116409964
 31
0.0
  0
LINE
  5
A8
330
31
100
AcDbEntity
  8
0
  6
Continuous
 62
     7
100
AcDbLine
 10
189.2307018805569
 20
-100.4840264222763
 30
0.0
 11
189.2307018805569
 21
-100.4680189988
 31
0.0
  0
LINE
  5
A9
330
31
100
AcDbEntity
  8
0
  6
Continuous
 62
     7
100
AcDbLine
 10
190.2846990445624
 20
-104.1840245343672
 30
0.0
 11
190.2846990445624
 21
-104.3030186731773
 31
0.0
  0
LINE
  5
AA
330
31
100
AcDbEntity
  8
0
  6
Continuous
 62
     7
100
AcDbLine
 10
190.4096990433123
 20
-104.1840245343672
 30
0.0
 11
190.4096990433123
 21
-104.3030186731773
 31
0.0
  0
LINE
  5
AB
330
31
100
AcDbEntity
  8
0
  6
Continuous
 62
     7
100
AcDbLine
 10
191.0147039190805
 20
-103.2158360676855
 30
0.0
 11
191.0147039190805
 21
-102.8902013054873
 31
0.0
  0
LINE
  5
AC
330
31
100
AcDbEntity
  8
0
  6
Continuous
 62
     7
100
AcDbLine
 10
191.0147039190805
 20
-99.46583610518551
 30
0.0
 11
191.0147039190805
 21
-99.14020134298731
 31
0.0
  0
LINE
  5
AD
330
31
100
AcDbEntity
  8
0
  6
Continuous
 62
     7
100
AcDbLine
 10
191.0567022095696
 20
-100.2429845337776
 30
0.0
 11
191.0567022095696
 21
-99.46583610518551
 31
0.0
  0
LINE
  5
AE
330
31
100
AcDbEntity
  8
0
  6
Continuous
 62
     7
100
AcDbLine
 10
191.0657018403886
 20
-100.4680189988
 30
0.0
 11
191.0657018403886
 21
-100.5680190214364
 31
0.0
  0
LINE
  5
AF
330
31
100
AcDbEntity
  8
0
  6
Continuous
 62
     7
100
AcDbLine
 10
191.0657018403886
 20
-102.6280190626545
 30
0.0
 11
191.0657018403886
 21
-102.5280190400182
 31
0.0
  0
LINE
  5
B0
330
31
100
AcDbEntity
  8
0
  6
Continuous
 62
     7
100
AcDbLine
 10
191.0757024548341
 20
-100.5680211523454
 30
0.0
 11
191.0757024548341
 21
-102.5280186909273
 31
0.0
  0
LINE
  5
B1
330
31
100
AcDbEntity
  8
0
  6
Continuous
 62
     7
100
AcDbLine
 10
191.0947026982805
 20
-99.12289177225133
 30
0.0
 11
191.0947026982805
 21
-99.14020134298731
 31
0.0
  0
LINE
  5
B2
330
31
100
AcDbEntity
  8
0
  6
Continuous
 62
     7
100
AcDbLine
 10
191.0947026982805
 20
-102.8728917347513
 30
0.0
 11
191.0947026982805
 21
-102.8902013054873
 31
0.0
  0
LINE
  5
B3
330
31
100
AcDbEntity
  8
0
  6
Continuous
 62
     7
100
AcDbLine
 10
191.0947026982805
 20
-103.2331578438759
 30
0.0
 11
191.0947026982805
 21
-103.2158360676855
 31
0.0
  0
LINE
  5
B4
330
31
100
AcDbEntity
  8
0
  6
Continuous
 62
     7
100
AcDbLine
 10
191.0947026982805
 20
-99.48315788137591
 30
0.0
 11
191.0947026982805
 21
-99.46583610518551
 31
0.0
  0
LINE
  5
B5
330
31
100
AcDbEntity
  8
0
  6
Continuous
 62
     7
100
AcDbLine
 10
191.1057012327159
 20
-100.5580235942636
 30
0.0
 11
191.1057012327159
 21
-100.5680211523454
 31
0.0
  0
LINE
  5
B6
330
31
100
AcDbEntity
  8
0
  6
Continuous
 62
     7
100
AcDbLine
 10
191.1057012327159
 20
-102.5380162490091
 30
0.0
 11
191.1057012327159
 21
-102.5280186909273
 31
0.0
  0
LINE
  5
B7
330
31
100
AcDbEntity
  8
0
  6
Continuous
 62
     7
100
AcDbLine
 10
191.1346990360624
 20
-99.09602409615636
 30
0.0
 11
191.1346990360624
 21
-99.51001335019826
 31
0.0
  0
LINE
  5
B8
330
31
100
AcDbEntity
  8
0
  6
Continuous
 62
     7
100
AcDbLine
 10
191.1346990360624
 20
-102.8460240586563
 30
0.0
 11
191.1346990360624
 21
-103.2600133126982
 31
0.0
  0
LINE
  5
B9
330
31
100
AcDbEntity
  8
0
  6
Continuous
 62
     7
100
AcDbLine
 10
191.1657048939341
 20
-104.1540196510309
 30
0.0
 11
191.1657048939341
 21
-98.30301873317733
 31
0.0
  0
LINE
  5
BA
330
31
100
AcDbEntity
  8
0
  6
Continuous
 62
     7
100
AcDbLine
 10
191.2597018548123
 20
-104.3030190040864
 30
0.0
 11
191.2597018548123
 21
-104.1840190470946
 31
0.0
  0
LINE
  5
BB
330
31
100
AcDbEntity
  8
0
  6
Continuous
 62
     7
100
AcDbLine
 10
191.2846990345624
 20
-104.3185216021132
 30
0.0
 11
191.2846990345624
 21
-97.88751580824145
 31
0.0
  0
LINE
  5
C3
330
31
100
AcDbEntity
  8
0
  6
Continuous
 62
     7
100
AcDbLine
 10
188.9836492521183
 20
-101.5351598135832
 30
0.0
 11
188.9832281103043
 21
-101.5480138189091
 31
0.0
  0
LINE
  5
C4
330
31
100
AcDbEntity
  8
0
  6
Continuous
 62
     7
100
AcDbLine
 10
188.9849065757421
 20
-101.522403466438
 30
0.0
 11
188.984900473924
 21
-101.522488915528
 31
0.0
  0
LINE
  5
C5
330
31
100
AcDbEntity
  8
0
  6
Continuous
 62
     7
100
AcDbLine
 10
188.984900473924
 20
-101.522488915528
 30
0.0
 11
188.9836492521183
 21
-101.5351598135832
 31
0.0
  0
LINE
  5
C6
330
31
100
AcDbEntity
  8
0
  6
Continuous
 62
     7
100
AcDbLine
 10
188.9491094579182
 20
-101.5162389155905
 30
0.0
 11
188.9483770361073
 21
-101.5210240719063
 31
0.0
  0
LWPOLYLINE
  5
F9
330
31
100
AcDbEntity
  8
0
  6
Continuous
 62
     7
100
AcDbPolyline
 90
       12
 70
     0
 43
0.0
 10
188.9491094579182
 20
-101.5798131349548
 10
188.9500616069996
 20
-101.585196434901
 10
188.9513067233508
 20
-101.5913487784758
 10
188.9529363615163
 20
-101.5983556147694
 10
188.9549993505865
 20
-101.6061437001461
 10
188.9574712741983
 20
-101.6143102037007
 10
188.9602544778068
 20
-101.6224767072555
 10
188.9632451995951
 20
-101.6303502435403
 10
188.9664007177453
 20
-101.6378941889195
 10
188.9696966158942
 20
-101.6451207506654
 10
188.9731267922235
 20
-101.6520543451415
 10
188.9767034521878
 20
-101.6587437978019
  0
LINE
  5
10C
330
31
100
AcDbEntity
  8
0
  6
Continuous
 62
     7
100
AcDbLine
 10
188.9483770361073
 20
-101.5750157713664
 30
0.0
 11
188.9491094579182
 21
-101.5798131349548
 31
0.0
  0
LINE
  5
10F
330
31
100
AcDbEntity
  8
0
  6
Continuous
 62
     7
100
AcDbLine
 10
188.9848943702877
 20
-101.5735265131995
 30
0.0
 11
188.9849065757421
 21
-101.5736363768347
 31
0.0
  0
LINE
  5
15B
330
31
100
AcDbEntity
  8
0
  6
Continuous
 62
     7
100
AcDbLine
 10
211.3322024559055
 20
-97.36451776619869
 30
0.0
 11
211.3217593396463
 21
-97.37197626248772
 31
0.0
  0
LINE
  5
15C
330
31
100
AcDbEntity
  8
0
  6
Continuous
 62
     7
100
AcDbLine
 10
211.8726138268651
 20
-97.60708368195485
 30
0.0
 11
211.8622012287874
 21
-97.61451776369868
 31
0.0
  0
LWPOLYLINE
  5
15D
330
31
100
AcDbEntity
  8
0
  6
Continuous
 62
     7
100
AcDbPolyline
 90
       11
 70
     0
 43
0.0
 10
211.5971987914374
 20
-97.57722528407164
 10
211.5674136353716
 20
-97.58956659122091
 10
211.5394107047425
 20
-97.59902704203545
 10
211.51229888865
 20
-97.60589960014851
 10
211.4855838016445
 20
-97.61025750919586
 10
211.4589907837285
 20
-97.61203973645072
 10
211.4324099749034
 20
-97.61120965827721
 10
211.405762026079
 20
-97.60777948194789
 10
211.3788394172573
 20
-97.60182245109838
 10
211.3512515284423
 20
-97.59332635845606
 10
211.3221987941874
 20
-97.58207147493223
  0
LWPOLYLINE
  5
16A
330
31
100
AcDbEntity
  8
0
  6
Continuous
 62
     7
100
AcDbPolyline
 90
       11
 70
     0
 43
0.0
 10
211.8721987886874
 20
-97.57710321316375
 10
211.843011776252
 20
-97.58815057668964
 10
211.8152346765298
 20
-97.59661004933231
 10
211.7881533786187
 20
-97.60266473654452
 10
211.7613650497957
 20
-97.60633905287141
 10
211.7346682718809
 20
-97.60758416922257
 10
211.707971493966
 20
-97.60636346741662
 10
211.6811892687793
 20
-97.60271356381672
 10
211.6541201763227
 20
-97.59667108387716
 10
211.6263674911457
 20
-97.5882482330523
 10
211.5971987914374
 20
-97.57722528407164
  0
LINE
  5
177
330
31
100
AcDbEntity
  8
0
  6
Continuous
 62
     7
100
AcDbLine
 10
188.9846502284719
 20
-101.6723912576654
 30
0.0
 11
188.9832281103043
 21
-101.6728185049338
 31
0.0
  0
LINE
  5
17E
330
31
100
AcDbEntity
  8
0
  6
Continuous
 62
     7
100
AcDbLine
 10
210.9096987983124
 20
-97.70852411003136
 30
0.0
 11
210.9096987983124
 21
-97.88751580824145
 31
0.0
  0
LINE
  5
17F
330
31
100
AcDbEntity
  8
0
  6
Continuous
 62
     7
100
AcDbLine
 10
210.919000554583
 20
-97.70852411003136
 30
0.0
 11
210.919000554583
 21
-97.88751580824145
 31
0.0
  0
LINE
  5
180
330
31
100
AcDbEntity
  8
0
  6
Continuous
 62
     7
100
AcDbLine
 10
211.1596987958124
 20
-97.70852411003136
 30
0.0
 11
211.1596987958124
 21
-97.61451776369868
 31
0.0
  0
LINE
  5
181
330
31
100
AcDbEntity
  8
0
  6
Continuous
 62
     7
100
AcDbLine
 10
211.1604800448955
 20
-97.70852411003136
 30
0.0
 11
211.1604800448955
 21
-97.88751580824145
 31
0.0
  0
LINE
  5
182
330
31
100
AcDbEntity
  8
0
  6
Continuous
 62
     7
100
AcDbLine
 10
211.3222016141873
 20
-97.60737456922466
 30
0.0
 11
211.3222016141873
 21
-97.37166356976359
 31
0.0
  0
LINE
  5
183
330
31
100
AcDbEntity
  8
0
  6
Continuous
 62
     7
100
AcDbLine
 10
211.4412016148154
 20
-97.36451906438048
 30
0.0
 11
211.4412016148154
 21
-97.31751907394141
 31
0.0
  0
LINE
  5
184
330
31
100
AcDbEntity
  8
0
  6
Continuous
 62
     7
100
AcDbLine
 10
211.5971987914373
 20
-97.57722528407162
 30
0.0
 11
211.5971987914373
 21
-97.40181024582577
 31
0.0
  0
LINE
  5
185
330
31
100
AcDbEntity
  8
0
  6
Continuous
 62
     7
100
AcDbLine
 10
211.7532016189683
 20
-97.36451906438048
 30
0.0
 11
211.7532016189683
 21
-97.31751907394141
 31
0.0
  0
LINE
  5
186
330
31
100
AcDbEntity
  8
0
  6
Continuous
 62
     7
100
AcDbLine
 10
211.8722016195965
 20
-97.37166332976357
 30
0.0
 11
211.8722016195965
 21
-97.60737481831556
 31
0.0
  0
LINE
  5
187
330
31
100
AcDbEntity
  8
0
  6
Continuous
 62
     7
100
AcDbLine
 10
212.0339236397974
 20
-97.88751580824145
 30
0.0
 11
212.0339236397974
 21
-97.70852411003136
 31
0.0
  0
LINE
  5
188
330
31
100
AcDbEntity
  8
0
  6
Continuous
 62
     7
100
AcDbLine
 10
212.0346987870624
 20
-97.70852411003136
 30
0.0
 11
212.0346987870624
 21
-97.61451776369868
 31
0.0
  0
LINE
  5
1C2
330
31
100
AcDbEntity
  8
0
  6
Continuous
 62
     7
100
AcDbLine
 10
188.9846502284719
 20
-101.6723912576654
 30
0.0
 11
188.9849065757421
 21
-101.6728185049338
 31
0.0
  0
LINE
  5
1C3
330
31
100
AcDbEntity
  8
0
  6
Continuous
 62
     7
100
AcDbLine
 10
188.980957601236
 20
-101.6662267068179
 30
0.0
 11
188.984589193927
 21
-101.6722813958483
 31
0.0
  0
LINE
  5
1C4
330
31
100
AcDbEntity
  8
0
  6
Continuous
 62
     7
100
AcDbLine
 10
188.9769292812764
 20
-101.6591466287069
 30
0.0
 11
188.980957601236
 21
-101.6662267068179
 31
0.0
  0
LINE
  5
1C5
330
31
100
AcDbEntity
  8
0
  6
Continuous
 62
     7
100
AcDbLine
 10
188.9767034521878
 20
-101.6587437978019
 30
0.0
 11
188.9769292812764
 21
-101.6591466287069
 31
0.0
  0
LINE
  5
1C6
330
31
100
AcDbEntity
  8
0
  6
Continuous
 62
     7
100
AcDbLine
 10
188.984589193927
 20
-101.6722813958483
 30
0.0
 11
188.9846502284719
 21
-101.6723912576654
 31
0.0
  0
LINE
  5
1C7
330
31
100
AcDbEntity
  8
0
  6
Continuous
 62
     7
100
AcDbLine
 10
212.2754031301099
 20
-97.88751580824145
 30
0.0
 11
212.2754031301099
 21
-97.70852411003136
 31
0.0
  0
LINE
  5
1C8
330
31
100
AcDbEntity
  8
0
  6
Continuous
 62
     7
100
AcDbLine
 10
212.2846987845624
 20
-97.70852411003136
 30
0.0
 11
212.2846987845624
 21
-97.88751580824145
 31
0.0
  0
LWPOLYLINE
  5
1F8
330
31
100
AcDbEntity
  8
0
  6
Continuous
 62
     7
100
AcDbPolyline
 90
       11
 70
     0
 43
0.0
 10
272.2221983051874
 20
-97.57722528407164
 10
272.1924131491216
 20
-97.58956659122091
 10
272.1644102184926
 20
-97.59902704203545
 10
272.1372984024
 20
-97.60589960014851
 10
272.1105772117581
 20
-97.61025750919586
 10
272.0839902974784
 20
-97.61203973645072
 10
272.0574033850171
 20
-97.61120965827721
 10
272.0307554361927
 20
-97.60777948194789
 10
272.0038389310074
 20
-97.60182245109838
 10
271.9762510421923
 20
-97.59332635845606
 10
271.9471983079374
 20
-97.58207147493223
  0
LWPOLYLINE
  5
205
330
31
100
AcDbEntity
  8
0
  6
Continuous
 62
     7
100
AcDbPolyline
 90
       11
 70
     0
 43
0.0
 10
272.4971983024374
 20
-97.57710321316375
 10
272.468011290002
 20
-97.58815057668964
 10
272.440240293916
 20
-97.59661004933231
 10
272.4131528923687
 20
-97.60266473654452
 10
272.386370667182
 20
-97.60633905287141
 10
272.3596616819946
 20
-97.60758416922257
 10
272.3329649058979
 20
-97.60636346741662
 10
272.3061948861656
 20
-97.60271356381672
 10
272.2791196900727
 20
-97.59667108387716
 10
272.2513609012594
 20
-97.5882482330523
 10
272.2221983051874
 20
-97.57722528407164
  0
LINE
  5
25E
330
31
100
AcDbEntity
  8
0
  6
Continuous
 62
     7
100
AcDbLine
 10
271.9571958660192
 20
-97.36451776619869
 30
0.0
 11
271.9467588533963
 21
-97.37197626248772
 31
0.0
  0
LINE
  5
25F
330
31
100
AcDbEntity
  8
0
  6
Continuous
 62
     7
100
AcDbLine
 10
272.497613340615
 20
-97.60708368195485
 30
0.0
 11
272.4872007425373
 21
-97.61451776369868
 31
0.0
  0
LINE
  5
295
330
31
100
AcDbEntity
  8
0
  6
Continuous
 62
     7
100
AcDbLine
 10
188.9832281103043
 20
-101.4232213383389
 30
0.0
 11
188.9846502284719
 21
-101.4236485856073
 31
0.0
  0
LWPOLYLINE
  5
2D6
330
31
100
AcDbEntity
  8
0
  6
Continuous
 62
     7
100
AcDbPolyline
 90
       11
 70
     0
 43
0.0
 10
211.8721987886874
 20
-97.40193231673366
 10
211.8430178798883
 20
-97.39088495320777
 10
211.8152407801661
 20
-97.38242548056508
 10
211.7881533786187
 20
-97.37637079335287
 10
211.7613650497957
 20
-97.37269647702603
 10
211.7346682718809
 20
-97.37145136067482
 10
211.707971493966
 20
-97.37267206248079
 10
211.6811892687793
 20
-97.37633417153508
 10
211.6541201763227
 20
-97.38236444602025
 10
211.6263613875094
 20
-97.39078729684507
 10
211.5971987914374
 20
-97.40181024582577
  0
LWPOLYLINE
  5
2E3
330
31
100
AcDbEntity
  8
0
  6
Continuous
 62
     7
100
AcDbPolyline
 90
       12
 70
     0
 43
0.0
 10
211.5971987914374
 20
-97.40181024582577
 10
211.5700503535271
 20
-97.39046991503009
 10
211.5444338992377
 20
-97.3815465751193
 10
211.5196475213038
 20
-97.37475946609629
 10
211.4952761851839
 20
-97.37007196614314
 10
211.4710696417896
 20
-97.36748407525992
 10
211.4469058238494
 20
-97.36704462071889
 10
211.4227297986366
 20
-97.36877802070155
 10
211.3984500134248
 20
-97.37263544248115
 10
211.3738772591251
 20
-97.37858026605806
 10
211.3486697411954
 20
-97.3866246987049
 10
211.3221987941874
 20
-97.39696405496514
  0
LINE
  5
2F1
330
31
100
AcDbEntity
  8
0
  6
Continuous
 62
     7
100
AcDbLine
 10
211.8622012287874
 20
-97.36451776619869
 30
0.0
 11
211.8726138268651
 21
-97.37195184794252
 31
0.0
  0
LINE
  5
2F2
330
31
100
AcDbEntity
  8
0
  6
Continuous
 62
     7
100
AcDbLine
 10
211.3217593396463
 20
-97.60705926740966
 30
0.0
 11
211.3322024559055
 21
-97.61451776369868
 31
0.0
  0
LINE
  5
2F3
330
31
100
AcDbEntity
  8
0
  6
Continuous
 62
     7
100
AcDbLine
 10
271.5346983120624
 20
-97.70852411003136
 30
0.0
 11
271.5346983120624
 21
-97.88751580824145
 31
0.0
  0
LINE
  5
2F4
330
31
100
AcDbEntity
  8
0
  6
Continuous
 62
     7
100
AcDbLine
 10
271.544000068333
 20
-97.70852411003136
 30
0.0
 11
271.544000068333
 21
-97.88751580824145
 31
0.0
  0
LINE
  5
2F5
330
31
100
AcDbEntity
  8
0
  6
Continuous
 62
     7
100
AcDbLine
 10
271.7846983095625
 20
-97.70852411003136
 30
0.0
 11
271.7846983095625
 21
-97.61451776369868
 31
0.0
  0
LINE
  5
2F6
330
31
100
AcDbEntity
  8
0
  6
Continuous
 62
     7
100
AcDbLine
 10
271.7854795586454
 20
-97.70852411003136
 30
0.0
 11
271.7854795586454
 21
-97.88751580824145
 31
0.0
  0
LINE
  5
2F7
330
31
100
AcDbEntity
  8
0
  6
Continuous
 62
     7
100
AcDbLine
 10
271.9472011279373
 20
-97.60737456922466
 30
0.0
 11
271.9472011279373
 21
-97.37166356976359
 31
0.0
  0
LINE
  5
2F8
330
31
100
AcDbEntity
  8
0
  6
Continuous
 62
     7
100
AcDbLine
 10
272.0662011285654
 20
-97.36451906438048
 30
0.0
 11
272.0662011285654
 21
-97.31751907394141
 31
0.0
  0
LINE
  5
2F9
330
31
100
AcDbEntity
  8
0
  6
Continuous
 62
     7
100
AcDbLine
 10
272.2221983051874
 20
-97.57722528407162
 30
0.0
 11
272.2221983051874
 21
-97.40181024582577
 31
0.0
  0
LINE
  5
2FA
330
31
100
AcDbEntity
  8
0
  6
Continuous
 62
     7
100
AcDbLine
 10
272.3782011327183
 20
-97.36451906438048
 30
0.0
 11
272.3782011327183
 21
-97.31751907394141
 31
0.0
  0
LINE
  5
2FB
330
31
100
AcDbEntity
  8
0
  6
Continuous
 62
     7
100
AcDbLine
 10
272.4972011333464
 20
-97.37166332976357
 30
0.0
 11
272.4972011333464
 21
-97.60737481831556
 31
0.0
  0
LINE
  5
2FC
330
31
100
AcDbEntity
  8
0
  6
Continuous
 62
     7
100
AcDbLine
 10
272.658917049911
 20
-97.88751580824145
 30
0.0
 11
272.658917049911
 21
-97.70852411003136
 31
0.0
  0
LINE
  5
2FD
330
31
100
AcDbEntity
  8
0
  6
Continuous
 62
     7
100
AcDbLine
 10
272.6596983008123
 20
-97.70852411003136
 30
0.0
 11
272.6596983008123
 21
-97.61451776369868
 31
0.0
  0
LINE
  5
2FE
330
31
100
AcDbEntity
  8
0
  6
Continuous
 62
     7
100
AcDbLine
 10
272.9003965402235
 20
-97.88751580824145
 30
0.0
 11
272.9003965402235
 21
-97.70852411003136
 31
0.0
  0
LINE
  5
2FF
330
31
100
AcDbEntity
  8
0
  6
Continuous
 62
     7
100
AcDbLine
 10
272.9096982983123
 20
-97.70852411003136
 30
0.0
 11
272.9096982983123
 21
-97.88751580824145
 31
0.0
  0
LINE
  5
330
330
31
100
AcDbEntity
  8
0
  6
Continuous
 62
     7
100
AcDbLine
 10
191.2846990345624
 20
-104.3185216021132
 30
0.0
 11
292.5346980620623
 21
-104.3185216021132
 31
0.0
  0
LINE
  5
331
330
31
100
AcDbEntity
  8
0
  6
Continuous
 62
     7
100
AcDbLine
 10
293.5346980520623
 20
-104.3030186731773
 30
0.0
 11
292.5597008927214
 21
-104.3030190040864
 31
0.0
  0
LINE
  5
332
330
31
100
AcDbEntity
  8
0
  6
Continuous
 62
     7
100
AcDbLine
 10
191.2597018548123
 20
-104.3030190040864
 30
0.0
 11
190.2846990445624
 21
-104.3030186731773
 31
0.0
  0
LINE
  5
333
330
31
100
AcDbEntity
  8
0
  6
Continuous
 62
     7
100
AcDbLine
 10
191.2846990345624
 20
-104.288516720595
 30
0.0
 11
292.5346980620623
 21
-104.288516720595
 31
0.0
  0
LINE
  5
334
330
31
100
AcDbEntity
  8
0
  6
Continuous
 62
     7
100
AcDbLine
 10
292.5597008927214
 20
-104.1990189142173
 30
0.0
 11
293.5346980520623
 21
-104.1990147687628
 31
0.0
  0
LINE
  5
335
330
31
100
AcDbEntity
  8
0
  6
Continuous
 62
     7
100
AcDbLine
 10
191.2846990345624
 20
-104.1925206270095
 30
0.0
 11
292.5346980620623
 21
-104.1925206270095
 31
0.0
  0
LINE
  5
336
330
31
100
AcDbEntity
  8
0
  6
Continuous
 62
     7
100
AcDbLine
 10
190.2846990445624
 20
-104.1840245343672
 30
0.0
 11
191.2596990348124
 21
-104.1840245343672
 31
0.0
  0
LINE
  5
337
330
31
100
AcDbEntity
  8
0
  6
Continuous
 62
     7
100
AcDbLine
 10
191.2846990345624
 20
-104.1625157454914
 30
0.0
 11
292.5346980620623
 21
-104.1625157454914
 31
0.0
  0
LINE
  5
338
330
31
100
AcDbEntity
  8
0
  6
Continuous
 62
     7
100
AcDbLine
 10
292.5346980620623
 20
-104.1325230694277
 30
0.0
 11
191.2846990345624
 21
-104.1325230694277
 31
0.0
  0
LINE
  5
339
330
31
100
AcDbEntity
  8
0
  6
Continuous
 62
     7
100
AcDbLine
 10
292.6696956188942
 20
-103.2600133126982
 30
0.0
 11
292.6387019664769
 21
-103.2600133126982
 31
0.0
  0
LINE
  5
33A
330
31
100
AcDbEntity
  8
0
  6
Continuous
 62
     7
100
AcDbLine
 10
191.1346990360624
 20
-103.2600133126982
 30
0.0
 11
191.1657048939341
 21
-103.2600133126982
 31
0.0
  0
LINE
  5
33B
330
31
100
AcDbEntity
  8
0
  6
Continuous
 62
     7
100
AcDbLine
 10
292.7096980603124
 20
-103.2331578438759
 30
0.0
 11
292.6696956188942
 21
-103.2331578438759
 31
0.0
  0
LINE
  5
33C
330
31
100
AcDbEntity
  8
0
  6
Continuous
 62
     7
100
AcDbLine
 10
191.0947026982805
 20
-103.2331578438759
 30
0.0
 11
191.1346990360624
 21
-103.2331578438759
 31
0.0
  0
LINE
  5
33D
330
31
100
AcDbEntity
  8
0
  6
Continuous
 62
     7
100
AcDbLine
 10
292.7897029413305
 20
-103.2158360676855
 30
0.0
 11
292.7096980603124
 21
-103.2158360676855
 31
0.0
  0
LINE
  5
33E
330
31
100
AcDbEntity
  8
0
  6
Continuous
 62
     7
100
AcDbLine
 10
191.0147039190805
 20
-103.2158360676855
 30
0.0
 11
191.0947026982805
 21
-103.2158360676855
 31
0.0
  0
LINE
  5
33F
330
31
100
AcDbEntity
  8
0
  6
Continuous
 62
     7
100
AcDbLine
 10
292.7897029413305
 20
-103.1430821611402
 30
0.0
 11
292.6696956188942
 21
-103.1430821611402
 31
0.0
  0
LINE
  5
340
330
31
100
AcDbEntity
  8
0
  6
Continuous
 62
     7
100
AcDbLine
 10
191.0147039190805
 20
-103.1430821611402
 30
0.0
 11
191.1346990360624
 21
-103.1430821611402
 31
0.0
  0
LINE
  5
341
330
31
100
AcDbEntity
  8
0
  6
Continuous
 62
     7
100
AcDbLine
 10
292.7897029413305
 20
-102.9629552102143
 30
0.0
 11
292.6696956188942
 21
-102.9629552102143
 31
0.0
  0
LINE
  5
342
330
31
100
AcDbEntity
  8
0
  6
Continuous
 62
     7
100
AcDbLine
 10
191.0147039190805
 20
-102.9629552102143
 30
0.0
 11
191.1346990360624
 21
-102.9629552102143
 31
0.0
  0
LINE
  5
343
330
31
100
AcDbEntity
  8
0
  6
Continuous
 62
     7
100
AcDbLine
 10
292.7897029413305
 20
-102.8902013054873
 30
0.0
 11
292.7096980603124
 21
-102.8902013054873
 31
0.0
  0
LINE
  5
344
330
31
100
AcDbEntity
  8
0
  6
Continuous
 62
     7
100
AcDbLine
 10
191.0147039190805
 20
-102.8902013054873
 30
0.0
 11
191.0947026982805
 21
-102.8902013054873
 31
0.0
  0
LINE
  5
345
330
31
100
AcDbEntity
  8
0
  6
Continuous
 62
     7
100
AcDbLine
 10
292.7096980603124
 20
-102.8728917347513
 30
0.0
 11
292.6696956188942
 21
-102.8728917347513
 31
0.0
  0
LINE
  5
346
330
31
100
AcDbEntity
  8
0
  6
Continuous
 62
     7
100
AcDbLine
 10
191.0947026982805
 20
-102.8728917347513
 30
0.0
 11
191.1346990360624
 21
-102.8728917347513
 31
0.0
  0
LINE
  5
347
330
31
100
AcDbEntity
  8
0
  6
Continuous
 62
     7
100
AcDbLine
 10
292.6696956188942
 20
-102.8460240586563
 30
0.0
 11
292.6387019664769
 21
-102.8460240586563
 31
0.0
  0
LINE
  5
348
330
31
100
AcDbEntity
  8
0
  6
Continuous
 62
     7
100
AcDbLine
 10
191.1346990360624
 20
-102.8460240586563
 30
0.0
 11
191.1657048939341
 21
-102.8460240586563
 31
0.0
  0
LINE
  5
349
330
31
100
AcDbEntity
  8
0
  6
Continuous
 62
     7
100
AcDbLine
 10
189.105701252716
 20
-102.6280186899273
 30
0.0
 11
191.0757018911977
 21
-102.6280190626545
 31
0.0
  0
LINE
  5
34A
330
31
100
AcDbEntity
  8
0
  6
Continuous
 62
     7
100
AcDbLine
 10
189.0457036951342
 20
-102.6110142955519
 30
0.0
 11
189.105701252716
 21
-102.6110142955519
 31
0.0
  0
LINE
  5
34B
330
31
100
AcDbEntity
  8
0
  6
Continuous
 62
     7
100
AcDbLine
 10
189.105701252716
 20
-102.5680211323454
 30
0.0
 11
189.1848577464698
 21
-102.5680211323454
 31
0.0
  0
LINE
  5
34C
330
31
100
AcDbEntity
  8
0
  6
Continuous
 62
     7
100
AcDbLine
 10
191.0757018911977
 20
-102.5680190014364
 30
0.0
 11
191.0657018403886
 21
-102.5680190014364
 31
0.0
  0
LINE
  5
34D
330
31
100
AcDbEntity
  8
0
  6
Continuous
 62
     7
100
AcDbLine
 10
191.164441466674
 20
-102.5280186909273
 30
0.0
 11
191.0657048949341
 21
-102.5280186909273
 31
0.0
  0
LINE
  5
34E
330
31
100
AcDbEntity
  8
0
  6
Continuous
 62
     7
100
AcDbLine
 10
189.0457036951342
 20
-102.4860142968019
 30
0.0
 11
189.105701252716
 21
-102.4860142968019
 31
0.0
  0
LINE
  5
34F
330
31
100
AcDbEntity
  8
0
  6
Continuous
 62
     7
100
AcDbLine
 10
189.1657049139341
 20
-101.7980138164091
 30
0.0
 11
189.105701252716
 21
-101.7980138164091
 31
0.0
  0
LINE
  5
350
330
31
100
AcDbEntity
  8
0
  6
Continuous
 62
     7
100
AcDbLine
 10
188.9849065757421
 20
-101.6728185049338
 30
0.0
 11
188.9832281103043
 21
-101.6728185049338
 31
0.0
  0
LINE
  5
351
330
31
100
AcDbEntity
  8
0
  6
Continuous
 62
     7
100
AcDbLine
 10
188.976701884915
 20
-101.5750190313664
 30
0.0
 11
188.9483789197437
 21
-101.5750190313664
 31
0.0
  0
LINE
  5
352
330
31
100
AcDbEntity
  8
0
  6
Continuous
 62
     7
100
AcDbLine
 10
188.9483789197437
 20
-101.5210190300882
 30
0.0
 11
188.976701884915
 21
-101.5210190300882
 31
0.0
  0
LINE
  5
353
330
31
100
AcDbEntity
  8
0
  6
Continuous
 62
     7
100
AcDbLine
 10
188.9832281103043
 20
-101.4232213383389
 30
0.0
 11
188.9849065757421
 21
-101.4232213383389
 31
0.0
  0
LINE
  5
354
330
31
100
AcDbEntity
  8
0
  6
Continuous
 62
     7
100
AcDbLine
 10
189.105701252716
 20
-101.2980138214091
 30
0.0
 11
189.1657049139341
 21
-101.2980138214091
 31
0.0
  0
LINE
  5
355
330
31
100
AcDbEntity
  8
0
  6
Continuous
 62
     7
100
AcDbLine
 10
189.0457036951342
 20
-100.6110143155519
 30
0.0
 11
189.105701252716
 21
-100.6110143155519
 31
0.0
  0
LINE
  5
356
330
31
100
AcDbEntity
  8
0
  6
Continuous
 62
     7
100
AcDbLine
 10
191.0657048949341
 20
-100.5680211523454
 30
0.0
 11
191.164441466674
 21
-100.5680211523454
 31
0.0
  0
LINE
  5
357
330
31
100
AcDbEntity
  8
0
  6
Continuous
 62
     7
100
AcDbLine
 10
191.0757018911977
 20
-100.5280190600182
 30
0.0
 11
191.0657018403886
 21
-100.5280190600182
 31
0.0
  0
LINE
  5
358
330
31
100
AcDbEntity
  8
0
  6
Continuous
 62
     7
100
AcDbLine
 10
189.1848577464698
 20
-100.5280187109273
 30
0.0
 11
189.105701252716
 21
-100.5280187109273
 31
0.0
  0
LINE
  5
359
330
31
100
AcDbEntity
  8
0
  6
Continuous
 62
     7
100
AcDbLine
 10
189.0457036951342
 20
-100.4860143168019
 30
0.0
 11
189.105701252716
 21
-100.4860143168019
 31
0.0
  0
LINE
  5
35A
330
31
100
AcDbEntity
  8
0
  6
Continuous
 62
     7
100
AcDbLine
 10
191.0757018911977
 20
-100.4680189988
 30
0.0
 11
189.105701252716
 21
-100.4680211533454
 31
0.0
  0
LINE
  5
35B
330
31
100
AcDbEntity
  8
0
  6
Continuous
 62
     7
100
AcDbLine
 10
191.1657048939341
 20
-100.2430211555954
 30
0.0
 11
191.0567022095696
 21
-100.2430211555954
 31
0.0
  0
LINE
  5
35C
330
31
100
AcDbEntity
  8
0
  6
Continuous
 62
     7
100
AcDbLine
 10
292.6696956188942
 20
-99.51001335019826
 30
0.0
 11
292.6387019664769
 21
-99.51001335019826
 31
0.0
  0
LINE
  5
35D
330
31
100
AcDbEntity
  8
0
  6
Continuous
 62
     7
100
AcDbLine
 10
191.1346990360624
 20
-99.51001335019826
 30
0.0
 11
191.1657048939341
 21
-99.51001335019826
 31
0.0
  0
LINE
  5
35E
330
31
100
AcDbEntity
  8
0
  6
Continuous
 62
     7
100
AcDbLine
 10
292.7096980603124
 20
-99.48315788137591
 30
0.0
 11
292.6696956188942
 21
-99.48315788137591
 31
0.0
  0
LINE
  5
35F
330
31
100
AcDbEntity
  8
0
  6
Continuous
 62
     7
100
AcDbLine
 10
191.0947026982805
 20
-99.48315788137591
 30
0.0
 11
191.1346990360624
 21
-99.48315788137591
 31
0.0
  0
LINE
  5
360
330
31
100
AcDbEntity
  8
0
  6
Continuous
 62
     7
100
AcDbLine
 10
292.7897029413305
 20
-99.46583610518551
 30
0.0
 11
292.7096980603124
 21
-99.46583610518551
 31
0.0
  0
LINE
  5
361
330
31
100
AcDbEntity
  8
0
  6
Continuous
 62
     7
100
AcDbLine
 10
191.0147039190805
 20
-99.46583610518551
 30
0.0
 11
191.0947026982805
 21
-99.46583610518551
 31
0.0
  0
LINE
  5
362
330
31
100
AcDbEntity
  8
0
  6
Continuous
 62
     7
100
AcDbLine
 10
292.7897029413305
 20
-99.39308219864031
 30
0.0
 11
292.6696956188942
 21
-99.39308219864031
 31
0.0
  0
LINE
  5
363
330
31
100
AcDbEntity
  8
0
  6
Continuous
 62
     7
100
AcDbLine
 10
191.0147039190805
 20
-99.39308219864031
 30
0.0
 11
191.1346990360624
 21
-99.39308219864031
 31
0.0
  0
LINE
  5
364
330
31
100
AcDbEntity
  8
0
  6
Continuous
 62
     7
100
AcDbLine
 10
292.7897029413305
 20
-99.2129552477143
 30
0.0
 11
292.6696956188942
 21
-99.2129552477143
 31
0.0
  0
LINE
  5
365
330
31
100
AcDbEntity
  8
0
  6
Continuous
 62
     7
100
AcDbLine
 10
191.0147039190805
 20
-99.2129552477143
 30
0.0
 11
191.1346990360624
 21
-99.2129552477143
 31
0.0
  0
LINE
  5
366
330
31
100
AcDbEntity
  8
0
  6
Continuous
 62
     7
100
AcDbLine
 10
292.7897029413305
 20
-99.14020134298731
 30
0.0
 11
292.7096980603124
 21
-99.14020134298731
 31
0.0
  0
LINE
  5
367
330
31
100
AcDbEntity
  8
0
  6
Continuous
 62
     7
100
AcDbLine
 10
191.0147039190805
 20
-99.14020134298731
 30
0.0
 11
191.0947026982805
 21
-99.14020134298731
 31
0.0
  0
LINE
  5
368
330
31
100
AcDbEntity
  8
0
  6
Continuous
 62
     7
100
AcDbLine
 10
292.7096980603124
 20
-99.12289177225133
 30
0.0
 11
292.6696956188942
 21
-99.12289177225133
 31
0.0
  0
LINE
  5
369
330
31
100
AcDbEntity
  8
0
  6
Continuous
 62
     7
100
AcDbLine
 10
191.0947026982805
 20
-99.12289177225133
 30
0.0
 11
191.1346990360624
 21
-99.12289177225133
 31
0.0
  0
LINE
  5
36A
330
31
100
AcDbEntity
  8
0
  6
Continuous
 62
     7
100
AcDbLine
 10
292.6696956188942
 20
-99.09602409615636
 30
0.0
 11
292.6387019664769
 21
-99.09602409615636
 31
0.0
  0
LINE
  5
36B
330
31
100
AcDbEntity
  8
0
  6
Continuous
 62
     7
100
AcDbLine
 10
191.1346990360624
 20
-99.09602409615636
 30
0.0
 11
191.1657048939341
 21
-99.09602409615636
 31
0.0
  0
LINE
  5
36C
330
31
100
AcDbEntity
  8
0
  6
Continuous
 62
     7
100
AcDbLine
 10
191.1657048939341
 20
-98.42801873192733
 30
0.0
 11
191.2846990345624
 21
-98.42801873192733
 31
0.0
  0
LINE
  5
36D
330
31
100
AcDbEntity
  8
0
  6
Continuous
 62
     7
100
AcDbLine
 10
292.5346980620623
 20
-98.42801873192733
 30
0.0
 11
292.6387019664769
 21
-98.42801873192733
 31
0.0
  0
LINE
  5
36E
330
31
100
AcDbEntity
  8
0
  6
Continuous
 62
     7
100
AcDbLine
 10
191.1657048939341
 20
-98.30301873317733
 30
0.0
 11
191.2846990345624
 21
-98.30301873317733
 31
0.0
  0
LINE
  5
36F
330
31
100
AcDbEntity
  8
0
  6
Continuous
 62
     7
100
AcDbLine
 10
292.5346980620623
 20
-98.30301873317733
 30
0.0
 11
292.6387019664769
 21
-98.30301873317733
 31
0.0
  0
LINE
  5
370
330
31
100
AcDbEntity
  8
0
  6
Continuous
 62
     7
100
AcDbLine
 10
191.2846990345624
 20
-97.94751336582329
 30
0.0
 11
292.5346980620623
 21
-97.94751336582329
 31
0.0
  0
LINE
  5
371
330
31
100
AcDbEntity
  8
0
  6
Continuous
 62
     7
100
AcDbLine
 10
191.2847018600168
 20
-97.88751914278689
 30
0.0
 11
292.5347008875169
 21
-97.88751914278689
 31
0.0
  0
LINE
  5
372
330
31
100
AcDbEntity
  8
0
  6
Continuous
 62
     7
100
AcDbLine
 10
272.9096982983123
 20
-97.70852411003136
 30
0.0
 11
271.5346983120624
 21
-97.70852411003136
 31
0.0
  0
LINE
  5
373
330
31
100
AcDbEntity
  8
0
  6
Continuous
 62
     7
100
AcDbLine
 10
212.2846987845624
 20
-97.70852411003136
 30
0.0
 11
210.9096987983124
 21
-97.70852411003136
 31
0.0
  0
LINE
  5
374
330
31
100
AcDbEntity
  8
0
  6
Continuous
 62
     7
100
AcDbLine
 10
211.1596987958124
 20
-97.61451776369868
 30
0.0
 11
212.0346987870624
 21
-97.61451776369868
 31
0.0
  0
LINE
  5
375
330
31
100
AcDbEntity
  8
0
  6
Continuous
 62
     7
100
AcDbLine
 10
271.7846983095625
 20
-97.61451776369868
 30
0.0
 11
272.6596983008123
 21
-97.61451776369868
 31
0.0
  0
LINE
  5
376
330
31
100
AcDbEntity
  8
0
  6
Continuous
 62
     7
100
AcDbLine
 10
211.3322024559055
 20
-97.36451776619869
 30
0.0
 11
211.8622012287874
 21
-97.36451776619869
 31
0.0
  0
LINE
  5
377
330
31
100
AcDbEntity
  8
0
  6
Continuous
 62
     7
100
AcDbLine
 10
271.9572080732918
 20
-97.36451776619869
 30
0.0
 11
272.4872007425373
 21
-97.36451776619869
 31
0.0
  0
LINE
  5
378
330
31
100
AcDbEntity
  8
0
  6
Continuous
 62
     7
100
AcDbLine
 10
211.4411990366337
 20
-97.31752069575957
 30
0.0
 11
211.7532046480591
 21
-97.31752069575957
 31
0.0
  0
LINE
  5
379
330
31
100
AcDbEntity
  8
0
  6
Continuous
 62
     7
100
AcDbLine
 10
272.06620465402
 20
-97.31752069575957
 30
0.0
 11
272.3782041618091
 21
-97.31752069575957
 31
0.0
  0
LWPOLYLINE
  5
3AE
330
31
100
AcDbEntity
  8
0
  6
Continuous
 62
     7
100
AcDbPolyline
 90
       11
 70
     0
 43
0.0
 10
272.4971983024374
 20
-97.40193231673366
 10
272.468011290002
 20
-97.39088495320777
 10
272.440240293916
 20
-97.38242548056508
 10
272.4131528923687
 20
-97.37637079335287
 10
272.386370667182
 20
-97.37269647702603
 10
272.3596616819946
 20
-97.37145136067482
 10
272.3329649058979
 20
-97.37267206248079
 10
272.3061826788931
 20
-97.37633417153508
 10
272.2791196900727
 20
-97.38236444602025
 10
272.2513609012594
 20
-97.39078729684507
 10
272.2221983051874
 20
-97.40181024582577
  0
LWPOLYLINE
  5
3BB
330
31
100
AcDbEntity
  8
0
  6
Continuous
 62
     7
100
AcDbPolyline
 90
       12
 70
     0
 43
0.0
 10
272.2221983051874
 20
-97.40181024582577
 10
272.195049867277
 20
-97.39046991503009
 10
272.169439516624
 20
-97.3815465751193
 10
272.1446470350538
 20
-97.37475946609629
 10
272.1202818025702
 20
-97.37007196614314
 10
272.0960752591758
 20
-97.36748407525992
 10
272.0719053375994
 20
-97.36704462071889
 10
272.0477232087503
 20
-97.36877802070155
 10
272.0234434235385
 20
-97.37263544248115
 10
271.9988828765114
 20
-97.37858026605806
 10
271.9736631513091
 20
-97.3866246987049
 10
271.9471983079374
 20
-97.39696405496514
  0
LINE
  5
3C9
330
31
100
AcDbEntity
  8
0
  6
Continuous
 62
     7
100
AcDbLine
 10
272.4872007425373
 20
-97.36451776619869
 30
0.0
 11
272.497613340615
 21
-97.37195184794252
 31
0.0
  0
LINE
  5
3CA
330
31
100
AcDbEntity
  8
0
  6
Continuous
 62
     7
100
AcDbLine
 10
271.9467588533963
 20
-97.60705926740966
 30
0.0
 11
271.9571958660192
 21
-97.61451776369868
 31
0.0
  0
LINE
  5
3F8
330
31
100
AcDbEntity
  8
0
  6
Continuous
 62
     7
100
AcDbLine
 10
292.5346980620623
 20
-104.3185216021132
 30
0.0
 11
292.5346980620623
 21
-97.88751580824145
 31
0.0
  0
LINE
  5
3F9
330
31
100
AcDbEntity
  8
0
  6
Continuous
 62
     7
100
AcDbLine
 10
292.5597008927214
 20
-104.3030190040864
 30
0.0
 11
292.5597008927214
 21
-104.1990189142173
 31
0.0
  0
LINE
  5
3FA
330
31
100
AcDbEntity
  8
0
  6
Continuous
 62
     7
100
AcDbLine
 10
292.6387019664769
 20
-104.1690220926991
 30
0.0
 11
292.6387019664769
 21
-98.30301873317733
 31
0.0
  0
LINE
  5
3FB
330
31
100
AcDbEntity
  8
0
  6
Continuous
 62
     7
100
AcDbLine
 10
292.6696956188942
 20
-103.2600133126982
 30
0.0
 11
292.6696956188942
 21
-102.8460240586563
 31
0.0
  0
LINE
  5
3FC
330
31
100
AcDbEntity
  8
0
  6
Continuous
 62
     7
100
AcDbLine
 10
292.6696956188942
 20
-99.51001335019826
 30
0.0
 11
292.6696956188942
 21
-99.09602409615636
 31
0.0
  0
LINE
  5
3FD
330
31
100
AcDbEntity
  8
0
  6
Continuous
 62
     7
100
AcDbLine
 10
292.7096980603124
 20
-99.12289177225133
 30
0.0
 11
292.7096980603124
 21
-99.14020134298731
 31
0.0
  0
LINE
  5
3FE
330
31
100
AcDbEntity
  8
0
  6
Continuous
 62
     7
100
AcDbLine
 10
292.7096980603124
 20
-102.8728917347513
 30
0.0
 11
292.7096980603124
 21
-102.8902013054873
 31
0.0
  0
LINE
  5
3FF
330
31
100
AcDbEntity
  8
0
  6
Continuous
 62
     7
100
AcDbLine
 10
292.7096980603124
 20
-103.2331578438759
 30
0.0
 11
292.7096980603124
 21
-103.2158360676855
 31
0.0
  0
LINE
  5
400
330
31
100
AcDbEntity
  8
0
  6
Continuous
 62
     7
100
AcDbLine
 10
292.7096980603124
 20
-99.48315788137591
 30
0.0
 11
292.7096980603124
 21
-99.46583610518551
 31
0.0
  0
LINE
  5
401
330
31
100
AcDbEntity
  8
0
  6
Continuous
 62
     7
100
AcDbLine
 10
292.7897029413305
 20
-99.14020134298731
 30
0.0
 11
292.7897029413305
 21
-99.46583610518551
 31
0.0
  0
LINE
  5
402
330
31
100
AcDbEntity
  8
0
  6
Continuous
 62
     7
100
AcDbLine
 10
292.7897029413305
 20
-102.8902013054873
 30
0.0
 11
292.7897029413305
 21
-103.2158360676855
 31
0.0
  0
LINE
  5
403
330
31
100
AcDbEntity
  8
0
  6
Continuous
 62
     7
100
AcDbLine
 10
293.4096980533123
 20
-104.3030186731773
 30
0.0
 11
293.4096980533123
 21
-104.1990147687628
 31
0.0
  0
LINE
  5
404
330
31
100
AcDbEntity
  8
0
  6
Continuous
 62
     7
100
AcDbLine
 10
293.5346980520623
 20
-104.3030186731773
 30
0.0
 11
293.5346980520623
 21
-104.1990147687628
 31
0.0
  0
LINE
  5
499
330
31
100
AcDbEntity
  8
0
  6
Continuous
 62
     7
100
AcDbLine
 10
170.8913602895045
 20
-97.36451907347142
 30
0.0
 11
170.8535889662459
 21
-97.39149858956524
 31
0.0
  0
LINE
  5
49A
330
31
100
AcDbEntity
  8
0
  6
Continuous
 62
     7
100
AcDbLine
 10
171.4735653655006
 20
-97.57722972770793
 30
0.0
 11
171.4213602842045
 21
-97.61451907097141
 31
0.0
  0
LINE
  5
49B
330
31
100
AcDbEntity
  8
0
  6
Continuous
 62
     7
100
AcDbLine
 10
170.8523602898945
 20
-99.12288577225135
 30
0.0
 11
170.6963602914545
 21
-99.21295241316887
 31
0.0
  0
LINE
  5
49C
330
31
100
AcDbEntity
  8
0
  6
Continuous
 62
     7
100
AcDbLine
 10
170.8523602898945
 20
-99.48315233592145
 30
0.0
 11
171.0083602883345
 21
-99.3930856950039
 31
0.0
  0
LINE
  5
4A0
330
31
100
AcDbEntity
  8
0
  6
Continuous
 62
     7
100
AcDbLine
 10
175.8313602401045
 20
-97.36451907347142
 30
0.0
 11
175.7935889168459
 21
-97.39149858956524
 31
0.0
  0
LINE
  5
4A1
330
31
100
AcDbEntity
  8
0
  6
Continuous
 62
     7
100
AcDbLine
 10
176.4135653161007
 20
-97.57722972770793
 30
0.0
 11
176.3613602348045
 21
-97.61451907097141
 31
0.0
  0
LINE
  5
4A2
330
31
100
AcDbEntity
  8
0
  6
Continuous
 62
     7
100
AcDbLine
 10
176.3923602344946
 20
-99.12288577225135
 30
0.0
 11
176.2363602360545
 21
-99.21295241316887
 31
0.0
  0
LINE
  5
4A3
330
31
100
AcDbEntity
  8
0
  6
Continuous
 62
     7
100
AcDbLine
 10
176.3923602344946
 20
-99.48315233592145
 30
0.0
 11
176.5483602329345
 21
-99.3930856950039
 31
0.0
  0
LINE
  5
4A4
330
31
100
AcDbEntity
  8
0
  6
Continuous
 62
     7
100
AcDbLine
 10
170.8523602898945
 20
-102.8728857347513
 30
0.0
 11
170.6963602914545
 21
-102.9629523756689
 31
0.0
  0
LINE
  5
4A5
330
31
100
AcDbEntity
  8
0
  6
Continuous
 62
     7
100
AcDbLine
 10
170.8523602898945
 20
-103.2331522984214
 30
0.0
 11
171.0083602883345
 21
-103.1430856575039
 31
0.0
  0
LINE
  5
4A6
330
31
100
AcDbEntity
  8
0
  6
Continuous
 62
     7
100
AcDbLine
 10
176.3923602344946
 20
-102.8728857347513
 30
0.0
 11
176.2363602360545
 21
-102.9629523756689
 31
0.0
  0
LINE
  5
4A7
330
31
100
AcDbEntity
  8
0
  6
Continuous
 62
     7
100
AcDbLine
 10
176.3923602344946
 20
-103.2331522984214
 30
0.0
 11
176.5483602329345
 21
-103.1430856575039
 31
0.0
  0
LINE
  5
4B0
330
31
100
AcDbEntity
  8
0
  6
Continuous
 62
     7
100
AcDbLine
 10
169.1263603071545
 20
-97.88751906824137
 30
0.0
 11
169.1263603071545
 21
-97.70851907003141
 31
0.0
  0
LINE
  5
4B1
330
31
100
AcDbEntity
  8
0
  6
Continuous
 62
     9
100
AcDbLine
 10
169.3116555453016
 20
-97.88751906824137
 30
0.0
 11
169.3116555453016
 21
-97.70851907003141
 31
0.0
  0
LINE
  5
4B2
330
31
100
AcDbEntity
  8
0
  6
Continuous
 62
     7
100
AcDbLine
 10
169.3463603049545
 20
-97.70851907003141
 30
0.0
 11
169.3463603049545
 21
-97.88751906824137
 31
0.0
  0
LINE
  5
4B3
330
31
100
AcDbEntity
  8
0
  6
Continuous
 62
     7
100
AcDbLine
 10
169.7473603009445
 20
-104.3030190040864
 30
0.0
 11
169.7473603009445
 21
-104.1840190052764
 31
0.0
  0
LINE
  5
4B4
330
31
100
AcDbEntity
  8
0
  6
Continuous
 62
     9
100
AcDbLine
 10
169.8723602996945
 20
-104.3030190040864
 30
0.0
 11
169.8723602996945
 21
-104.1840190052764
 31
0.0
  0
LINE
  5
4B5
330
31
100
AcDbEntity
  8
0
  6
Continuous
 62
     7
100
AcDbLine
 10
170.5953602924645
 20
-97.9475190676414
 30
0.0
 11
170.5953602924645
 21
-104.1325190057914
 31
0.0
  0
LINE
  5
4B6
330
31
100
AcDbEntity
  8
0
  6
Continuous
 62
     7
100
AcDbLine
 10
170.6223602921945
 20
-104.1840190052764
 30
0.0
 11
170.6223602921945
 21
-98.42801906283639
 31
0.0
  0
LINE
  5
4B7
330
31
100
AcDbEntity
  8
0
  6
Continuous
 62
     7
100
AcDbLine
 10
170.6963602914545
 20
-99.21295241316887
 30
0.0
 11
170.6963602914545
 21
-99.3930856950039
 31
0.0
  0
LINE
  5
4B8
330
31
100
AcDbEntity
  8
0
  6
Continuous
 62
     7
100
AcDbLine
 10
170.6963602914545
 20
-102.9629523756689
 30
0.0
 11
170.6963602914545
 21
-103.1430856575039
 31
0.0
  0
LINE
  5
4B9
330
31
100
AcDbEntity
  8
0
  6
Continuous
 62
     7
100
AcDbLine
 10
170.7188602912295
 20
-97.70851907003141
 30
0.0
 11
170.7188602912295
 21
-97.61451907097141
 31
0.0
  0
LINE
  5
4BA
330
31
100
AcDbEntity
  8
0
  6
Continuous
 62
     7
100
AcDbLine
 10
170.7753602906645
 20
-98.06751906644141
 30
0.0
 11
170.7753602906645
 21
-98.28751906424141
 31
0.0
  0
LINE
  5
4BB
330
31
100
AcDbEntity
  8
0
  6
Continuous
 62
     7
100
AcDbLine
 10
170.8223602901945
 20
-99.14020627935087
 30
0.0
 11
170.8223602901945
 21
-99.46583182882193
 31
0.0
  0
LINE
  5
4BC
330
31
100
AcDbEntity
  8
0
  6
Continuous
 62
     7
100
AcDbLine
 10
170.8223602901945
 20
-102.8902062418509
 30
0.0
 11
170.8223602901945
 21
-103.2158317913219
 31
0.0
  0
LINE
  5
4BD
330
31
100
AcDbEntity
  8
0
  6
Continuous
 62
     7
100
AcDbLine
 10
170.8535889662459
 20
-97.58753955305937
 30
0.0
 11
170.8535889662459
 21
-97.39149858956524
 31
0.0
  0
LINE
  5
4BE
330
31
100
AcDbEntity
  8
0
  6
Continuous
 62
     7
100
AcDbLine
 10
170.8823602895945
 20
-103.2158317913219
 30
0.0
 11
170.8823602895945
 21
-102.8902062418509
 31
0.0
  0
LINE
  5
4BF
330
31
100
AcDbEntity
  8
0
  6
Continuous
 62
     7
100
AcDbLine
 10
170.8823602895945
 20
-99.46583182882193
 30
0.0
 11
170.8823602895945
 21
-99.14020627935087
 31
0.0
  0
LINE
  5
4C0
330
31
100
AcDbEntity
  8
0
  6
Continuous
 62
     7
100
AcDbLine
 10
170.9903602885145
 20
-97.88751906824137
 30
0.0
 11
170.9903602885145
 21
-98.06751906644141
 31
0.0
  0
LINE
  5
4C1
330
31
100
AcDbEntity
  8
0
  6
Continuous
 62
     7
100
AcDbLine
 10
170.9963602884545
 20
-98.06751906644141
 30
0.0
 11
170.9963602884545
 21
-97.88751906824137
 31
0.0
  0
LINE
  5
4C2
330
31
100
AcDbEntity
  8
0
  6
Continuous
 62
     7
100
AcDbLine
 10
171.0003602884145
 20
-97.36451907347142
 30
0.0
 11
171.0003602884145
 21
-97.31751907394141
 31
0.0
  0
LINE
  5
4C3
330
31
100
AcDbEntity
  8
0
  6
Continuous
 62
     7
100
AcDbLine
 10
171.0083602883345
 20
-103.1430856575039
 30
0.0
 11
171.0083602883345
 21
-102.9629523756689
 31
0.0
  0
LINE
  5
4C4
330
31
100
AcDbEntity
  8
0
  6
Continuous
 62
     7
100
AcDbLine
 10
171.0083602883345
 20
-99.3930856950039
 30
0.0
 11
171.0083602883345
 21
-99.21295241316887
 31
0.0
  0
LINE
  5
4C5
330
31
100
AcDbEntity
  8
0
  6
Continuous
 62
     7
100
AcDbLine
 10
171.0123602882945
 20
-97.58207572584128
 30
0.0
 11
171.0123602882945
 21
-97.39696241678331
 31
0.0
  0
LINE
  5
4C6
330
31
100
AcDbEntity
  8
0
  6
Continuous
 62
     7
100
AcDbLine
 10
171.3003602854145
 20
-97.58207572584128
 30
0.0
 11
171.3003602854145
 21
-97.39696241678331
 31
0.0
  0
LINE
  5
4C7
330
31
100
AcDbEntity
  8
0
  6
Continuous
 62
     7
100
AcDbLine
 10
171.3123602852945
 20
-97.36451907347142
 30
0.0
 11
171.3123602852945
 21
-97.31751907394141
 31
0.0
  0
LINE
  5
4C8
330
31
100
AcDbEntity
  8
0
  6
Continuous
 62
     7
100
AcDbLine
 10
171.3163602852545
 20
-98.06751906644141
 30
0.0
 11
171.3163602852545
 21
-97.88751906824137
 31
0.0
  0
LINE
  5
4C9
330
31
100
AcDbEntity
  8
0
  6
Continuous
 62
     7
100
AcDbLine
 10
171.3203602852145
 20
-98.06751906644141
 30
0.0
 11
171.3203602852145
 21
-97.88751906824137
 31
0.0
  0
LINE
  5
4CA
330
31
100
AcDbEntity
  8
0
  6
Continuous
 62
     7
100
AcDbLine
 10
171.4735653655006
 20
-97.57722972770793
 30
0.0
 11
171.4735653655006
 21
-97.40180841673486
 31
0.0
  0
LINE
  5
4CD
330
31
100
AcDbEntity
  8
0
  6
Continuous
 62
     7
100
AcDbLine
 10
171.5353602830645
 20
-98.28751906424141
 30
0.0
 11
171.5353602830645
 21
-98.06751906644141
 31
0.0
  0
LINE
  5
4D3
330
31
100
AcDbEntity
  8
0
  6
Continuous
 62
     7
100
AcDbLine
 10
171.5938602824795
 20
-97.70851907003141
 30
0.0
 11
171.5938602824795
 21
-97.61451907097141
 31
0.0
  0
LINE
  5
4DA
330
31
100
AcDbEntity
  8
0
  6
Continuous
 62
     7
100
AcDbLine
 10
171.7153602812645
 20
-97.9475190676414
 30
0.0
 11
171.7153602812645
 21
-98.28751906424141
 31
0.0
  0
LINE
  5
50C
330
31
100
AcDbEntity
  8
0
  6
Continuous
 62
     7
100
AcDbLine
 10
172.4073602743445
 20
-100.6110190410064
 30
0.0
 11
172.4073602743445
 21
-102.4860190222564
 31
0.0
  0
LINE
  5
50D
330
31
100
AcDbEntity
  8
0
  6
Continuous
 62
     7
100
AcDbLine
 10
172.4073602743445
 20
-102.6280190208364
 30
0.0
 11
172.4073602743445
 21
-102.5030190220864
 31
0.0
  0
LINE
  5
50E
330
31
100
AcDbEntity
  8
0
  6
Continuous
 62
     7
100
AcDbLine
 10
172.4073602743445
 20
-100.5930190411864
 30
0.0
 11
172.4073602743445
 21
-100.4680190424364
 31
0.0
  0
LINE
  5
50F
330
31
100
AcDbEntity
  8
0
  6
Continuous
 62
     7
100
AcDbLine
 10
172.4673602737445
 20
-100.4680190424364
 30
0.0
 11
172.4673602737445
 21
-100.5051735257012
 31
0.0
  0
LINE
  5
510
330
31
100
AcDbEntity
  8
0
  6
Continuous
 62
     7
100
AcDbLine
 10
172.4673602737445
 20
-102.5918653448343
 30
0.0
 11
172.4673602737445
 21
-102.6280190208364
 31
0.0
  0
LINE
  5
511
330
31
100
AcDbEntity
  8
0
  6
Continuous
 62
     7
100
AcDbLine
 10
172.4823602735945
 20
-100.4680190424364
 30
0.0
 11
172.4823602735945
 21
-100.4969246548746
 31
0.0
  0
LINE
  5
512
330
31
100
AcDbEntity
  8
0
  6
Continuous
 62
     7
100
AcDbLine
 10
172.4823602735945
 20
-102.6001156283881
 30
0.0
 11
172.4823602735945
 21
-102.6280190208364
 31
0.0
  0
LINE
  5
513
330
31
100
AcDbEntity
  8
0
  6
Continuous
 62
     9
100
AcDbLine
 10
172.6073602723445
 20
-100.4680190424364
 30
0.0
 11
172.6073602723445
 21
-100.4860190422564
 31
0.0
  0
LINE
  5
514
330
31
100
AcDbEntity
  8
0
  6
Continuous
 62
     9
100
AcDbLine
 10
172.6073602723445
 20
-102.6110190210063
 30
0.0
 11
172.6073602723445
 21
-102.6280190208364
 31
0.0
  0
LINE
  5
515
330
31
100
AcDbEntity
  8
0
  6
Continuous
 62
     7
100
AcDbLine
 10
172.7103602713145
 20
-101.6728190303884
 30
0.0
 11
172.7103602713145
 21
-101.5500190316164
 31
0.0
  0
LINE
  5
516
330
31
100
AcDbEntity
  8
0
  6
Continuous
 62
     7
100
AcDbLine
 10
172.7103602713145
 20
-101.5210190319064
 30
0.0
 11
172.7103602713145
 21
-101.4372892054709
 31
0.0
  0
LINE
  5
517
330
31
100
AcDbEntity
  8
0
  6
Continuous
 62
     9
100
AcDbLine
 10
172.7353602710645
 20
-101.5460190316564
 30
0.0
 11
172.7353602710645
 21
-101.4473502853703
 31
0.0
  0
LINE
  5
518
330
31
100
AcDbEntity
  8
0
  6
Continuous
 62
     9
100
AcDbLine
 10
172.7373602710445
 20
-101.6486857669933
 30
0.0
 11
172.7373602710445
 21
-101.6728190285702
 31
0.0
  0
LINE
  5
519
330
31
100
AcDbEntity
  8
0
  6
Continuous
 62
     9
100
AcDbLine
 10
172.7373602710445
 20
-101.4473522962794
 30
0.0
 11
172.7373602710445
 21
-101.4232190328844
 31
0.0
  0
LINE
  5
51A
330
31
100
AcDbEntity
  8
0
  6
Continuous
 62
     9
100
AcDbLine
 10
172.7393602710245
 20
-101.5500190316164
 30
0.0
 11
172.7393602710245
 21
-101.6486877779024
 31
0.0
  0
LINE
  5
51B
330
31
100
AcDbEntity
  8
0
  6
Continuous
 62
     9
100
AcDbLine
 10
172.7393602710245
 20
-101.4473502835521
 30
0.0
 11
172.7393602710245
 21
-101.5460190316564
 31
0.0
  0
LINE
  5
51C
330
31
100
AcDbEntity
  8
0
  6
Continuous
 62
     7
100
AcDbLine
 10
172.7643602707745
 20
-101.4372892054709
 30
0.0
 11
172.7643602707745
 21
-101.5210190319064
 31
0.0
  0
LINE
  5
51D
330
31
100
AcDbEntity
  8
0
  6
Continuous
 62
     7
100
AcDbLine
 10
172.7643602707745
 20
-101.5750190313664
 30
0.0
 11
172.7643602707745
 21
-101.6587488578018
 31
0.0
  0
LINE
  5
51E
330
31
100
AcDbEntity
  8
0
  6
Continuous
 62
     7
100
AcDbLine
 10
173.3468602649495
 20
-103.6275190108413
 30
0.0
 11
173.3468602649495
 21
-103.5685190114314
 31
0.0
  0
LINE
  5
51F
330
31
100
AcDbEntity
  8
0
  6
Continuous
 62
     7
100
AcDbLine
 10
173.3518602648994
 20
-103.5685190114314
 30
0.0
 11
173.3518602648994
 21
-103.6275190108413
 31
0.0
  0
LINE
  5
520
330
31
100
AcDbEntity
  8
0
  6
Continuous
 62
     7
100
AcDbLine
 10
173.5378602630395
 20
-103.5685190114314
 30
0.0
 11
173.5378602630395
 21
-103.6275190108413
 31
0.0
  0
LINE
  5
521
330
31
100
AcDbEntity
  8
0
  6
Continuous
 62
     7
100
AcDbLine
 10
173.7068602613494
 20
-103.5685190114314
 30
0.0
 11
173.7068602613494
 21
-103.6275190108413
 31
0.0
  0
LINE
  5
522
330
31
100
AcDbEntity
  8
0
  6
Continuous
 62
     7
100
AcDbLine
 10
173.7118602612995
 20
-103.6275190108413
 30
0.0
 11
173.7118602612995
 21
-103.5685190114314
 31
0.0
  0
LINE
  5
523
330
31
100
AcDbEntity
  8
0
  6
Continuous
 62
     7
100
AcDbLine
 10
173.8978602594395
 20
-103.6275190108413
 30
0.0
 11
173.8978602594395
 21
-103.5685190114314
 31
0.0
  0
LINE
  5
526
330
31
100
AcDbEntity
  8
0
  6
Continuous
 62
     7
100
AcDbLine
 10
175.5373602430445
 20
-97.9475190676414
 30
0.0
 11
175.5373602430445
 21
-98.28751906424141
 31
0.0
  0
LINE
  5
527
330
31
100
AcDbEntity
  8
0
  6
Continuous
 62
     7
100
AcDbLine
 10
175.6588602418295
 20
-97.70851907003141
 30
0.0
 11
175.6588602418295
 21
-97.61451907097141
 31
0.0
  0
LINE
  5
528
330
31
100
AcDbEntity
  8
0
  6
Continuous
 62
     7
100
AcDbLine
 10
175.7173602412445
 20
-98.28751906424141
 30
0.0
 11
175.7173602412445
 21
-98.06751906644141
 31
0.0
  0
LINE
  5
529
330
31
100
AcDbEntity
  8
0
  6
Continuous
 62
     7
100
AcDbLine
 10
175.7935889168459
 20
-97.58753955305937
 30
0.0
 11
175.7935889168459
 21
-97.39149858956524
 31
0.0
  0
LINE
  5
52A
330
31
100
AcDbEntity
  8
0
  6
Continuous
 62
     7
100
AcDbLine
 10
175.9323602390945
 20
-98.06751906644141
 30
0.0
 11
175.9323602390945
 21
-97.88751906824137
 31
0.0
  0
LINE
  5
52B
330
31
100
AcDbEntity
  8
0
  6
Continuous
 62
     7
100
AcDbLine
 10
175.9363602390545
 20
-98.06751906644141
 30
0.0
 11
175.9363602390545
 21
-97.88751906824137
 31
0.0
  0
LINE
  5
52C
330
31
100
AcDbEntity
  8
0
  6
Continuous
 62
     7
100
AcDbLine
 10
175.9403602390145
 20
-97.36451907347142
 30
0.0
 11
175.9403602390145
 21
-97.31751907394141
 31
0.0
  0
LINE
  5
52D
330
31
100
AcDbEntity
  8
0
  6
Continuous
 62
     7
100
AcDbLine
 10
175.9523602388945
 20
-97.58207572584128
 30
0.0
 11
175.9523602388945
 21
-97.39696241678331
 31
0.0
  0
LINE
  5
52E
330
31
100
AcDbEntity
  8
0
  6
Continuous
 62
     7
100
AcDbLine
 10
176.0503602379145
 20
-101.6728190303884
 30
0.0
 11
176.0503602379145
 21
-101.5500190316164
 31
0.0
  0
LINE
  5
52F
330
31
100
AcDbEntity
  8
0
  6
Continuous
 62
     7
100
AcDbLine
 10
176.0503602379145
 20
-101.5210190319064
 30
0.0
 11
176.0503602379145
 21
-101.4372892054709
 31
0.0
  0
LINE
  5
530
330
31
100
AcDbEntity
  8
0
  6
Continuous
 62
     9
100
AcDbLine
 10
176.0753602376644
 20
-101.5460190316564
 30
0.0
 11
176.0753602376644
 21
-101.4473502853703
 31
0.0
  0
LINE
  5
531
330
31
100
AcDbEntity
  8
0
  6
Continuous
 62
     9
100
AcDbLine
 10
176.0773602376445
 20
-101.6486857669933
 30
0.0
 11
176.0773602376445
 21
-101.6728190285702
 31
0.0
  0
LINE
  5
532
330
31
100
AcDbEntity
  8
0
  6
Continuous
 62
     9
100
AcDbLine
 10
176.0773602376445
 20
-101.4473522962794
 30
0.0
 11
176.0773602376445
 21
-101.4232190328844
 31
0.0
  0
LINE
  5
533
330
31
100
AcDbEntity
  8
0
  6
Continuous
 62
     9
100
AcDbLine
 10
176.0793602376245
 20
-101.5500190316164
 30
0.0
 11
176.0793602376245
 21
-101.6486877779024
 31
0.0
  0
LINE
  5
534
330
31
100
AcDbEntity
  8
0
  6
Continuous
 62
     9
100
AcDbLine
 10
176.0793602376245
 20
-101.4473502835521
 30
0.0
 11
176.0793602376245
 21
-101.5460190316564
 31
0.0
  0
LINE
  5
535
330
31
100
AcDbEntity
  8
0
  6
Continuous
 62
     7
100
AcDbLine
 10
176.1043602373745
 20
-101.4372892054709
 30
0.0
 11
176.1043602373745
 21
-101.5210190319064
 31
0.0
  0
LINE
  5
536
330
31
100
AcDbEntity
  8
0
  6
Continuous
 62
     7
100
AcDbLine
 10
176.1043602373745
 20
-101.5750190313664
 30
0.0
 11
176.1043602373745
 21
-101.6587488578018
 31
0.0
  0
LINE
  5
537
330
31
100
AcDbEntity
  8
0
  6
Continuous
 62
     9
100
AcDbLine
 10
176.2073602363445
 20
-102.6280190208364
 30
0.0
 11
176.2073602363445
 21
-102.6110190210063
 31
0.0
  0
LINE
  5
538
330
31
100
AcDbEntity
  8
0
  6
Continuous
 62
     9
100
AcDbLine
 10
176.2073602363445
 20
-100.4860190422564
 30
0.0
 11
176.2073602363445
 21
-100.4680190424364
 31
0.0
  0
LINE
  5
539
330
31
100
AcDbEntity
  8
0
  6
Continuous
 62
     7
100
AcDbLine
 10
176.2363602360545
 20
-99.21295241316887
 30
0.0
 11
176.2363602360545
 21
-99.3930856950039
 31
0.0
  0
LINE
  5
53A
330
31
100
AcDbEntity
  8
0
  6
Continuous
 62
     7
100
AcDbLine
 10
176.2363602360545
 20
-102.9629523756689
 30
0.0
 11
176.2363602360545
 21
-103.1430856575039
 31
0.0
  0
LINE
  5
53B
330
31
100
AcDbEntity
  8
0
  6
Continuous
 62
     7
100
AcDbLine
 10
176.2403602360146
 20
-97.58207572584128
 30
0.0
 11
176.2403602360146
 21
-97.39696241678331
 31
0.0
  0
LINE
  5
53C
330
31
100
AcDbEntity
  8
0
  6
Continuous
 62
     7
100
AcDbLine
 10
176.2523602358945
 20
-97.36451907347142
 30
0.0
 11
176.2523602358945
 21
-97.31751907394141
 31
0.0
  0
LINE
  5
53D
330
31
100
AcDbEntity
  8
0
  6
Continuous
 62
     7
100
AcDbLine
 10
176.2563602358545
 20
-98.06751906644141
 30
0.0
 11
176.2563602358545
 21
-97.88751906824137
 31
0.0
  0
LINE
  5
53E
330
31
100
AcDbEntity
  8
0
  6
Continuous
 62
     7
100
AcDbLine
 10
176.2623602357945
 20
-97.88751906824137
 30
0.0
 11
176.2623602357945
 21
-98.06751906644141
 31
0.0
  0
LINE
  5
53F
330
31
100
AcDbEntity
  8
0
  6
Continuous
 62
     7
100
AcDbLine
 10
176.3323602350945
 20
-102.6280190208364
 30
0.0
 11
176.3323602350945
 21
-102.6001134083882
 31
0.0
  0
LINE
  5
540
330
31
100
AcDbEntity
  8
0
  6
Continuous
 62
     7
100
AcDbLine
 10
176.3323602350945
 20
-100.4969224348746
 30
0.0
 11
176.3323602350945
 21
-100.4680190424364
 31
0.0
  0
LINE
  5
541
330
31
100
AcDbEntity
  8
0
  6
Continuous
 62
     7
100
AcDbLine
 10
176.3473602349445
 20
-102.6280190208364
 30
0.0
 11
176.3473602349445
 21
-102.5918645357434
 31
0.0
  0
LINE
  5
542
330
31
100
AcDbEntity
  8
0
  6
Continuous
 62
     7
100
AcDbLine
 10
176.3473602349445
 20
-100.5051727184285
 30
0.0
 11
176.3473602349445
 21
-100.4680190424364
 31
0.0
  0
LINE
  5
543
330
31
100
AcDbEntity
  8
0
  6
Continuous
 62
     7
100
AcDbLine
 10
176.3623602347945
 20
-99.14020627935087
 30
0.0
 11
176.3623602347945
 21
-99.46583182882193
 31
0.0
  0
LINE
  5
544
330
31
100
AcDbEntity
  8
0
  6
Continuous
 62
     7
100
AcDbLine
 10
176.3623602347945
 20
-102.8902062418509
 30
0.0
 11
176.3623602347945
 21
-103.2158317913219
 31
0.0
  0
LINE
  5
545
330
31
100
AcDbEntity
  8
0
  6
Continuous
 62
     7
100
AcDbLine
 10
176.4073602343445
 20
-100.4680190424364
 30
0.0
 11
176.4073602343445
 21
-100.5930190411864
 31
0.0
  0
LINE
  5
546
330
31
100
AcDbEntity
  8
0
  6
Continuous
 62
     7
100
AcDbLine
 10
176.4073602343445
 20
-102.5030190220864
 30
0.0
 11
176.4073602343445
 21
-102.6280190208364
 31
0.0
  0
LINE
  5
547
330
31
100
AcDbEntity
  8
0
  6
Continuous
 62
     7
100
AcDbLine
 10
176.4073602343445
 20
-102.4860190222564
 30
0.0
 11
176.4073602343445
 21
-100.6110190410064
 31
0.0
  0
LINE
  5
548
330
31
100
AcDbEntity
  8
0
  6
Continuous
 62
     7
100
AcDbLine
 10
176.4135653161007
 20
-97.57722972770793
 30
0.0
 11
176.4135653161007
 21
-97.40180841673486
 31
0.0
  0
LINE
  5
549
330
31
100
AcDbEntity
  8
0
  6
Continuous
 62
     7
100
AcDbLine
 10
176.4223602341945
 20
-103.2158317913219
 30
0.0
 11
176.4223602341945
 21
-102.8902062418509
 31
0.0
  0
LINE
  5
54A
330
31
100
AcDbEntity
  8
0
  6
Continuous
 62
     7
100
AcDbLine
 10
176.4223602341945
 20
-99.46583182882193
 30
0.0
 11
176.4223602341945
 21
-99.14020627935087
 31
0.0
  0
LINE
  5
54B
330
31
100
AcDbEntity
  8
0
  6
Continuous
 62
     7
100
AcDbLine
 10
176.4773602336445
 20
-98.06751906644141
 30
0.0
 11
176.4773602336445
 21
-98.28751906424141
 31
0.0
  0
LINE
  5
54C
330
31
100
AcDbEntity
  8
0
  6
Continuous
 62
     7
100
AcDbLine
 10
176.5338602330795
 20
-97.70851907003141
 30
0.0
 11
176.5338602330795
 21
-97.61451907097141
 31
0.0
  0
LINE
  5
54D
330
31
100
AcDbEntity
  8
0
  6
Continuous
 62
     7
100
AcDbLine
 10
176.5483602329345
 20
-103.1430856575039
 30
0.0
 11
176.5483602329345
 21
-102.9629523756689
 31
0.0
  0
LINE
  5
54E
330
31
100
AcDbEntity
  8
0
  6
Continuous
 62
     7
100
AcDbLine
 10
176.5483602329345
 20
-99.3930856950039
 30
0.0
 11
176.5483602329345
 21
-99.21295241316887
 31
0.0
  0
LINE
  5
54F
330
31
100
AcDbEntity
  8
0
  6
Continuous
 62
     7
100
AcDbLine
 10
176.6223602321945
 20
-104.1840190052764
 30
0.0
 11
176.6223602321945
 21
-98.42801906283639
 31
0.0
  0
LINE
  5
550
330
31
100
AcDbEntity
  8
0
  6
Continuous
 62
     7
100
AcDbLine
 10
176.6573602318445
 20
-104.1325190057914
 30
0.0
 11
176.6573602318445
 21
-97.9475190676414
 31
0.0
  0
LINE
  5
551
330
31
100
AcDbEntity
  8
0
  6
Continuous
 62
     9
100
AcDbLine
 10
177.3723602246945
 20
-104.1840190052764
 30
0.0
 11
177.3723602246945
 21
-104.3030190040864
 31
0.0
  0
LINE
  5
552
330
31
100
AcDbEntity
  8
0
  6
Continuous
 62
     7
100
AcDbLine
 10
177.4973602234445
 20
-104.1840190052764
 30
0.0
 11
177.4973602234445
 21
-104.3030190040864
 31
0.0
  0
LINE
  5
553
330
31
100
AcDbEntity
  8
0
  6
Continuous
 62
     7
100
AcDbLine
 10
177.5013602234045
 20
-104.2885190042314
 30
0.0
 11
177.5013602234045
 21
-104.1925190051914
 31
0.0
  0
LINE
  5
554
330
31
100
AcDbEntity
  8
0
  6
Continuous
 62
     7
100
AcDbLine
 10
177.5023602233945
 20
-104.3030190040864
 30
0.0
 11
177.5023602233945
 21
-104.1990190051264
 31
0.0
  0
LINE
  5
558
330
31
100
AcDbEntity
  8
0
  6
Continuous
 62
     7
100
AcDbLine
 10
177.9063602193545
 20
-97.70851907003141
 30
0.0
 11
177.9063602193545
 21
-97.88751906824137
 31
0.0
  0
LINE
  5
559
330
31
100
AcDbEntity
  8
0
  6
Continuous
 62
     9
100
AcDbLine
 10
177.9410649808257
 20
-97.70851907003141
 30
0.0
 11
177.9410649808257
 21
-97.88751906824137
 31
0.0
  0
LINE
  5
55A
330
31
100
AcDbEntity
  8
0
  6
Continuous
 62
     7
100
AcDbLine
 10
178.1263602171545
 20
-97.70851907003141
 30
0.0
 11
178.1263602171545
 21
-97.88751906824137
 31
0.0
  0
LINE
  5
55F
330
31
100
AcDbEntity
  8
0
  6
Continuous
 62
     7
100
AcDbLine
 10
170.8523602898945
 20
-103.2331522984214
 30
0.0
 11
170.6963602914545
 21
-103.1430856575039
 31
0.0
  0
LINE
  5
560
330
31
100
AcDbEntity
  8
0
  6
Continuous
 62
     7
100
AcDbLine
 10
171.0083602883345
 20
-102.9629523756689
 30
0.0
 11
170.8523602898945
 21
-102.8728857347513
 31
0.0
  0
LINE
  5
561
330
31
100
AcDbEntity
  8
0
  6
Continuous
 62
     7
100
AcDbLine
 10
177.4713602237045
 20
-104.3185190039314
 30
0.0
 11
176.5613602328045
 21
-104.3185190039314
 31
0.0
  0
LINE
  5
562
330
31
100
AcDbEntity
  8
0
  6
Continuous
 62
     7
100
AcDbLine
 10
170.6913602915045
 20
-104.3185190039314
 30
0.0
 11
169.7813603006045
 21
-104.3185190039314
 31
0.0
  0
LINE
  5
563
330
31
100
AcDbEntity
  8
0
  6
Continuous
 62
     7
100
AcDbLine
 10
169.7473603009445
 20
-104.3030190040864
 30
0.0
 11
177.4973602234445
 21
-104.3030190040864
 31
0.0
  0
LINE
  5
564
330
31
100
AcDbEntity
  8
0
  6
Continuous
 62
     7
100
AcDbLine
 10
177.4974592198072
 20
-104.3030190040864
 30
0.0
 11
177.5023602233945
 21
-104.3030190040864
 31
0.0
  0
LINE
  5
565
330
31
100
AcDbEntity
  8
0
  6
Continuous
 62
     7
100
AcDbLine
 10
169.7473603009445
 20
-104.1840190052764
 30
0.0
 11
177.4973602234445
 21
-104.1840190052764
 31
0.0
  0
LINE
  5
566
330
31
100
AcDbEntity
  8
0
  6
Continuous
 62
     7
100
AcDbLine
 10
177.4713602237045
 20
-104.1625190054914
 30
0.0
 11
176.6873602315445
 21
-104.1625190054914
 31
0.0
  0
LINE
  5
567
330
31
100
AcDbEntity
  8
0
  6
Continuous
 62
     7
100
AcDbLine
 10
169.7813603006045
 20
-104.1625190054914
 30
0.0
 11
170.5653602927645
 21
-104.1625190054914
 31
0.0
  0
LINE
  5
568
330
31
100
AcDbEntity
  8
0
  6
Continuous
 62
     9
100
AcDbLine
 10
176.6223602321945
 20
-104.1540190055764
 30
0.0
 11
170.6223602921945
 21
-104.1540190055764
 31
0.0
  0
LINE
  5
569
330
31
100
AcDbEntity
  8
0
  6
Continuous
 62
     7
100
AcDbLine
 10
176.3923602344946
 20
-103.2331522984214
 30
0.0
 11
176.2363602360545
 21
-103.1430856575039
 31
0.0
  0
LINE
  5
56A
330
31
100
AcDbEntity
  8
0
  6
Continuous
 62
     7
100
AcDbLine
 10
176.5483602329345
 20
-102.9629523756689
 30
0.0
 11
176.3923602344946
 21
-102.8728857347513
 31
0.0
  0
LINE
  5
56B
330
31
100
AcDbEntity
  8
0
  6
Continuous
 62
     7
100
AcDbLine
 10
170.8523602898945
 20
-99.48315233592145
 30
0.0
 11
170.6963602914545
 21
-99.3930856950039
 31
0.0
  0
LINE
  5
56C
330
31
100
AcDbEntity
  8
0
  6
Continuous
 62
     7
100
AcDbLine
 10
171.0083602883345
 20
-99.21295241316887
 30
0.0
 11
170.8523602898945
 21
-99.12288577225135
 31
0.0
  0
LINE
  5
56D
330
31
100
AcDbEntity
  8
0
  6
Continuous
 62
     7
100
AcDbLine
 10
170.8535889662459
 20
-97.58753955305937
 30
0.0
 11
170.8913602895045
 21
-97.61451907097141
 31
0.0
  0
LINE
  5
56E
330
31
100
AcDbEntity
  8
0
  6
Continuous
 62
     7
100
AcDbLine
 10
171.4213602842045
 20
-97.36451907347142
 30
0.0
 11
171.4735653655006
 21
-97.40180841673486
 31
0.0
  0
LINE
  5
56F
330
31
100
AcDbEntity
  8
0
  6
Continuous
 62
     7
100
AcDbLine
 10
176.4073602343445
 20
-102.6280190208364
 30
0.0
 11
176.3473602349445
 21
-102.6280190208364
 31
0.0
  0
LINE
  5
570
330
31
100
AcDbEntity
  8
0
  6
Continuous
 62
     7
100
AcDbLine
 10
172.4673602737445
 20
-102.6280190208364
 30
0.0
 11
172.4073602743445
 21
-102.6280190208364
 31
0.0
  0
LINE
  5
571
330
31
100
AcDbEntity
  8
0
  6
Continuous
 62
     7
100
AcDbLine
 10
172.4823602735945
 20
-102.6280190208364
 30
0.0
 11
176.3323602350945
 21
-102.6280190208364
 31
0.0
  0
LINE
  5
572
330
31
100
AcDbEntity
  8
0
  6
Continuous
 62
     7
100
AcDbLine
 10
172.5323602730944
 20
-102.6110190210063
 30
0.0
 11
176.2823602355945
 21
-102.6110190210063
 31
0.0
  0
LINE
  5
573
330
31
100
AcDbEntity
  8
0
  6
Continuous
 62
     7
100
AcDbLine
 10
176.1880900656281
 20
-101.5750190313664
 30
0.0
 11
176.1043602373745
 21
-101.5750190313664
 31
0.0
  0
LINE
  5
574
330
31
100
AcDbEntity
  8
0
  6
Continuous
 62
     7
100
AcDbLine
 10
176.0503602379145
 20
-101.5750190313664
 30
0.0
 11
175.9666304114791
 21
-101.5750190313664
 31
0.0
  0
LINE
  5
575
330
31
100
AcDbEntity
  8
0
  6
Continuous
 62
     7
100
AcDbLine
 10
172.8480900990281
 20
-101.5750190313664
 30
0.0
 11
172.7643602707745
 21
-101.5750190313664
 31
0.0
  0
LINE
  5
576
330
31
100
AcDbEntity
  8
0
  6
Continuous
 62
     7
100
AcDbLine
 10
172.7103602713145
 20
-101.5750190313664
 30
0.0
 11
172.6266304448791
 21
-101.5750190313664
 31
0.0
  0
LINE
  5
577
330
31
100
AcDbEntity
  8
0
  6
Continuous
 62
     9
100
AcDbLine
 10
176.1780276911833
 20
-101.5500190316164
 30
0.0
 11
176.0793602376245
 21
-101.5500190316164
 31
0.0
  0
LINE
  5
578
330
31
100
AcDbEntity
  8
0
  6
Continuous
 62
     9
100
AcDbLine
 10
176.0503602379145
 20
-101.5500190316164
 30
0.0
 11
175.9766926913785
 21
-101.5500190316164
 31
0.0
  0
LINE
  5
579
330
31
100
AcDbEntity
  8
0
  6
Continuous
 62
     9
100
AcDbLine
 10
172.7103602713145
 20
-101.5500190316164
 30
0.0
 11
172.6366927247785
 21
-101.5500190316164
 31
0.0
  0
LINE
  5
57A
330
31
100
AcDbEntity
  8
0
  6
Continuous
 62
     9
100
AcDbLine
 10
172.8380277245833
 20
-101.5500190316164
 30
0.0
 11
172.7393602710245
 21
-101.5500190316164
 31
0.0
  0
LINE
  5
57B
330
31
100
AcDbEntity
  8
0
  6
Continuous
 62
     9
100
AcDbLine
 10
172.6366911284149
 20
-101.5460190316564
 30
0.0
 11
172.7353602710645
 21
-101.5460190316564
 31
0.0
  0
LINE
  5
57C
330
31
100
AcDbEntity
  8
0
  6
Continuous
 62
     9
100
AcDbLine
 10
172.7393602710245
 20
-101.5460190316564
 30
0.0
 11
172.8380293536742
 21
-101.5460190316564
 31
0.0
  0
LINE
  5
57D
330
31
100
AcDbEntity
  8
0
  6
Continuous
 62
     9
100
AcDbLine
 10
175.9766910950148
 20
-101.5460190316564
 30
0.0
 11
176.0753602376644
 21
-101.5460190316564
 31
0.0
  0
LINE
  5
57E
330
31
100
AcDbEntity
  8
0
  6
Continuous
 62
     9
100
AcDbLine
 10
176.0793602376245
 20
-101.5460190316564
 30
0.0
 11
176.1780293202742
 21
-101.5460190316564
 31
0.0
  0
LINE
  5
57F
330
31
100
AcDbEntity
  8
0
  6
Continuous
 62
     7
100
AcDbLine
 10
172.7643602707745
 20
-101.5210190319064
 30
0.0
 11
172.8480900990281
 21
-101.5210190319064
 31
0.0
  0
LINE
  5
580
330
31
100
AcDbEntity
  8
0
  6
Continuous
 62
     7
100
AcDbLine
 10
172.6266304448791
 20
-101.5210190319064
 30
0.0
 11
172.7103602713145
 21
-101.5210190319064
 31
0.0
  0
LINE
  5
581
330
31
100
AcDbEntity
  8
0
  6
Continuous
 62
     7
100
AcDbLine
 10
175.9666304114791
 20
-101.5210190319064
 30
0.0
 11
176.0503602379145
 21
-101.5210190319064
 31
0.0
  0
LINE
  5
582
330
31
100
AcDbEntity
  8
0
  6
Continuous
 62
     7
100
AcDbLine
 10
176.1043602373745
 20
-101.5210190319064
 30
0.0
 11
176.1880900656281
 21
-101.5210190319064
 31
0.0
  0
LINE
  5
583
330
31
100
AcDbEntity
  8
0
  6
Continuous
 62
     9
100
AcDbLine
 10
176.4053569270918
 20
-100.5930190411864
 30
0.0
 11
176.4073602343445
 21
-100.5930190411864
 31
0.0
  0
LINE
  5
584
330
31
100
AcDbEntity
  8
0
  6
Continuous
 62
     7
100
AcDbLine
 10
176.2823602355945
 20
-100.4860190422564
 30
0.0
 11
172.5323602730944
 21
-100.4860190422564
 31
0.0
  0
LINE
  5
585
330
31
100
AcDbEntity
  8
0
  6
Continuous
 62
     7
100
AcDbLine
 10
172.4073602743445
 20
-100.4680190424364
 30
0.0
 11
172.4673602737445
 21
-100.4680190424364
 31
0.0
  0
LINE
  5
586
330
31
100
AcDbEntity
  8
0
  6
Continuous
 62
     7
100
AcDbLine
 10
172.4823602735945
 20
-100.4680190424364
 30
0.0
 11
176.3323602350945
 21
-100.4680190424364
 31
0.0
  0
LINE
  5
587
330
31
100
AcDbEntity
  8
0
  6
Continuous
 62
     7
100
AcDbLine
 10
176.3473602349445
 20
-100.4680190424364
 30
0.0
 11
176.4073602343445
 21
-100.4680190424364
 31
0.0
  0
LINE
  5
588
330
31
100
AcDbEntity
  8
0
  6
Continuous
 62
     7
100
AcDbLine
 10
176.3923602344946
 20
-99.48315233592145
 30
0.0
 11
176.2363602360545
 21
-99.3930856950039
 31
0.0
  0
LINE
  5
589
330
31
100
AcDbEntity
  8
0
  6
Continuous
 62
     7
100
AcDbLine
 10
176.5483602329345
 20
-99.21295241316887
 30
0.0
 11
176.3923602344946
 21
-99.12288577225135
 31
0.0
  0
LINE
  5
58A
330
31
100
AcDbEntity
  8
0
  6
Continuous
 62
     7
100
AcDbLine
 10
175.7935889168459
 20
-97.58753955305937
 30
0.0
 11
175.8313602401045
 21
-97.61451907097141
 31
0.0
  0
LINE
  5
58B
330
31
100
AcDbEntity
  8
0
  6
Continuous
 62
     7
100
AcDbLine
 10
176.3613602348045
 20
-97.36451907347142
 30
0.0
 11
176.4135653161007
 21
-97.40180841673486
 31
0.0
  0
LINE
  5
58C
330
31
100
AcDbEntity
  8
0
  6
Continuous
 62
     7
100
AcDbLine
 10
176.4973602334445
 20
-98.3030190640864
 30
0.0
 11
170.7473602909445
 21
-98.3030190640864
 31
0.0
  0
LINE
  5
58D
330
31
100
AcDbEntity
  8
0
  6
Continuous
 62
     7
100
AcDbLine
 10
170.7753602906645
 20
-98.28751906424141
 30
0.0
 11
171.5353602830645
 21
-98.28751906424141
 31
0.0
  0
LINE
  5
58E
330
31
100
AcDbEntity
  8
0
  6
Continuous
 62
     7
100
AcDbLine
 10
171.7153602812645
 20
-98.28751906424141
 30
0.0
 11
175.5373602430445
 21
-98.28751906424141
 31
0.0
  0
LINE
  5
58F
330
31
100
AcDbEntity
  8
0
  6
Continuous
 62
     7
100
AcDbLine
 10
175.7173602412445
 20
-98.28751906424141
 30
0.0
 11
176.4773602336445
 21
-98.28751906424141
 31
0.0
  0
LINE
  5
590
330
31
100
AcDbEntity
  8
0
  6
Continuous
 62
     9
100
AcDbLine
 10
176.4234663160016
 20
-98.10202730427814
 30
0.0
 11
175.7692541589074
 21
-98.10202730427814
 31
0.0
  0
LINE
  5
591
330
31
100
AcDbEntity
  8
0
  6
Continuous
 62
     9
100
AcDbLine
 10
171.4834663654016
 20
-98.10202730427814
 30
0.0
 11
170.8292542083074
 21
-98.10202730427814
 31
0.0
  0
LINE
  5
592
330
31
100
AcDbEntity
  8
0
  6
Continuous
 62
     7
100
AcDbLine
 10
171.5353602830645
 20
-98.06751906644141
 30
0.0
 11
170.7753602906645
 21
-98.06751906644141
 31
0.0
  0
LINE
  5
593
330
31
100
AcDbEntity
  8
0
  6
Continuous
 62
     7
100
AcDbLine
 10
175.7173602412445
 20
-98.06751906644141
 30
0.0
 11
176.4773602336445
 21
-98.06751906644141
 31
0.0
  0
LINE
  5
594
330
31
100
AcDbEntity
  8
0
  6
Continuous
 62
     7
100
AcDbLine
 10
169.1263603071545
 20
-97.88751906824137
 30
0.0
 11
178.1263602171545
 21
-97.88751906824137
 31
0.0
  0
LINE
  5
595
330
31
100
AcDbEntity
  8
0
  6
Continuous
 62
     7
100
AcDbLine
 10
169.1263603071545
 20
-97.70851907003141
 30
0.0
 11
178.1263602171545
 21
-97.70851907003141
 31
0.0
  0
LINE
  5
596
330
31
100
AcDbEntity
  8
0
  6
Continuous
 62
     7
100
AcDbLine
 10
170.7188602912295
 20
-97.61451907097141
 30
0.0
 11
171.5938602824795
 21
-97.61451907097141
 31
0.0
  0
LINE
  5
597
330
31
100
AcDbEntity
  8
0
  6
Continuous
 62
     7
100
AcDbLine
 10
175.6588602418295
 20
-97.61451907097141
 30
0.0
 11
176.5338602330795
 21
-97.61451907097141
 31
0.0
  0
LINE
  5
598
330
31
100
AcDbEntity
  8
0
  6
Continuous
 62
     7
100
AcDbLine
 10
170.8913602895045
 20
-97.36451907347142
 30
0.0
 11
171.4213578132955
 21
-97.36451907347142
 31
0.0
  0
LINE
  5
599
330
31
100
AcDbEntity
  8
0
  6
Continuous
 62
     7
100
AcDbLine
 10
175.8313602401045
 20
-97.36451907347142
 30
0.0
 11
176.3613577638954
 21
-97.36451907347142
 31
0.0
  0
LINE
  5
59A
330
31
100
AcDbEntity
  8
0
  6
Continuous
 62
     7
100
AcDbLine
 10
171.0003602884145
 20
-97.31751907394141
 30
0.0
 11
171.3123602852945
 21
-97.31751907394141
 31
0.0
  0
LINE
  5
59B
330
31
100
AcDbEntity
  8
0
  6
Continuous
 62
     7
100
AcDbLine
 10
175.9403602390145
 20
-97.31751907394141
 30
0.0
 11
176.2523602358945
 21
-97.31751907394141
 31
0.0
  0
ARC
  5
7E8
330
31
100
AcDbEntity
  8
0
  6
Continuous
 62
     7
100
AcDbCircle
 10
189.0407018824569
 20
-101.3662341589088
 30
0.0
 40
0.00499999995
100
AcDbArc
 50
0.0
 51
129.0087610988003
  0
ARC
  5
7E9
330
31
100
AcDbEntity
  8
0
  6
Continuous
 62
     7
100
AcDbCircle
 10
188.9767018830969
 20
-101.5500190316164
 30
0.0
 40
0.02499999975
100
AcDbArc
 50
270.0000000000006
 51
289.1617564265007
  0
ARC
  5
7EA
330
31
100
AcDbEntity
  8
0
  6
Continuous
 62
     7
100
AcDbCircle
 10
189.0407018824569
 20
-101.729803904364
 30
0.0
 40
0.00499999995
100
AcDbArc
 50
230.9912389015005
 51
0.0000000000007994
  0
ARC
  5
7EB
330
31
100
AcDbEntity
  8
0
  6
Continuous
 62
     7
100
AcDbCircle
 10
188.9767018830969
 20
-101.6486857742661
 30
0.0
 40
0.024999990659091
100
AcDbArc
 50
285.1312221887006
 51
288.4876169478007
  0
ARC
  5
7EC
330
31
100
AcDbEntity
  8
0
  6
Continuous
 62
     7
100
AcDbCircle
 10
189.1974322463441
 20
-101.5597195369739
 30
0.0
 40
0.25399999746
100
AcDbArc
 50
129.0087610972002
 51
147.4929371826003
  0
ARC
  5
7ED
330
31
100
AcDbEntity
  8
0
  6
Continuous
 62
     7
100
AcDbCircle
 10
189.1974322463441
 20
-101.5363185244807
 30
0.0
 40
0.25399999746
100
AcDbArc
 50
212.5070628174004
 51
230.9912389028005
  0
ARC
  5
7EE
330
31
100
AcDbEntity
  8
0
  6
Continuous
 62
     7
100
AcDbCircle
 10
188.9767018830969
 20
-101.4473522871885
 30
0.0
 40
0.024999990659091
100
AcDbArc
 50
71.51238305220015
 51
74.86877781130019
  0
ARC
  5
7EF
330
31
100
AcDbEntity
  8
0
  6
Continuous
 62
     7
100
AcDbCircle
 10
188.9767018830969
 20
-101.5460190316564
 30
0.0
 40
0.02499999975
100
AcDbArc
 50
70.83823959720016
 51
90.00000000000019
  0
ARC
  5
7F4
330
31
100
AcDbEntity
  8
0
  6
Continuous
 62
     7
100
AcDbCircle
 10
189.2907018799569
 20
-100.5930190411864
 30
0.0
 40
0.12499999875
100
AcDbArc
 50
90.00000000000019
 51
180.0000000000004
  0
ARC
  5
7F5
330
31
100
AcDbEntity
  8
0
  6
Continuous
 62
     7
100
AcDbCircle
 10
189.2907018799569
 20
-102.5030190220864
 30
0.0
 40
0.12499999875
100
AcDbArc
 50
180.0000000000004
 51
270.0000000000006
  0
ARC
  5
7F6
330
31
100
AcDbEntity
  8
0
  6
Continuous
 62
     7
100
AcDbCircle
 10
191.0757018621069
 20
-102.5380190217364
 30
0.0
 40
0.0899999991
100
AcDbArc
 50
270.0000000000006
 51
0.0000000000007994
  0
ARC
  5
7F7
330
31
100
AcDbEntity
  8
0
  6
Continuous
 62
     7
100
AcDbCircle
 10
191.0757018621069
 20
-100.5580190415364
 30
0.0
 40
0.0899999991
100
AcDbArc
 50
0.0
 51
90.00000000000019
  0
ARC
  5
7F8
330
31
100
AcDbEntity
  8
0
  6
Continuous
 62
     7
100
AcDbCircle
 10
191.0757018621069
 20
-100.5580190415364
 30
0.0
 40
0.0299999997
100
AcDbArc
 50
0.0
 51
90.00000000000019
  0
ARC
  5
7F9
330
31
100
AcDbEntity
  8
0
  6
Continuous
 62
     7
100
AcDbCircle
 10
191.0757018621069
 20
-102.5380190217364
 30
0.0
 40
0.0299999997
100
AcDbArc
 50
270.0000000000006
 51
0.0000000000007994
  0
ARC
  5
7FA
330
31
100
AcDbEntity
  8
0
  6
Continuous
 62
     7
100
AcDbCircle
 10
191.1507018613568
 20
-104.1690190054264
 30
0.0
 40
0.13399999866
100
AcDbArc
 50
325.0306420162007
 51
350.0018771382007
  0
ARC
  5
7FB
330
31
100
AcDbEntity
  8
0
  6
Continuous
 62
     7
100
AcDbCircle
 10
191.1357018615069
 20
-104.1540190055764
 30
0.0
 40
0.0299999997
100
AcDbArc
 50
270.0000000000006
 51
0.0000000000007994
  0
ARC
  5
7FC
330
31
100
AcDbEntity
  8
0
  6
Continuous
 62
     7
100
AcDbCircle
 10
292.6687008861768
 20
-104.1690190054264
 30
0.0
 40
0.13399999866
100
AcDbArc
 50
189.9981228618004
 51
214.9693579838005
  0
ARC
  5
7FD
330
31
100
AcDbEntity
  8
0
  6
Continuous
 62
     7
100
AcDbCircle
 10
292.6687008861768
 20
-104.1690190054264
 30
0.0
 40
0.0299999997
100
AcDbArc
 50
180.0000000000004
 51
270.0000000000006
  0
CIRCLE
  5
85E
330
31
100
AcDbEntity
  8
0
  6
Continuous
 62
     7
100
AcDbCircle
 10
172.7373602710445
 20
-101.5480190316364
 30
0.0
 40
0.1867848726776058
  0
CIRCLE
  5
85F
330
31
100
AcDbEntity
  8
0
  6
Continuous
 62
     9
100
AcDbCircle
 10
172.7373602710445
 20
-101.5480190316364
 30
0.0
 40
0.1856701217796624
  0
CIRCLE
  5
860
330
31
100
AcDbEntity
  8
0
  6
Continuous
 62
     7
100
AcDbCircle
 10
176.0773602376445
 20
-101.5480190316364
 30
0.0
 40
0.1867848726776058
  0
CIRCLE
  5
861
330
31
100
AcDbEntity
  8
0
  6
Continuous
 62
     9
100
AcDbCircle
 10
176.0773602376445
 20
-101.5480190316364
 30
0.0
 40
0.1856701217796624
  0
CIRCLE
  5
862
330
31
100
AcDbEntity
  8
0
  6
Continuous
 62
     7
100
AcDbCircle
 10
176.3923602344946
 20
-103.0530190165864
 30
0.0
 40
0.20699999793
  0
CIRCLE
  5
863
330
31
100
AcDbEntity
  8
0
  6
Continuous
 62
     7
100
AcDbCircle
 10
170.8523602898945
 20
-99.3030190540864
 30
0.0
 40
0.20699999793
  0
CIRCLE
  5
864
330
31
100
AcDbEntity
  8
0
  6
Continuous
 62
     7
100
AcDbCircle
 10
170.8523602898945
 20
-103.0530190165864
 30
0.0
 40
0.20699999793
  0
CIRCLE
  5
865
330
31
100
AcDbEntity
  8
0
  6
Continuous
 62
     7
100
AcDbCircle
 10
176.3923602344946
 20
-99.3030190540864
 30
0.0
 40
0.20699999793
  0
ARC
  5
866
330
31
100
AcDbEntity
  8
0
  6
Continuous
 62
     7
100
AcDbCircle
 10
171.1563602868545
 20
-97.7572917968164
 30
0.0
 40
0.475227267975
100
AcDbArc
 50
226.5031224380005
 51
313.4968775620007
  0
ARC
  5
867
330
31
100
AcDbEntity
  8
0
  6
Continuous
 62
     7
100
AcDbCircle
 10
171.4697000655393
 20
-98.0875190662414
 30
0.0
 40
0.0199999998
100
AcDbArc
 50
313.4968758626007
 51
90.00000000000019
  0
ARC
  5
868
330
31
100
AcDbEntity
  8
0
  6
Continuous
 62
     7
100
AcDbCircle
 10
170.8430205099879
 20
-98.0875190662414
 30
0.0
 40
0.0199999998
100
AcDbArc
 50
90.00000000000019
 51
226.5031241374005
  0
ARC
  5
869
330
31
100
AcDbEntity
  8
0
  6
Continuous
 62
     7
100
AcDbCircle
 10
176.0963602374545
 20
-97.7572917968164
 30
0.0
 40
0.475227267975
100
AcDbArc
 50
226.5031224380005
 51
313.4968775620007
  0
ARC
  5
86A
330
31
100
AcDbEntity
  8
0
  6
Continuous
 62
     7
100
AcDbCircle
 10
176.4097000161393
 20
-98.0875190662414
 30
0.0
 40
0.0199999998
100
AcDbArc
 50
313.4968758626007
 51
90.00000000000019
  0
ARC
  5
86B
330
31
100
AcDbEntity
  8
0
  6
Continuous
 62
     7
100
AcDbCircle
 10
175.7830204605879
 20
-98.0875190662414
 30
0.0
 40
0.0199999998
100
AcDbArc
 50
90.00000000000019
 51
226.5031241374005
  0
ARC
  5
87C
330
31
100
AcDbEntity
  8
0
  6
Continuous
 62
     7
100
AcDbCircle
 10
176.2823602355945
 20
-100.6110190410064
 30
0.0
 40
0.12499999875
100
AcDbArc
 50
0.0
 51
90.00000000000019
  0
ARC
  5
87D
330
31
100
AcDbEntity
  8
0
  6
Continuous
 62
     7
100
AcDbCircle
 10
176.2823602355945
 20
-102.4860190222564
 30
0.0
 40
0.12499999875
100
AcDbArc
 50
270.0000000000006
 51
0.0000000000007994
  0
ARC
  5
87E
330
31
100
AcDbEntity
  8
0
  6
Continuous
 62
     7
100
AcDbCircle
 10
172.5323602730944
 20
-102.4860190222564
 30
0.0
 40
0.12499999875
100
AcDbArc
 50
180.0000000000004
 51
270.0000000000006
  0
ARC
  5
87F
330
31
100
AcDbEntity
  8
0
  6
Continuous
 62
     7
100
AcDbCircle
 10
172.5323602730944
 20
-100.6110190410064
 30
0.0
 40
0.12499999875
100
AcDbArc
 50
90.00000000000019
 51
180.0000000000004
  0
ARC
  5
880
330
31
100
AcDbEntity
  8
0
  6
Continuous
 62
     7
100
AcDbCircle
 10
173.8073602603445
 20
-103.5685190114314
 30
0.0
 40
0.095499999045
100
AcDbArc
 50
91.50578746170021
 51
180.0000000000004
  0
ARC
  5
881
330
31
100
AcDbEntity
  8
0
  6
Continuous
 62
     7
100
AcDbCircle
 10
173.8073602603445
 20
-103.6275190108413
 30
0.0
 40
0.095499999045
100
AcDbArc
 50
180.0000000000004
 51
268.4942125383007
  0
ARC
  5
882
330
31
100
AcDbEntity
  8
0
  6
Continuous
 62
     7
100
AcDbCircle
 10
173.4473602639445
 20
-103.5685190114314
 30
0.0
 40
0.095499999045
100
AcDbArc
 50
91.50578746170021
 51
180.0000000000004
  0
ARC
  5
883
330
31
100
AcDbEntity
  8
0
  6
Continuous
 62
     7
100
AcDbCircle
 10
173.4473602639445
 20
-103.6275190108413
 30
0.0
 40
0.095499999045
100
AcDbArc
 50
180.0000000000004
 51
268.4942125383007
  0
ARC
  5
884
330
31
100
AcDbEntity
  8
0
  6
Continuous
 62
     7
100
AcDbCircle
 10
176.4973602334445
 20
-98.42801906283639
 30
0.0
 40
0.12499999875
100
AcDbArc
 50
0.0
 51
90.00000000000019
  0
ARC
  5
885
330
31
100
AcDbEntity
  8
0
  6
Continuous
 62
     7
100
AcDbCircle
 10
170.7473602909445
 20
-98.42801906283639
 30
0.0
 40
0.12499999875
100
AcDbArc
 50
90.00000000000019
 51
180.0000000000004
  0
CIRCLE
  5
886
330
31
100
AcDbEntity
  8
0
  6
Continuous
 62
     7
100
AcDbCircle
 10
174.6223602521945
 20
-99.80301904908641
 30
0.0
 40
0.4399999956000002
  0
CIRCLE
  5
887
330
31
100
AcDbEntity
  8
0
  6
Continuous
 62
     7
100
AcDbCircle
 10
172.6223602721945
 20
-99.80301904908641
 30
0.0
 40
0.4399999956000002
  0
ARC
  5
888
330
31
100
AcDbEntity
  8
0
  6
Continuous
 62
     7
100
AcDbCircle
 10
173.4423602639945
 20
-103.6275190108413
 30
0.0
 40
0.095499999045
100
AcDbArc
 50
180.0000000000004
 51
0.0000000000007994
  0
ARC
  5
889
330
31
100
AcDbEntity
  8
0
  6
Continuous
 62
     7
100
AcDbCircle
 10
173.4423602639945
 20
-103.5685190114314
 30
0.0
 40
0.095499999045
100
AcDbArc
 50
0.0
 51
180.0000000000004
  0
ARC
  5
88A
330
31
100
AcDbEntity
  8
0
  6
Continuous
 62
     7
100
AcDbCircle
 10
173.8023602603945
 20
-103.6275190108413
 30
0.0
 40
0.095499999045
100
AcDbArc
 50
180.0000000000004
 51
0.0000000000007994
  0
ARC
  5
88B
330
31
100
AcDbEntity
  8
0
  6
Continuous
 62
     7
100
AcDbCircle
 10
173.8023602603945
 20
-103.5685190114314
 30
0.0
 40
0.095499999045
100
AcDbArc
 50
0.0
 51
180.0000000000004
  0
ARC
  5
88C
330
31
100
AcDbEntity
  8
0
  6
Continuous
 62
     7
100
AcDbCircle
 10
177.4713602237045
 20
-104.2885190042314
 30
0.0
 40
0.0299999997
100
AcDbArc
 50
270.0000000000006
 51
0.0000000000007994
  0
ARC
  5
88D
330
31
100
AcDbEntity
  8
0
  6
Continuous
 62
     7
100
AcDbCircle
 10
177.4713602237045
 20
-104.1925190051914
 30
0.0
 40
0.0299999997
100
AcDbArc
 50
0.0
 51
90.00000000000019
  0
ARC
  5
88E
330
31
100
AcDbEntity
  8
0
  6
Continuous
 62
     7
100
AcDbCircle
 10
169.7813603006045
 20
-104.2885190042314
 30
0.0
 40
0.0299999997
100
AcDbArc
 50
209.0597207799005
 51
270.0000000000006
  0
ARC
  5
88F
330
31
100
AcDbEntity
  8
0
  6
Continuous
 62
     7
100
AcDbCircle
 10
169.7813603006045
 20
-104.1925190051914
 30
0.0
 40
0.0299999997
100
AcDbArc
 50
90.00000000000019
 51
163.4534951430003
  0
ARC
  5
890
330
31
100
AcDbEntity
  8
0
  6
Continuous
 62
     7
100
AcDbCircle
 10
170.5653602927645
 20
-104.1325190057914
 30
0.0
 40
0.0299999997
100
AcDbArc
 50
270.0000000000006
 51
0.0000000000007994
  0
ARC
  5
891
330
31
100
AcDbEntity
  8
0
  6
Continuous
 62
     7
100
AcDbCircle
 10
176.6873602315445
 20
-104.1325190057914
 30
0.0
 40
0.0299999997
100
AcDbArc
 50
180.0000000000004
 51
270.0000000000006
  0
ARC
  5
892
330
31
100
AcDbEntity
  8
0
  6
Continuous
 62
     7
100
AcDbCircle
 10
170.6913602915045
 20
-104.2585190045314
 30
0.0
 40
0.0599999994
100
AcDbArc
 50
270.0000000000006
 51
311.9767217677007
  0
ARC
  5
893
330
31
100
AcDbEntity
  8
0
  6
Continuous
 62
     7
100
AcDbCircle
 10
176.5613602328045
 20
-104.2585190045314
 30
0.0
 40
0.0599999994
100
AcDbArc
 50
228.0232782323005
 51
270.0000000000006
  0
ARC
  5
894
330
31
100
AcDbEntity
  8
0
  6
Continuous
 62
     7
100
AcDbCircle
 10
171.6553602818645
 20
-97.9475190676414
 30
0.0
 40
0.0599999994
100
AcDbArc
 50
0.0
 51
90.00000000000019
  0
ARC
  5
895
330
31
100
AcDbEntity
  8
0
  6
Continuous
 62
     7
100
AcDbCircle
 10
170.6553602918645
 20
-97.9475190676414
 30
0.0
 40
0.0599999994
100
AcDbArc
 50
90.00000000000019
 51
180.0000000000004
  0
ARC
  5
896
330
31
100
AcDbEntity
  8
0
  6
Continuous
 62
     7
100
AcDbCircle
 10
175.5973602424445
 20
-97.9475190676414
 30
0.0
 40
0.0599999994
100
AcDbArc
 50
90.00000000000019
 51
180.0000000000004
  0
ARC
  5
897
330
31
100
AcDbEntity
  8
0
  6
Continuous
 62
     7
100
AcDbCircle
 10
176.5973602324445
 20
-97.9475190676414
 30
0.0
 40
0.0599999994
100
AcDbArc
 50
0.0
 51
90.00000000000019
  0
SPLINE
  5
8C3
330
31
100
AcDbEntity
  8
0
  6
Continuous
 62
     7
100
AcDbSpline
210
0.0
220
0.0
230
1.0
 70
     8
 71
     3
 72
    11
 73
     7
 74
     5
 42
0.0000000001
 43
0.0000000001
 44
0.0000000001
 40
0.0
 40
0.0
 40
0.0
 40
0.0
 40
0.0141686802052966
 40
0.0291248791487005
 40
0.0452428381323999
 40
0.0630433738160238
 40
0.0630433738160238
 40
0.0630433738160238
 40
0.0630433738160238
 10
175.8500974835535
 20
-97.36451907347142
 30
0.0
 10
175.8455087637842
 20
-97.3656651511326
 30
0.0
 10
175.8360762755926
 20
-97.36802100735161
 30
0.0
 10
175.8221717142391
 20
-97.37399351600222
 30
0.0
 10
175.8078139876115
 20
-97.38173734131374
 30
0.0
 10
175.7984848686463
 20
-97.38813898582485
 30
0.0
 10
175.7935889168459
 20
-97.39149858956524
 30
0.0
 11
175.8500974835535
 21
-97.36451907347142
 31
0.0
 11
175.8364452745991
 21
-97.36830967888806
 31
0.0
 11
175.8226264129191
 21
-97.37403042610358
 31
0.0
 11
175.8084516585154
 21
-97.38170277511777
 31
0.0
 11
175.7935889168459
 21
-97.39149858956524
 31
0.0
  0
SPLINE
  5
8C4
330
31
100
AcDbEntity
  8
0
  6
Continuous
 62
     7
100
AcDbSpline
210
0.0
220
0.0
230
1.0
 70
     8
 71
     3
 72
    12
 73
     8
 74
     6
 42
0.0000000001
 43
0.0000000001
 44
0.0000000001
 40
0.0
 40
0.0
 40
0.0
 40
0.0
 40
0.0169177493974529
 40
0.0321985670762125
 40
0.0463205658636345
 40
0.0595813284528632
 40
0.0722350397877207
 40
0.0722350397877207
 40
0.0722350397877207
 40
0.0722350397877207
 10
175.9523602388945
 20
-97.39696241678336
 30
0.0
 10
175.9478251650356
 20
-97.39360774851615
 30
0.0
 10
175.9391938230993
 20
-97.38722300379139
 30
0.0
 10
175.9260402564138
 20
-97.37909514507951
 30
0.0
 10
175.9133725694898
 20
-97.37261207865607
 30
0.0
 10
175.9009657856092
 20
-97.36758476645754
 30
0.0
 10
175.8925670213054
 20
-97.36552488678171
 30
0.0
 10
175.8884660104425
 20
-97.36451907347142
 30
0.0
 11
175.9523602388945
 21
-97.39696241678336
 31
0.0
 11
175.9386136644865
 21
-97.38710128415469
 31
0.0
 11
175.9256083282529
 21
-97.37907852787129
 31
0.0
 11
175.9130224138334
 21
-97.37267340429895
 31
0.0
 11
175.9006812539568
 21
-97.36782122980208
 31
0.0
 11
175.8884660104425
 21
-97.36451907347142
 31
0.0
  0
SPLINE
  5
8C5
330
31
100
AcDbEntity
  8
0
  6
Continuous
 62
     7
100
AcDbSpline
210
0.0
220
0.0
230
1.0
 70
     8
 71
     3
 72
    16
 73
    12
 74
    10
 42
0.0000000001
 43
0.0000000001
 44
0.0000000001
 40
0.0
 40
0.0
 40
0.0
 40
0.0
 40
0.0347892978183944
 40
0.0677636647493919
 40
0.0997127916877042
 40
0.1311628385936963
 40
0.1624686382807026
 40
0.1939188992152802
 40
0.2258681597481805
 40
0.2588423937186393
 40
0.2936312004301468
 40
0.2936312004301468
 40
0.2936312004301468
 40
0.2936312004301468
 10
176.2403602360145
 20
-97.39696241678336
 30
0.0
 10
176.2292940329207
 20
-97.39348415889502
 30
0.0
 10
176.2077389420301
 20
-97.38670910115493
 30
0.0
 10
176.1753193423642
 20
-97.37922681444382
 30
0.0
 10
176.1435777711283
 20
-97.37411871727083
 30
0.0
 10
176.1120780942755
 20
-97.37155752114981
 30
0.0
 10
176.0806420325669
 20
-97.37155753202451
 30
0.0
 10
176.0491422421559
 20
-97.37411876855688
 30
0.0
 10
176.0174006066681
 20
-97.37922691850016
 30
0.0
 10
175.9849811760281
 20
-97.3867092071854
 30
0.0
 10
175.963426285051
 20
-97.39348420614218
 30
0.0
 10
175.9523602388945
 20
-97.39696241678336
 30
0.0
 11
176.2403602360145
 21
-97.39696241678336
 31
0.0
 11
176.2070359308931
 21
-97.38697312597414
 31
0.0
 11
176.1749151639417
 21
-97.37951891877596
 31
0.0
 11
176.1433610897118
 21
-97.37451021518969
 31
0.0
 11
176.1120129991161
 21
-97.37197986612407
 31
0.0
 11
176.0807071994291
 21
-97.37197987703316
 31
0.0
 11
176.0493588979245
 21
-97.37451027337153
 31
0.0
 11
176.0178046982401
 21
-97.37951903877595
 31
0.0
 11
175.9856840694704
 21
-97.38697325324686
 31
0.0
 11
175.9523602388945
 21
-97.39696241678336
 31
0.0
  0
SPLINE
  5
8C6
330
31
100
AcDbEntity
  8
0
  6
Continuous
 62
     7
100
AcDbSpline
210
0.0
220
0.0
230
1.0
 70
     8
 71
     3
 72
    16
 73
    12
 74
    10
 42
0.0000000001
 43
0.0000000001
 44
0.0000000001
 40
0.0
 40
0.0
 40
0.0
 40
0.0
 40
0.0347888054919382
 40
0.0677630372802288
 40
0.0997122978132459
 40
0.1311625605602042
 40
0.1624683620652342
 40
0.1939184071589305
 40
0.2258675340972405
 40
0.2588418992573054
 40
0.2936312010808288
 40
0.2936312010808288
 40
0.2936312010808288
 40
0.2936312010808288
 10
175.9523602388945
 20
-97.58207572584131
 30
0.0
 10
175.9634262843482
 20
-97.58555393745394
 30
0.0
 10
175.9849811736299
 20
-97.59232893820037
 30
0.0
 10
176.0174006038958
 20
-97.59981122359455
 30
0.0
 10
176.0491422390765
 20
-97.60491937454602
 30
0.0
 10
176.0806420307625
 20
-97.60748060983704
 30
0.0
 10
176.1120780930684
 20
-97.60748062409973
 30
0.0
 10
176.1435777698993
 20
-97.60491942682126
 30
0.0
 10
176.175319339987
 20
-97.59981133026983
 30
0.0
 10
176.2077389402723
 20
-97.59232904280446
 30
0.0
 10
176.2292940317237
 20
-97.58555398437124
 30
0.0
 10
176.2403602360145
 20
-97.58207572584131
 30
0.0
 11
175.9523602388945
 21
-97.58207572584131
 31
0.0
 11
175.9856840676522
 21
-97.59206489119595
 31
0.0
 11
176.0178046946037
 21
-97.5995191038487
 31
0.0
 11
176.0493588942882
 21
-97.60452786925316
 31
0.0
 11
176.0807071976111
 21
-97.60705826559149
 31
0.0
 11
176.1120129991161
 21
-97.60705827831877
 31
0.0
 11
176.1433610878936
 21
-97.60452792925313
 31
0.0
 11
176.1749151621235
 21
-97.59951922566687
 31
0.0
 11
176.2070359272569
 21
-97.59206501846868
 31
0.0
 11
176.2403602360145
 21
-97.58207572584131
 31
0.0
  0
SPLINE
  5
8C7
330
31
100
AcDbEntity
  8
0
  6
Continuous
 62
     7
100
AcDbSpline
210
0.0
220
0.0
230
1.0
 70
     8
 71
     3
 72
    18
 73
    14
 74
    12
 42
0.0000000001
 43
0.0000000001
 44
0.0000000001
 40
0.0
 40
0.0
 40
0.0
 40
0.0
 40
0.0205186738281796
 40
0.0389580667661649
 40
0.0559774988978272
 40
0.0720281475859953
 40
0.0874923508356234
 40
0.102718810305072
 40
0.1180459736746371
 40
0.1338154928711817
 40
0.1503922259744536
 40
0.1681940476457793
 40
0.1736881746501203
 40
0.1736881746501203
 40
0.1736881746501203
 40
0.1736881746501203
 10
176.4135653161007
 20
-97.40180841673486
 30
0.0
 10
176.4079272243322
 20
-97.39793092209497
 30
0.0
 10
176.3972223826165
 20
-97.39056886271768
 30
0.0
 10
176.3808750429755
 20
-97.38150910287457
 30
0.0
 10
176.3651349471444
 20
-97.37458057030957
 30
0.0
 10
176.3496420123205
 20
-97.36978157532291
 30
0.0
 10
176.3342403470056
 20
-97.36712811626837
 30
0.0
 10
176.3188541351213
 20
-97.36668314480457
 30
0.0
 10
176.3034644713139
 20
-97.36845923552156
 30
0.0
 10
176.2880255055889
 20
-97.37240622536345
 30
0.0
 10
176.2724178855123
 20
-97.37848121145459
 30
0.0
 10
176.2605539802694
 20
-97.38452310769355
 30
0.0
 10
176.253858015286
 20
-97.38845547915255
 30
0.0
 10
176.2522788358953
 20
-97.38938289140456
 30
0.0
 11
176.4135653161007
 21
-97.40180841673486
 31
0.0
 11
176.3964645617262
 21
-97.39046909684828
 31
0.0
 11
176.3803305073421
 21
-97.38154141511936
 31
0.0
 11
176.3647194402255
 21
-97.37476235518714
 31
0.0
 11
176.3493706731062
 21
-97.37006781887046
 31
0.0
 11
176.3341242587133
 21
-97.36748161889636
 31
0.0
 11
176.3189039625018
 21
-97.36704843162792
 31
0.0
 11
176.3036747062905
 21
-97.36877808251973
 31
0.0
 11
176.2883839264434
 21
-97.37263421884479
 31
0.0
 11
176.2729085629618
 21
-97.37857570060358
 31
0.0
 11
176.2570294794842
 21
-97.38662303325035
 31
0.0
 11
176.2522788358953
 21
-97.38938289140456
 31
0.0
  0
SPLINE
  5
8C8
330
31
100
AcDbEntity
  8
0
  6
Continuous
 62
     7
100
AcDbSpline
210
0.0
220
0.0
230
1.0
 70
    24
 71
     3
 72
     8
 73
     4
 74
     2
 42
0.0000000001
 43
0.0000000001
 44
0.0000000001
 40
0.0
 40
0.0
 40
0.0
 40
0.0
 40
0.0141245257650055
 40
0.0141245257650055
 40
0.0141245257650055
 40
0.0141245257650055
 10
176.2522788358953
 20
-97.38938289140456
 30
0.0
 10
176.2483059692683
 20
-97.39190939986414
 30
0.0
 10
176.2443331026414
 20
-97.39443590832374
 30
0.0
 10
176.2403602360145
 20
-97.39696241678336
 30
0.0
 11
176.2522788358953
 21
-97.38938289140456
 31
0.0
 11
176.2403602360145
 21
-97.39696241678336
 31
0.0
  0
SPLINE
  5
8C9
330
31
100
AcDbEntity
  8
0
  6
Continuous
 62
     7
100
AcDbSpline
210
0.0
220
0.0
230
1.0
 70
     8
 71
     3
 72
    11
 73
     7
 74
     5
 42
0.0000000001
 43
0.0000000001
 44
0.0000000001
 40
0.0
 40
0.0
 40
0.0
 40
0.0
 40
0.0208861669547322
 40
0.0393992575124023
 40
0.0563315295966127
 40
0.0722213832249356
 40
0.0722213832249356
 40
0.0722213832249356
 40
0.0722213832249356
 10
175.9523602388945
 20
-97.58207572584131
 30
0.0
 10
175.9467461858175
 20
-97.58620253925434
 30
0.0
 10
175.9361559457151
 20
-97.59398727949498
 30
0.0
 10
175.9198636352339
 20
-97.6033732352279
 30
0.0
 10
175.9042267593109
 20
-97.61049765351586
 30
0.0
 10
175.8936071686541
 20
-97.61320728410479
 30
0.0
 10
175.8884660104425
 20
-97.61451907097141
 30
0.0
 11
175.9523602388945
 21
-97.58207572584131
 31
0.0
 11
175.9352918881561
 21
-97.59411330753913
 31
0.0
 11
175.9192576992255
 21
-97.60336745835566
 31
0.0
 11
175.9037437375624
 21
-97.61015117646962
 31
0.0
 11
175.8884660104425
 21
-97.61451907097141
 31
0.0
  0
SPLINE
  5
8CA
330
31
100
AcDbEntity
  8
0
  6
Continuous
 62
     7
100
AcDbSpline
210
0.0
220
0.0
230
1.0
 70
     8
 71
     3
 72
    11
 73
     7
 74
     5
 42
0.0000000001
 43
0.0000000001
 44
0.0000000001
 40
0.0
 40
0.0
 40
0.0
 40
0.0
 40
0.0141721089433108
 40
0.0291292021446038
 40
0.0452344856526579
 40
0.0630433740281514
 40
0.0630433740281514
 40
0.0630433740281514
 40
0.0630433740281514
 10
175.8500974835535
 20
-97.61451907097141
 30
0.0
 10
175.845507661399
 20
-97.61337267235722
 30
0.0
 10
175.8360737897092
 20
-97.61101637682598
 30
0.0
 10
175.8221719749853
 20
-97.60504452870991
 30
0.0
 10
175.807815178542
 20
-97.59730147383814
 30
0.0
 10
175.798487194428
 20
-97.59090070293353
 30
0.0
 10
175.7935889168459
 20
-97.58753955305941
 30
0.0
 11
175.8500974835535
 21
-97.61451907097141
 31
0.0
 11
175.8364420291446
 21
-97.61072733828207
 31
0.0
 11
175.8226225074646
 21
-97.6050058474302
 31
0.0
 11
175.8084588221517
 21
-97.59733967659776
 31
0.0
 11
175.7935889168459
 21
-97.58753955305941
 31
0.0
  0
SPLINE
  5
8CB
330
31
100
AcDbEntity
  8
0
  6
Continuous
 62
     7
100
AcDbSpline
210
0.0
220
0.0
230
1.0
 70
     8
 71
     3
 72
    17
 73
    13
 74
    11
 42
0.0000000001
 43
0.0000000001
 44
0.0000000001
 40
0.0
 40
0.0
 40
0.0
 40
0.0
 40
0.0224564901144606
 40
0.0424668253970554
 40
0.060877446168946
 40
0.0782596040828798
 40
0.0951043230321816
 40
0.1118666246368955
 40
0.1289972135642292
 40
0.1469681279773897
 40
0.1663126993834325
 40
0.1737032163730617
 40
0.1737032163730617
 40
0.1737032163730617
 40
0.1737032163730617
 10
176.4135653161007
 20
-97.57722972770794
 30
0.0
 10
176.4073871629891
 20
-97.58146381996722
 30
0.0
 10
176.3957038345558
 20
-97.58947079059231
 30
0.0
 10
176.3777936183048
 20
-97.59910008638875
 30
0.0
 10
176.3605446938327
 20
-97.6061681055151
 30
0.0
 10
176.3435191431185
 20
-97.61064753610241
 30
0.0
 10
176.3265541179635
 20
-97.61248965302696
 30
0.0
 10
176.3095929501207
 20
-97.61162718643085
 30
0.0
 10
176.2926043891462
 20
-97.60809749692867
 30
0.0
 10
176.2754739625278
 20
-97.6019667911151
 30
0.0
 10
176.2620718623392
 20
-97.59537648011827
 30
0.0
 10
176.2543770246273
 20
-97.59088092430381
 30
0.0
 10
176.2522499013502
 20
-97.58963819485657
 30
0.0
 11
176.4135653161007
 21
-97.57722972770794
 31
0.0
 11
176.3948042271973
 21
-97.58957134394815
 31
0.0
 11
176.3771676746464
 21
-97.59902467839909
 31
0.0
 11
176.3600909402718
 21
-97.60590480196665
 31
0.0
 11
176.3432634858946
 21
-97.61026096919581
 31
0.0
 11
176.3265134096984
 21
-97.61204408554165
 31
0.0
 11
176.3097718644113
 21
-97.61121016918631
 31
0.0
 11
176.2929877445791
 21
-97.60778228376606
 31
0.0
 11
176.2760346629305
 21
-97.60182017109841
 31
0.0
 11
176.2586557158316
 21
-97.5933240166379
 31
0.0
 11
176.2522499013502
 21
-97.58963819485657
 31
0.0
  0
SPLINE
  5
8CC
330
31
100
AcDbEntity
  8
0
  6
Continuous
 62
     7
100
AcDbSpline
210
0.0
220
0.0
230
1.0
 70
    24
 71
     3
 72
     8
 73
     4
 74
     2
 42
0.0000000001
 43
0.0000000001
 44
0.0000000001
 40
0.0
 40
0.0
 40
0.0
 40
0.0
 40
0.0140909573628265
 40
0.0140909573628265
 40
0.0140909573628265
 40
0.0140909573628265
 10
176.2522499013502
 20
-97.58963819485657
 30
0.0
 10
176.2482866795716
 20
-97.58711737185148
 30
0.0
 10
176.244323457793
 20
-97.58459654884639
 30
0.0
 10
176.2403602360145
 20
-97.58207572584131
 30
0.0
 11
176.2522499013502
 21
-97.58963819485657
 31
0.0
 11
176.2403602360145
 21
-97.58207572584131
 31
0.0
  0
SPLINE
  5
8CD
330
31
100
AcDbEntity
  8
0
  6
Continuous
 62
     7
100
AcDbSpline
210
0.0
220
0.0
230
1.0
 70
     8
 71
     3
 72
    11
 73
     7
 74
     5
 42
0.0000000001
 43
0.0000000001
 44
0.0000000001
 40
0.0
 40
0.0
 40
0.0
 40
0.0
 40
0.0141686802052692
 40
0.0291248791486994
 40
0.0452428381323987
 40
0.0630433738160227
 40
0.0630433738160227
 40
0.0630433738160227
 40
0.0630433738160227
 10
170.9100975329535
 20
-97.36451907347142
 30
0.0
 10
170.9055088131842
 20
-97.3656651511326
 30
0.0
 10
170.8960763249926
 20
-97.36802100735165
 30
0.0
 10
170.8821717636391
 20
-97.3739935160022
 30
0.0
 10
170.8678140370114
 20
-97.38173734131375
 30
0.0
 10
170.8584849180464
 20
-97.38813898582483
 30
0.0
 10
170.8535889662459
 20
-97.39149858956524
 30
0.0
 11
170.9100975329535
 21
-97.36451907347142
 31
0.0
 11
170.8964453239991
 21
-97.36830967888806
 31
0.0
 11
170.8826264623191
 21
-97.37403042610358
 31
0.0
 11
170.8684517079154
 21
-97.38170277511777
 31
0.0
 11
170.8535889662459
 21
-97.39149858956524
 31
0.0
  0
SPLINE
  5
8CE
330
31
100
AcDbEntity
  8
0
  6
Continuous
 62
     7
100
AcDbSpline
210
0.0
220
0.0
230
1.0
 70
     8
 71
     3
 72
    12
 73
     8
 74
     6
 42
0.0000000001
 43
0.0000000001
 44
0.0000000001
 40
0.0
 40
0.0
 40
0.0
 40
0.0
 40
0.0169177493974529
 40
0.0321985670762125
 40
0.0463205658636345
 40
0.0595813284528632
 40
0.0722350397877207
 40
0.0722350397877207
 40
0.0722350397877207
 40
0.0722350397877207
 10
171.0123602882945
 20
-97.39696241678336
 30
0.0
 10
171.0078252144356
 20
-97.39360774851615
 30
0.0
 10
170.9991938724994
 20
-97.38722300379139
 30
0.0
 10
170.9860403058138
 20
-97.37909514507951
 30
0.0
 10
170.9733726188899
 20
-97.37261207865607
 30
0.0
 10
170.9609658350092
 20
-97.36758476645754
 30
0.0
 10
170.9525670707054
 20
-97.36552488678171
 30
0.0
 10
170.9484660598425
 20
-97.36451907347142
 30
0.0
 11
171.0123602882945
 21
-97.39696241678336
 31
0.0
 11
170.9986137138865
 21
-97.38710128415469
 31
0.0
 11
170.9856083776529
 21
-97.37907852787129
 31
0.0
 11
170.9730224632334
 21
-97.37267340429895
 31
0.0
 11
170.9606813033568
 21
-97.36782122980208
 31
0.0
 11
170.9484660598425
 21
-97.36451907347142
 31
0.0
  0
SPLINE
  5
8CF
330
31
100
AcDbEntity
  8
0
  6
Continuous
 62
     7
100
AcDbSpline
210
0.0
220
0.0
230
1.0
 70
     8
 71
     3
 72
    16
 73
    12
 74
    10
 42
0.0000000001
 43
0.0000000001
 44
0.0000000001
 40
0.0
 40
0.0
 40
0.0
 40
0.0
 40
0.0347892978183127
 40
0.0677636647493656
 40
0.099712791687706
 40
0.1311628385936131
 40
0.1624686382806193
 40
0.1939188992152819
 40
0.2258681597481822
 40
0.258842393718641
 40
0.2936312004301485
 40
0.2936312004301485
 40
0.2936312004301485
 40
0.2936312004301485
 10
171.3003602854145
 20
-97.39696241678336
 30
0.0
 10
171.2892940823207
 20
-97.39348415889502
 30
0.0
 10
171.2677389914301
 20
-97.38670910115487
 30
0.0
 10
171.2353193917643
 20
-97.37922681444386
 30
0.0
 10
171.2035778205284
 20
-97.37411871727083
 30
0.0
 10
171.1720781436756
 20
-97.37155752114979
 30
0.0
 10
171.140642081967
 20
-97.37155753202452
 30
0.0
 10
171.1091422915559
 20
-97.37411876855688
 30
0.0
 10
171.0774006560681
 20
-97.37922691850014
 30
0.0
 10
171.0449812254281
 20
-97.3867092071854
 30
0.0
 10
171.023426334451
 20
-97.39348420614218
 30
0.0
 10
171.0123602882945
 20
-97.39696241678336
 30
0.0
 11
171.3003602854145
 21
-97.39696241678336
 31
0.0
 11
171.2670359802932
 21
-97.38697312597414
 31
0.0
 11
171.2349152133417
 21
-97.37951891877596
 31
0.0
 11
171.2033611391118
 21
-97.37451021518969
 31
0.0
 11
171.1720130485162
 21
-97.37197986612407
 31
0.0
 11
171.1407072488292
 21
-97.37197987703316
 31
0.0
 11
171.1093589473245
 21
-97.37451027337153
 31
0.0
 11
171.0778047476401
 21
-97.37951903877595
 31
0.0
 11
171.0456841188704
 21
-97.38697325324686
 31
0.0
 11
171.0123602882945
 21
-97.39696241678336
 31
0.0
  0
SPLINE
  5
8D0
330
31
100
AcDbEntity
  8
0
  6
Continuous
 62
     7
100
AcDbSpline
210
0.0
220
0.0
230
1.0
 70
     8
 71
     3
 72
    16
 73
    12
 74
    10
 42
0.0000000001
 43
0.0000000001
 44
0.0000000001
 40
0.0
 40
0.0
 40
0.0
 40
0.0
 40
0.0347888054919109
 40
0.0677630372802293
 40
0.0997122978132463
 40
0.1311625605602047
 40
0.1624683620653199
 40
0.1939184071589312
 40
0.2258675340972412
 40
0.2588418992573338
 40
0.29363120108083
 40
0.29363120108083
 40
0.29363120108083
 40
0.29363120108083
 10
171.0123602882945
 20
-97.58207572584131
 30
0.0
 10
171.0234263337482
 20
-97.58555393745393
 30
0.0
 10
171.0449812230299
 20
-97.59232893820035
 30
0.0
 10
171.0774006532958
 20
-97.59981122359455
 30
0.0
 10
171.1091422884765
 20
-97.60491937454604
 30
0.0
 10
171.1406420801625
 20
-97.60748060983706
 30
0.0
 10
171.1720781424684
 20
-97.60748062409973
 30
0.0
 10
171.2035778192993
 20
-97.60491942682126
 30
0.0
 10
171.235319389387
 20
-97.59981133026981
 30
0.0
 10
171.2677389896723
 20
-97.59232904280446
 30
0.0
 10
171.2892940811237
 20
-97.58555398437124
 30
0.0
 10
171.3003602854145
 20
-97.58207572584131
 30
0.0
 11
171.0123602882945
 21
-97.58207572584131
 31
0.0
 11
171.0456841170522
 21
-97.59206489119595
 31
0.0
 11
171.0778047440037
 21
-97.5995191038487
 31
0.0
 11
171.1093589436882
 21
-97.60452786925316
 31
0.0
 11
171.1407072470111
 21
-97.60705826559149
 31
0.0
 11
171.1720130485162
 21
-97.60705827831877
 31
0.0
 11
171.2033611372936
 21
-97.60452792925313
 31
0.0
 11
171.2349152115235
 21
-97.59951922566687
 31
0.0
 11
171.2670359766569
 21
-97.59206501846868
 31
0.0
 11
171.3003602854145
 21
-97.58207572584131
 31
0.0
  0
SPLINE
  5
8D1
330
31
100
AcDbEntity
  8
0
  6
Continuous
 62
     7
100
AcDbSpline
210
0.0
220
0.0
230
1.0
 70
     8
 71
     3
 72
    18
 73
    14
 74
    12
 42
0.0000000001
 43
0.0000000001
 44
0.0000000001
 40
0.0
 40
0.0
 40
0.0
 40
0.0
 40
0.0205186738281085
 40
0.0389580667661187
 40
0.0559774988977549
 40
0.0720281475860317
 40
0.0874923508355477
 40
0.1027188103049963
 40
0.1180459736745615
 40
0.1338154928711061
 40
0.1503922259743779
 40
0.1681940476457037
 40
0.1736881746500447
 40
0.1736881746500447
 40
0.1736881746500447
 40
0.1736881746500447
 10
171.4735653655006
 20
-97.40180841673486
 30
0.0
 10
171.4679272737322
 20
-97.39793092209499
 30
0.0
 10
171.4572224320165
 20
-97.39056886271768
 30
0.0
 10
171.4408750923755
 20
-97.38150910287457
 30
0.0
 10
171.4251349965444
 20
-97.37458057030956
 30
0.0
 10
171.4096420617204
 20
-97.36978157532293
 30
0.0
 10
171.3942403964056
 20
-97.36712811626837
 30
0.0
 10
171.3788541845213
 20
-97.36668314480461
 30
0.0
 10
171.3634645207139
 20
-97.36845923552156
 30
0.0
 10
171.3480255549889
 20
-97.37240622536345
 30
0.0
 10
171.3324179349123
 20
-97.37848121145459
 30
0.0
 10
171.3205540296694
 20
-97.38452310769355
 30
0.0
 10
171.313858064686
 20
-97.38845547915255
 30
0.0
 10
171.3122788852953
 20
-97.38938289140456
 30
0.0
 11
171.4735653655006
 21
-97.40180841673486
 31
0.0
 11
171.4564646111262
 21
-97.39046909684828
 31
0.0
 11
171.4403305567421
 21
-97.38154141511936
 31
0.0
 11
171.4247194896255
 21
-97.37476235518714
 31
0.0
 11
171.4093707225061
 21
-97.37006781887046
 31
0.0
 11
171.3941243081133
 21
-97.36748161889636
 31
0.0
 11
171.3789040119018
 21
-97.36704843162792
 31
0.0
 11
171.3636747556905
 21
-97.36877808251973
 31
0.0
 11
171.3483839758434
 21
-97.37263421884479
 31
0.0
 11
171.3329086123618
 21
-97.37857570060358
 31
0.0
 11
171.3170295288842
 21
-97.38662303325035
 31
0.0
 11
171.3122788852953
 21
-97.38938289140456
 31
0.0
  0
SPLINE
  5
8D2
330
31
100
AcDbEntity
  8
0
  6
Continuous
 62
     7
100
AcDbSpline
210
0.0
220
0.0
230
1.0
 70
    24
 71
     3
 72
     8
 73
     4
 74
     2
 42
0.0000000001
 43
0.0000000001
 44
0.0000000001
 40
0.0
 40
0.0
 40
0.0
 40
0.0
 40
0.0141245257650055
 40
0.0141245257650055
 40
0.0141245257650055
 40
0.0141245257650055
 10
171.3122788852953
 20
-97.38938289140456
 30
0.0
 10
171.3083060186683
 20
-97.39190939986414
 30
0.0
 10
171.3043331520414
 20
-97.39443590832374
 30
0.0
 10
171.3003602854145
 20
-97.39696241678336
 30
0.0
 11
171.3122788852953
 21
-97.38938289140456
 31
0.0
 11
171.3003602854145
 21
-97.39696241678336
 31
0.0
  0
SPLINE
  5
8D3
330
31
100
AcDbEntity
  8
0
  6
Continuous
 62
     7
100
AcDbSpline
210
0.0
220
0.0
230
1.0
 70
     8
 71
     3
 72
    11
 73
     7
 74
     5
 42
0.0000000001
 43
0.0000000001
 44
0.0000000001
 40
0.0
 40
0.0
 40
0.0
 40
0.0
 40
0.0208861669547322
 40
0.0393992575123285
 40
0.0563315295965388
 40
0.0722213832249438
 40
0.0722213832249438
 40
0.0722213832249438
 40
0.0722213832249438
 10
171.0123602882945
 20
-97.58207572584131
 30
0.0
 10
171.0067462352174
 20
-97.58620253925432
 30
0.0
 10
170.9961559951151
 20
-97.59398727949493
 30
0.0
 10
170.979863684634
 20
-97.60337323522797
 30
0.0
 10
170.964226808711
 20
-97.61049765351586
 30
0.0
 10
170.9536072180541
 20
-97.61320728410478
 30
0.0
 10
170.9484660598425
 20
-97.61451907097141
 30
0.0
 11
171.0123602882945
 21
-97.58207572584131
 31
0.0
 11
170.9952919375561
 21
-97.59411330753913
 31
0.0
 11
170.9792577486256
 21
-97.60336745835566
 31
0.0
 11
170.9637437869625
 21
-97.61015117646962
 31
0.0
 11
170.9484660598425
 21
-97.61451907097141
 31
0.0
  0
SPLINE
  5
8D4
330
31
100
AcDbEntity
  8
0
  6
Continuous
 62
     7
100
AcDbSpline
210
0.0
220
0.0
230
1.0
 70
     8
 71
     3
 72
    11
 73
     7
 74
     5
 42
0.0000000001
 43
0.0000000001
 44
0.0000000001
 40
0.0
 40
0.0
 40
0.0
 40
0.0
 40
0.0141721089433108
 40
0.0291292021446038
 40
0.0452344856526579
 40
0.0630433740281514
 40
0.0630433740281514
 40
0.0630433740281514
 40
0.0630433740281514
 10
170.9100975329535
 20
-97.61451907097141
 30
0.0
 10
170.905507710799
 20
-97.61337267235722
 30
0.0
 10
170.8960738391092
 20
-97.61101637682598
 30
0.0
 10
170.8821720243853
 20
-97.60504452870991
 30
0.0
 10
170.867815227942
 20
-97.59730147383814
 30
0.0
 10
170.858487243828
 20
-97.59090070293353
 30
0.0
 10
170.8535889662459
 20
-97.58753955305941
 30
0.0
 11
170.9100975329535
 21
-97.61451907097141
 31
0.0
 11
170.8964420785446
 21
-97.61072733828207
 31
0.0
 11
170.8826225568646
 21
-97.6050058474302
 31
0.0
 11
170.8684588715517
 21
-97.59733967659776
 31
0.0
 11
170.8535889662459
 21
-97.58753955305941
 31
0.0
  0
SPLINE
  5
8D5
330
31
100
AcDbEntity
  8
0
  6
Continuous
 62
     7
100
AcDbSpline
210
0.0
220
0.0
230
1.0
 70
     8
 71
     3
 72
    17
 73
    13
 74
    11
 42
0.0000000001
 43
0.0000000001
 44
0.0000000001
 40
0.0
 40
0.0
 40
0.0
 40
0.0
 40
0.0224564901143182
 40
0.0424668253969129
 40
0.0608774461689881
 40
0.0782596040828118
 40
0.0951043230321136
 40
0.1118666246368275
 40
0.1289972135641612
 40
0.1469681279773217
 40
0.1663126993834667
 40
0.1737032163729973
 40
0.1737032163729973
 40
0.1737032163729973
 40
0.1737032163729973
 10
171.4735653655006
 20
-97.57722972770794
 30
0.0
 10
171.467387212389
 20
-97.58146381996722
 30
0.0
 10
171.4557038839559
 20
-97.58947079059234
 30
0.0
 10
171.4377936677048
 20
-97.59910008638877
 30
0.0
 10
171.4205447432327
 20
-97.60616810551509
 30
0.0
 10
171.4035191925185
 20
-97.61064753610243
 30
0.0
 10
171.3865541673636
 20
-97.61248965302698
 30
0.0
 10
171.3695929995207
 20
-97.61162718643079
 30
0.0
 10
171.3526044385462
 20
-97.60809749692867
 30
0.0
 10
171.3354740119278
 20
-97.60196679111508
 30
0.0
 10
171.3220719117391
 20
-97.59537648011832
 30
0.0
 10
171.3143770740272
 20
-97.59088092430383
 30
0.0
 10
171.3122499507502
 20
-97.58963819485657
 30
0.0
 11
171.4735653655006
 21
-97.57722972770794
 31
0.0
 11
171.4548042765974
 21
-97.58957134394815
 31
0.0
 11
171.4371677240465
 21
-97.59902467839909
 31
0.0
 11
171.4200909896717
 21
-97.60590480196665
 31
0.0
 11
171.4032635352946
 21
-97.61026096919581
 31
0.0
 11
171.3865134590984
 21
-97.61204408554165
 31
0.0
 11
171.3697719138113
 21
-97.61121016918631
 31
0.0
 11
171.3529877939791
 21
-97.60778228376606
 31
0.0
 11
171.3360347123305
 21
-97.60182017109841
 31
0.0
 11
171.3186557652315
 21
-97.5933240166379
 31
0.0
 11
171.3122499507502
 21
-97.58963819485657
 31
0.0
  0
SPLINE
  5
8D6
330
31
100
AcDbEntity
  8
0
  6
Continuous
 62
     7
100
AcDbSpline
210
0.0
220
0.0
230
1.0
 70
    24
 71
     3
 72
     8
 73
     4
 74
     2
 42
0.0000000001
 43
0.0000000001
 44
0.0000000001
 40
0.0
 40
0.0
 40
0.0
 40
0.0
 40
0.0140909573628265
 40
0.0140909573628265
 40
0.0140909573628265
 40
0.0140909573628265
 10
171.3122499507502
 20
-97.58963819485657
 30
0.0
 10
171.3082867289716
 20
-97.58711737185148
 30
0.0
 10
171.304323507193
 20
-97.58459654884639
 30
0.0
 10
171.3003602854145
 20
-97.58207572584131
 30
0.0
 11
171.3122499507502
 21
-97.58963819485657
 31
0.0
 11
171.3003602854145
 21
-97.58207572584131
 31
0.0
  0
SPLINE
  5
8D7
330
31
100
AcDbEntity
  8
0
  6
Continuous
 62
     7
100
AcDbSpline
210
0.0
220
0.0
230
1.0
 70
    24
 71
     3
 72
    17
 73
    13
 74
    11
 42
0.0000000001
 43
0.0000000001
 44
0.0000000001
 40
0.0
 40
0.0
 40
0.0
 40
0.0
 40
0.004589950921764
 40
0.009245068803875
 40
0.0138630391529358
 40
0.0183470629086373
 40
0.0225986259551876
 40
0.0265092889689839
 40
0.0299474323806715
 40
0.0327393496258767
 40
0.0346452929387621
 40
0.0353553387057657
 40
0.0353553387057657
 40
0.0353553387057657
 40
0.0353553387057657
 10
172.7393602710245
 20
-101.5500190316164
 30
0.0
 10
172.7404421328318
 20
-101.5511008934238
 30
0.0
 10
172.7426212164464
 20
-101.5532799770384
 30
0.0
 10
172.7458887661108
 20
-101.5565475267025
 30
0.0
 10
172.7491313485025
 20
-101.5597901090945
 30
0.0
 10
172.7522788121075
 20
-101.5629375726992
 30
0.0
 10
172.7552595617746
 20
-101.5659183223665
 30
0.0
 10
172.7579937950806
 20
-101.5686525556725
 30
0.0
 10
172.7603839865718
 20
-101.5710427471637
 30
0.0
 10
172.7623016610981
 20
-101.57296042169
 30
0.0
 10
172.7635763168429
 20
-101.5742350774348
 30
0.0
 10
172.7641929113822
 20
-101.5748516719741
 30
0.0
 10
172.7643602707745
 20
-101.5750190313664
 30
0.0
 11
172.7393602710245
 21
-101.5500190316164
 31
0.0
 11
172.7426058564466
 21
-101.5532646170385
 31
0.0
 11
172.7458975218683
 21
-101.5565562824601
 31
0.0
 11
172.7491629200174
 21
-101.5598216806093
 31
0.0
 11
172.7523336036221
 21
-101.5629923642139
 31
0.0
 11
172.7553399126829
 21
-101.5659986732748
 31
0.0
 11
172.7581051690189
 21
-101.5687639296108
 31
0.0
 11
172.76053630354
 21
-101.5711950641319
 31
0.0
 11
172.7625104871566
 21
-101.5731692477485
 31
0.0
 11
172.7638581925977
 21
-101.5745169531896
 31
0.0
 11
172.7643602707745
 21
-101.5750190313664
 31
0.0
  0
SPLINE
  5
8D8
330
31
100
AcDbEntity
  8
0
  6
Continuous
 62
     7
100
AcDbSpline
210
0.0
220
0.0
230
1.0
 70
     8
 71
     3
 72
     9
 73
     5
 74
     3
 42
0.0000000001
 43
0.0000000001
 44
0.0000000001
 40
0.0
 40
0.0
 40
0.0
 40
0.0
 40
0.007481579524785
 40
0.01415748787298
 40
0.01415748787298
 40
0.01415748787298
 40
0.01415748787298
 10
172.7643602707745
 20
-101.6587488578018
 30
0.0
 10
172.7643074401024
 20
-101.6612467221264
 30
0.0
 10
172.7642074679514
 20
-101.6659734624849
 30
0.0
 10
172.7633700340386
 20
-101.6706253815154
 30
0.0
 10
172.7629751453338
 20
-101.6728189758429
 30
0.0
 11
172.7643602707745
 21
-101.6587488578018
 31
0.0
 11
172.7639958325963
 21
-101.6662215559089
 31
0.0
 11
172.7629751453338
 21
-101.6728189758429
 31
0.0
  0
SPLINE
  5
8D9
330
31
100
AcDbEntity
  8
0
  6
Continuous
 62
     7
100
AcDbSpline
210
0.0
220
0.0
230
1.0
 70
     8
 71
     3
 72
    17
 73
    13
 74
    11
 42
0.0000000001
 43
0.0000000001
 44
0.0000000001
 40
0.0
 40
0.0
 40
0.0
 40
0.0
 40
0.0018167434558872
 40
0.0041063264692234
 40
0.0067046627655318
 40
0.0094647670200094
 40
0.0124001208665954
 40
0.015820602439903
 40
0.0197932894416906
 40
0.0241883452570768
 40
0.0288936397555904
 40
0.0337630328957939
 40
0.0337630328957939
 40
0.0337630328957939
 40
0.0337630328957939
 10
172.7629751453338
 20
-101.6728189758429
 30
0.0
 10
172.762556633788
 20
-101.67238128099
 30
0.0
 10
172.7616106856782
 20
-101.6713919734716
 30
0.0
 10
172.7600624302769
 20
-101.6697802546509
 30
0.0
 10
172.7582927716138
 20
-101.6679451914946
 30
0.0
 10
172.7563693863397
 20
-101.6659593405691
 30
0.0
 10
172.754250825323
 20
-101.6637810188089
 30
0.0
 10
172.7518451182942
 20
-101.6613181461407
 30
0.0
 10
172.7490934662956
 20
-101.6585130257448
 30
0.0
 10
172.7460340008418
 20
-101.6554099595755
 30
0.0
 10
172.7427634593485
 20
-101.6520952246755
 30
0.0
 10
172.7405075549627
 20
-101.6498375664945
 30
0.0
 10
172.7393602710245
 20
-101.6486893906297
 30
0.0
 11
172.7629751453338
 21
-101.6728189758429
 31
0.0
 11
172.76171916171
 21
-101.6715063213106
 31
0.0
 11
172.7601332289986
 21
-101.6698549558726
 31
0.0
 11
172.7583295490167
 21
-101.6679846377094
 31
0.0
 11
172.7564093653995
 21
-101.666001945002
 31
0.0
 11
172.7543628690563
 21
-101.6638976268412
 31
0.0
 11
172.7519729381711
 21
-101.6614506032293
 31
0.0
 11
172.7491909163808
 21
-101.658614655985
 31
0.0
 11
172.746106420048
 21
-101.6554837778345
 31
0.0
 11
172.7427984200811
 21
-101.6521375960497
 31
0.0
 11
172.7393602710245
 21
-101.6486893906297
 31
0.0
  0
SPLINE
  5
8DA
330
31
100
AcDbEntity
  8
0
  6
Continuous
 62
     9
100
AcDbSpline
210
0.0
220
0.0
230
1.0
 70
     8
 71
     3
 72
    10
 73
     6
 74
     4
 42
0.0000000001
 43
0.0000000001
 44
0.0000000001
 40
0.0
 40
0.0
 40
0.0
 40
0.0
 40
0.0091372290796609
 40
0.018191487207865
 40
0.0270078660223772
 40
0.0270078660223772
 40
0.0270078660223772
 40
0.0270078660223772
 10
172.7373602710445
 20
-101.6486857669933
 30
0.0
 10
172.7343145430492
 20
-101.6486971901265
 30
0.0
 10
172.7282507439058
 20
-101.6487199326647
 30
0.0
 10
172.7192489392925
 20
-101.6488861883059
 30
0.0
 10
172.7132967504159
 20
-101.6491260115374
 30
0.0
 10
172.7103602713145
 20
-101.6492443269878
 30
0.0
 11
172.7373602710445
 21
-101.6486857669933
 31
0.0
 11
172.7282232184085
 21
-101.6487425506292
 31
0.0
 11
172.7191707184991
 21
-101.6489209760819
 31
0.0
 11
172.7103602713145
 21
-101.6492443269878
 31
0.0
  0
SPLINE
  5
8DB
330
31
100
AcDbEntity
  8
0
  6
Continuous
 62
     7
100
AcDbSpline
210
0.0
220
0.0
230
1.0
 70
     8
 71
     3
 72
    10
 73
     6
 74
     4
 42
0.0000000001
 43
0.0000000001
 44
0.0000000001
 40
0.0
 40
0.0
 40
0.0
 40
0.0
 40
0.0090435562732142
 40
0.0180584052740211
 40
0.0269999997300116
 40
0.0269999997300116
 40
0.0269999997300116
 40
0.0269999997300116
 10
172.7373602710445
 20
-101.6728190303884
 30
0.0
 10
172.7343457522868
 20
-101.6728190277192
 30
0.0
 10
172.7283262838621
 20
-101.6728190223893
 30
0.0
 10
172.7193262839521
 20
-101.6728190296399
 30
0.0
 10
172.7133408027998
 20
-101.6728190301396
 30
0.0
 10
172.7103602713145
 20
-101.6728190303884
 30
0.0
 11
172.7373602710445
 21
-101.6728190303884
 31
0.0
 11
172.7283167147713
 21
-101.6728190249338
 31
0.0
 11
172.7193018657705
 21
-101.6728190285702
 31
0.0
 11
172.7103602713145
 21
-101.6728190303884
 31
0.0
  0
SPLINE
  5
8DC
330
31
100
AcDbEntity
  8
0
  6
Continuous
 62
     7
100
AcDbSpline
210
0.0
220
0.0
230
1.0
 70
     8
 71
     3
 72
    10
 73
     6
 74
     4
 42
0.0000000001
 43
0.0000000001
 44
0.0000000001
 40
0.0
 40
0.0
 40
0.0
 40
0.0
 40
0.0084897581225127
 40
0.0170406598551552
 40
0.0256149797694813
 40
0.0256149797694813
 40
0.0256149797694813
 40
0.0256149797694813
 10
172.7629752507884
 20
-101.6728183849338
 30
0.0
 10
172.760145331425
 20
-101.6728186657078
 30
0.0
 10
172.7544651114949
 20
-101.6728192292781
 30
0.0
 10
172.7459267848965
 20
-101.6728189612556
 30
0.0
 10
172.740218377682
 20
-101.6728190073231
 30
0.0
 10
172.7373602710445
 20
-101.6728190303884
 30
0.0
 11
172.7629752507884
 21
-101.6728183849338
 31
0.0
 11
172.7544854926914
 21
-101.6728190431157
 31
0.0
 11
172.7459345909588
 21
-101.6728190176611
 31
0.0
 11
172.7373602710445
 21
-101.6728190303884
 31
0.0
  0
SPLINE
  5
8DD
330
31
100
AcDbEntity
  8
0
  6
Continuous
 62
     9
100
AcDbSpline
210
0.0
220
0.0
230
1.0
 70
     8
 71
     3
 72
     9
 73
     5
 74
     3
 42
0.0000000001
 43
0.0000000001
 44
0.0000000001
 40
0.0
 40
0.0
 40
0.0
 40
0.0
 40
0.0009997311783937
 40
0.0020000010574574
 40
0.0020000010574574
 40
0.0020000010574574
 40
0.0020000010574574
 10
172.7393602710245
 20
-101.6486877779024
 30
0.0
 10
172.7390270273483
 20
-101.6486875717735
 30
0.0
 10
172.7383603604289
 20
-101.6486871594047
 30
0.0
 10
172.7376936940282
 20
-101.6486862312138
 30
0.0
 10
172.7373602710445
 20
-101.6486857669933
 30
0.0
 11
172.7393602710245
 21
-101.6486877779024
 31
0.0
 11
172.7383605401254
 21
-101.6486870306297
 31
0.0
 11
172.7373602710445
 21
-101.6486857669933
 31
0.0
  0
SPLINE
  5
8DE
330
31
100
AcDbEntity
  8
0
  6
Continuous
 62
     9
100
AcDbSpline
210
0.0
220
0.0
230
1.0
 70
     8
 71
     3
 72
     9
 73
     5
 74
     3
 42
0.0000000001
 43
0.0000000001
 44
0.0000000001
 40
0.0
 40
0.0
 40
0.0
 40
0.0
 40
0.0020016413541704
 40
0.0040000014625628
 40
0.0040000014625628
 40
0.0040000014625628
 40
0.0040000014625628
 10
172.8380293536742
 20
-101.5460190316564
 30
0.0
 10
172.8380283163971
 20
-101.5466862448792
 30
0.0
 10
172.8380262435433
 20
-101.5480195775771
 30
0.0
 10
172.8380272311733
 20
-101.5493529115195
 30
0.0
 10
172.8380277245833
 20
-101.5500190316164
 30
0.0
 11
172.8380293536742
 21
-101.5460190316564
 31
0.0
 11
172.8380270082197
 21
-101.5480206716364
 31
0.0
 11
172.8380277245833
 21
-101.5500190316164
 31
0.0
  0
SPLINE
  5
8DF
330
31
100
AcDbEntity
  8
0
  6
Continuous
 62
     7
100
AcDbSpline
210
0.0
220
0.0
230
1.0
 70
     8
 71
     3
 72
    13
 73
     9
 74
     7
 42
0.0000000001
 43
0.0000000001
 44
0.0000000001
 40
0.0
 40
0.0
 40
0.0
 40
0.0
 40
0.008215440682925
 40
0.0156751188044604
 40
0.0220912380474257
 40
0.0272509153773061
 40
0.0311106164561632
 40
0.0337637491740952
 40
0.0337637491740952
 40
0.0337637491740952
 40
0.0337637491740952
 10
172.838029511856
 20
-101.5460190316564
 30
0.0
 10
172.8399717044673
 20
-101.5440884432451
 30
0.0
 10
172.843677421677
 20
-101.5404048669311
 30
0.0
 10
172.8489202396305
 20
-101.5352339902639
 30
0.0
 10
172.8534566070724
 20
-101.530797476524
 30
0.0
 10
172.8571500000666
 20
-101.5272153406343
 30
0.0
 10
172.8599522201139
 20
-101.5245160350949
 30
0.0
 10
172.8615210462694
 20
-101.5230154388051
 30
0.0
 10
172.8621601388874
 20
-101.5224041409835
 30
0.0
 11
172.838029511856
 21
-101.5460190316564
 31
0.0
 11
172.8438600427068
 21
-101.5402312535324
 31
0.0
 11
172.8491718553809
 21
-101.5349937499484
 31
0.0
 11
172.8537594735169
 21
-101.5305081790842
 31
0.0
 11
172.8574633916617
 21
-101.526916068211
 31
0.0
 11
172.8602437389066
 21
-101.524238950056
 31
0.0
 11
172.8621601388874
 21
-101.5224041409835
 31
0.0
  0
SPLINE
  5
8E0
330
31
100
AcDbEntity
  8
0
  6
Continuous
 62
     7
100
AcDbSpline
210
0.0
220
0.0
230
1.0
 70
     8
 71
     3
 72
    11
 73
     7
 74
     5
 42
0.0000000001
 43
0.0000000001
 44
0.0000000001
 40
0.0
 40
0.0
 40
0.0
 40
0.0
 40
0.0127532090235235
 40
0.0256150998040478
 40
0.0384772451299606
 40
0.0512301596057827
 40
0.0512301596057827
 40
0.0512301596057827
 40
0.0512301596057827
 10
172.8621590588874
 20
-101.5224039500743
 30
0.0
 10
172.8621595923991
 20
-101.5266550197237
 30
0.0
 10
172.862160663969
 20
-101.5351933862748
 30
0.0
 10
172.8621600778061
 20
-101.5480191346668
 30
0.0
 10
172.8621606512108
 20
-101.5608447848753
 30
0.0
 10
172.8621596002893
 20
-101.5693831380942
 30
0.0
 10
172.8621590770692
 20
-101.5736341095621
 30
0.0
 11
172.8621590588874
 21
-101.5224039500743
 31
0.0
 11
172.8621602970693
 21
-101.5351571590377
 31
0.0
 11
172.8621602716147
 21
-101.5480190498182
 31
0.0
 11
172.8621602916147
 21
-101.5608811951441
 31
0.0
 11
172.8621590770692
 21
-101.5736341095621
 31
0.0
  0
SPLINE
  5
8E1
330
31
100
AcDbEntity
  8
0
  6
Continuous
 62
     7
100
AcDbSpline
210
0.0
220
0.0
230
1.0
 70
     8
 71
     3
 72
     9
 73
     5
 74
     3
 42
0.0000000001
 43
0.0000000001
 44
0.0000000001
 40
0.0
 40
0.0
 40
0.0
 40
0.0
 40
0.0074823406150154
 40
0.0141574097744508
 40
0.0141574097744508
 40
0.0141574097744508
 40
0.0141574097744508
 10
172.6266304448791
 20
-101.5750190313664
 30
0.0
 10
172.6241323260325
 20
-101.5749661886926
 30
0.0
 10
172.6194056109581
 20
-101.5748662045534
 30
0.0
 10
172.614753720441
 20
-101.5740287658104
 30
0.0
 10
172.6125604032016
 20
-101.5736339222893
 30
0.0
 11
172.6266304448791
 21
-101.5750190313664
 31
0.0
 11
172.6191569885902
 21
-101.5746545150064
 31
0.0
 11
172.6125604032016
 21
-101.5736339222893
 31
0.0
  0
SPLINE
  5
8E2
330
31
100
AcDbEntity
  8
0
  6
Continuous
 62
     7
100
AcDbSpline
210
0.0
220
0.0
230
1.0
 70
     8
 71
     3
 72
    17
 73
    13
 74
    11
 42
0.0000000001
 43
0.0000000001
 44
0.0000000001
 40
0.0
 40
0.0
 40
0.0
 40
0.0
 40
0.001816998107939
 40
0.0041069386374573
 40
0.006705633874039
 40
0.0094660405548607
 40
0.0124016446173346
 40
0.0158224116136343
 40
0.0197953289828057
 40
0.0241908486744996
 40
0.028897194118461
 40
0.0337637599657548
 40
0.0337637599657548
 40
0.0337637599657548
 40
0.0337637599657548
 10
172.6125604032016
 20
-101.5736339222893
 30
0.0
 10
172.6129981847731
 20
-101.5732153786185
 30
0.0
 10
172.6139876971138
 20
-101.57226934947
 30
0.0
 10
172.6155997876652
 20
-101.5707210138409
 30
0.0
 10
172.6174352521899
 20
-101.5689512821141
 30
0.0
 10
172.6194214540356
 20
-101.5670278222404
 30
0.0
 10
172.6216000122028
 20
-101.5649091037267
 30
0.0
 10
172.6240629995384
 20
-101.5625031472995
 30
0.0
 10
172.6268674922715
 20
-101.5597503917003
 30
0.0
 10
172.6299705748179
 20
-101.5566901038855
 30
0.0
 10
172.6332769638336
 20
-101.5534117663046
 30
0.0
 10
172.635540380609
 20
-101.5511624917711
 30
0.0
 10
172.636691030233
 20
-101.5500190316164
 30
0.0
 11
172.6125604032016
 21
-101.5736339222893
 31
0.0
 11
172.6138733231885
 21
-101.5723778477564
 31
0.0
 11
172.6155250795356
 21
-101.5707918059541
 31
0.0
 11
172.617395810426
 21
-101.5689880368812
 31
0.0
 11
172.6193788431334
 21
-101.5670677696277
 31
0.0
 11
172.621483379476
 21
-101.5650211387391
 31
0.0
 11
172.623930453997
 21
-101.5626308514903
 31
0.0
 11
172.626765917605
 21
-101.5598480078817
 31
0.0
 11
172.629895470301
 21
-101.5567615060944
 31
0.0
 11
172.6332384266312
 21
-101.5534487534003
 31
0.0
 11
172.636691030233
 21
-101.5500190316164
 31
0.0
  0
SPLINE
  5
8E3
330
31
100
AcDbEntity
  8
0
  6
Continuous
 62
     7
100
AcDbSpline
210
0.0
220
0.0
230
1.0
 70
     8
 71
     3
 72
    11
 73
     7
 74
     5
 42
0.0000000001
 43
0.0000000001
 44
0.0000000001
 40
0.0
 40
0.0
 40
0.0
 40
0.0
 40
0.0127531999304986
 40
0.0256153670746128
 40
0.03847723785514
 40
0.051230161423856
 40
0.051230161423856
 40
0.051230161423856
 40
0.051230161423856
 10
172.6125614632016
 20
-101.5736341095621
 30
0.0
 10
172.6125609389773
 20
-101.5693830429427
 30
0.0
 10
172.6125598860496
 20
-101.5608445872997
 30
0.0
 10
172.6125604636325
 20
-101.5480188413335
 30
0.0
 10
172.6125598855387
 20
-101.5351931874871
 30
0.0
 10
172.6125609545872
 20
-101.5266549227541
 30
0.0
 10
172.6125614868379
 20
-101.5224039482562
 30
0.0
 11
172.6125614632016
 21
-101.5736341095621
 31
0.0
 11
172.612560246838
 21
-101.5608809096896
 31
0.0
 11
172.6125602704743
 21
-101.5480187425455
 31
0.0
 11
172.6125602504743
 21
-101.535156871765
 31
0.0
 11
172.6125614868379
 21
-101.5224039482562
 31
0.0
  0
SPLINE
  5
8E4
330
31
100
AcDbEntity
  8
0
  6
Continuous
 62
     7
100
AcDbSpline
210
0.0
220
0.0
230
1.0
 70
     8
 71
     3
 72
    13
 73
     9
 74
     7
 42
0.0000000001
 43
0.0000000001
 44
0.0000000001
 40
0.0
 40
0.0
 40
0.0
 40
0.0
 40
0.002653150824634
 40
0.0065128790675573
 40
0.0116725937753937
 40
0.0180887540408065
 40
0.0255484316556628
 40
0.0337637633290633
 40
0.0337637633290633
 40
0.0337637633290633
 40
0.0337637633290633
 10
172.612560406838
 20
-101.5224041391652
 30
0.0
 10
172.6131995048223
 20
-101.5230154401073
 30
0.0
 10
172.6147683443492
 20
-101.5245160442466
 30
0.0
 10
172.6175705915797
 20
-101.5272153612875
 30
0.0
 10
172.6212640118415
 20
-101.5307975195706
 30
0.0
 10
172.6258004052181
 20
-101.5352340441377
 30
0.0
 10
172.6310431109156
 20
-101.5404050019886
 30
0.0
 10
172.6347488566771
 20
-101.544088497646
 30
0.0
 10
172.6366910520512
 20
-101.5460190316564
 30
0.0
 11
172.612560406838
 21
-101.5224041391652
 31
0.0
 11
172.6144768231824
 21
-101.5242389573287
 31
0.0
 11
172.6172571958819
 21
-101.526916088211
 31
0.0
 11
172.6209611449358
 21
-101.5305082209024
 31
0.0
 11
172.6255487848899
 21
-101.5349938281303
 31
0.0
 11
172.630860546655
 21
-101.5402313826234
 31
0.0
 11
172.6366910520512
 21
-101.5460190316564
 31
0.0
  0
SPLINE
  5
8E5
330
31
100
AcDbEntity
  8
0
  6
Continuous
 62
     9
100
AcDbSpline
210
0.0
220
0.0
230
1.0
 70
     8
 71
     3
 72
     9
 73
     5
 74
     3
 42
0.0000000001
 43
0.0000000001
 44
0.0000000001
 40
0.0
 40
0.0
 40
0.0
 40
0.0
 40
0.0019980346893031
 40
0.0040000015689514
 40
0.0040000015689514
 40
0.0040000015689514
 40
0.0040000015689514
 10
172.6366927247785
 20
-101.5500190316164
 30
0.0
 10
172.6366932616975
 20
-101.5493530200014
 30
0.0
 10
172.6366943365923
 20
-101.5480196860414
 30
0.0
 10
172.636692198508
 20
-101.546686353361
 30
0.0
 10
172.6366911284149
 20
-101.5460190316564
 30
0.0
 11
172.6366927247785
 21
-101.5500190316164
 31
0.0
 11
172.6366935338694
 21
-101.5480209970909
 31
0.0
 11
172.6366911284149
 21
-101.5460190316564
 31
0.0
  0
SPLINE
  5
8E6
330
31
100
AcDbEntity
  8
0
  6
Continuous
 62
     7
100
AcDbSpline
210
0.0
220
0.0
230
1.0
 70
     8
 71
     3
 72
     9
 73
     5
 74
     3
 42
0.0000000001
 43
0.0000000001
 44
0.0000000001
 40
0.0
 40
0.0
 40
0.0
 40
0.0
 40
0.0066750673626282
 40
0.0141574060730032
 40
0.0141574060730032
 40
0.0141574060730032
 40
0.0141574060730032
 10
172.612560406838
 20
-101.5224041391652
 30
0.0
 10
172.6147537234636
 20
-101.5220092955167
 30
0.0
 10
172.619405612715
 20
-101.5211718564971
 30
0.0
 10
172.6241323266286
 20
-101.521071873812
 30
0.0
 10
172.6266304448791
 20
-101.5210190319064
 30
0.0
 11
172.612560406838
 21
-101.5224041391652
 31
0.0
 11
172.6191569904084
 21
-101.5213835464482
 31
0.0
 11
172.6266304448791
 21
-101.5210190319064
 31
0.0
  0
SPLINE
  5
8E7
330
31
100
AcDbEntity
  8
0
  6
Continuous
 62
     7
100
AcDbSpline
210
0.0
220
0.0
230
1.0
 70
    24
 71
     3
 72
    17
 73
    13
 74
    11
 42
0.0000000001
 43
0.0000000001
 44
0.0000000001
 40
0.0
 40
0.0
 40
0.0
 40
0.0
 40
0.0045899509218042
 40
0.0092450688037745
 40
0.0138630391529157
 40
0.0183470629086172
 40
0.0225986259551675
 40
0.0265092889689638
 40
0.0299474323806514
 40
0.032739349625947
 40
0.034645292938742
 40
0.0353553387057456
 40
0.0353553387057456
 40
0.0353553387057456
 40
0.0353553387057456
 10
172.7353602710645
 20
-101.5460190316564
 30
0.0
 10
172.7342784092571
 20
-101.544937169849
 30
0.0
 10
172.7320993256425
 20
-101.5427580862345
 30
0.0
 10
172.7288317759782
 20
-101.5394905365701
 30
0.0
 10
172.7255891935864
 20
-101.5362479541783
 30
0.0
 10
172.7224417299816
 20
-101.5331004905733
 30
0.0
 10
172.7194609803144
 20
-101.5301197409063
 30
0.0
 10
172.7167267470083
 20
-101.5273855076002
 30
0.0
 10
172.7143365555171
 20
-101.5249953161091
 30
0.0
 10
172.712418880991
 20
-101.5230776415827
 30
0.0
 10
172.711144225246
 20
-101.5218029858379
 30
0.0
 10
172.7105276307067
 20
-101.5211863912987
 30
0.0
 10
172.7103602713145
 20
-101.5210190319064
 30
0.0
 11
172.7353602710645
 21
-101.5460190316564
 31
0.0
 11
172.7321146856423
 21
-101.5427734462343
 31
0.0
 11
172.7288230202208
 21
-101.5394817808127
 31
0.0
 11
172.7255576220716
 21
-101.5362163826635
 31
0.0
 11
172.722386938467
 21
-101.5330456990588
 31
0.0
 11
172.7193806294061
 21
-101.530039389998
 31
0.0
 11
172.7166153730701
 21
-101.527274133662
 31
0.0
 11
172.714184238549
 21
-101.5248429991409
 31
0.0
 11
172.7122100549324
 21
-101.5228688155242
 31
0.0
 11
172.7108623494913
 21
-101.5215211100832
 31
0.0
 11
172.7103602713145
 21
-101.5210190319064
 31
0.0
  0
SPLINE
  5
8E8
330
31
100
AcDbEntity
  8
0
  6
Continuous
 62
     7
100
AcDbSpline
210
0.0
220
0.0
230
1.0
 70
     8
 71
     3
 72
     9
 73
     5
 74
     3
 42
0.0000000001
 43
0.0000000001
 44
0.0000000001
 40
0.0
 40
0.0
 40
0.0
 40
0.0
 40
0.0074815796132412
 40
0.0141574876835588
 40
0.0141574876835588
 40
0.0141574876835588
 40
0.0141574876835588
 10
172.7103602713145
 20
-101.4372892054709
 30
0.0
 10
172.7104131029251
 20
-101.4347913411809
 30
0.0
 10
172.7105130768497
 20
-101.4300646010072
 30
0.0
 10
172.711350508927
 20
-101.4254126817855
 30
0.0
 10
172.7117453967552
 20
-101.4232190874298
 30
0.0
 11
172.7103602713145
 21
-101.4372892054709
 31
0.0
 11
172.7107247113109
 21
-101.4298165073639
 31
0.0
 11
172.7117453967552
 21
-101.4232190874298
 31
0.0
  0
SPLINE
  5
8E9
330
31
100
AcDbEntity
  8
0
  6
Continuous
 62
     7
100
AcDbSpline
210
0.0
220
0.0
230
1.0
 70
     8
 71
     3
 72
    17
 73
    13
 74
    11
 42
0.0000000001
 43
0.0000000001
 44
0.0000000001
 40
0.0
 40
0.0
 40
0.0
 40
0.0
 40
0.0018167421422376
 40
0.0041063264669492
 40
0.0067046627166161
 40
0.0094647682771455
 40
0.0124001221237513
 40
0.0158206024266459
 40
0.0197932894285441
 40
0.0241883439486453
 40
0.0288936397402115
 40
0.0337630315928521
 40
0.0337630315928521
 40
0.0337630315928521
 40
0.0337630315928521
 10
172.7117453967552
 20
-101.4232190874298
 30
0.0
 10
172.7121639084813
 20
-101.4236567815035
 30
0.0
 10
172.7131098576824
 20
-101.4246460879755
 30
0.0
 10
172.7146581103461
 20
-101.4262578094047
 30
0.0
 10
172.7164277738133
 20
-101.4280928691199
 30
0.0
 10
172.7183511565874
 20
-101.4300787230459
 30
0.0
 10
172.7204697187537
 20
-101.4322570437084
 30
0.0
 10
172.7228754237005
 20
-101.4347199178145
 30
0.0
 10
172.7256270752602
 20
-101.4375250374492
 30
0.0
 10
172.72868654253
 20
-101.4406281018241
 30
0.0
 10
172.7319570814906
 20
-101.4439428386251
 30
0.0
 10
172.7342129869064
 20
-101.4462004957841
 30
0.0
 10
172.7353602710645
 20
-101.4473486708249
 30
0.0
 11
172.7117453967552
 21
-101.4232190874298
 31
0.0
 11
172.713001380379
 21
-101.424531740144
 31
0.0
 11
172.7145873130904
 21
-101.4261831074002
 31
0.0
 11
172.7163909948906
 21
-101.4280534237451
 31
0.0
 11
172.7183111785077
 21
-101.4300361182707
 31
0.0
 11
172.7203576748509
 21
-101.4321404364315
 31
0.0
 11
172.7227476039179
 21
-101.4345874600434
 31
0.0
 11
172.7255296257083
 21
-101.4374234072878
 31
0.0
 11
172.728614122041
 21
-101.4405542836201
 31
0.0
 11
172.731922122008
 21
-101.443900467223
 31
0.0
 11
172.7353602710645
 21
-101.4473486708249
 31
0.0
  0
SPLINE
  5
8EA
330
31
100
AcDbEntity
  8
0
  6
Continuous
 62
     9
100
AcDbSpline
210
0.0
220
0.0
230
1.0
 70
     8
 71
     3
 72
     9
 73
     5
 74
     3
 42
0.0000000001
 43
0.0000000001
 44
0.0000000001
 40
0.0
 40
0.0
 40
0.0
 40
0.0
 40
0.0010002735177749
 40
0.002000001059754
 40
0.002000001059754
 40
0.002000001059754
 40
0.002000001059754
 10
172.7373602710445
 20
-101.4473522962794
 30
0.0
 10
172.7376936952402
 20
-101.4473518313016
 30
0.0
 10
172.7383603616397
 20
-101.4473509015999
 30
0.0
 10
172.7390270285602
 20
-101.4473504895306
 30
0.0
 10
172.7393602710245
 20
-101.4473502835522
 30
0.0
 11
172.7373602710445
 21
-101.4473522962794
 31
0.0
 11
172.7383605437618
 21
-101.4473510308249
 31
0.0
 11
172.7393602710245
 21
-101.4473502835522
 31
0.0
  0
SPLINE
  5
8EB
330
31
100
AcDbEntity
  8
0
  6
Continuous
 62
     7
100
AcDbSpline
210
0.0
220
0.0
230
1.0
 70
     8
 71
     3
 72
    10
 73
     6
 74
     4
 42
0.0000000001
 43
0.0000000001
 44
0.0000000001
 40
0.0
 40
0.0
 40
0.0
 40
0.0
 40
0.0085758126414911
 40
0.0171270834651314
 40
0.0256149834073348
 40
0.0256149834073348
 40
0.0256149834073348
 40
0.0256149834073348
 10
172.7373602710445
 20
-101.4232190328844
 30
0.0
 10
172.7402188752577
 20
-101.4232190564106
 30
0.0
 10
172.7459279030782
 20
-101.4232191033957
 30
0.0
 10
172.7544662308897
 20
-101.4232188285695
 30
0.0
 10
172.7601459544554
 20
-101.4232194091355
 30
0.0
 10
172.7629752544247
 20
-101.4232196983389
 30
0.0
 11
172.7373602710445
 21
-101.4232190328844
 31
0.0
 11
172.745936083686
 21
-101.4232190456117
 31
0.0
 11
172.7544873545096
 21
-101.4232190201571
 31
0.0
 11
172.7629752544247
 21
-101.4232196983389
 31
0.0
  0
SPLINE
  5
8EC
330
31
100
AcDbEntity
  8
0
  6
Continuous
 62
     7
100
AcDbSpline
210
0.0
220
0.0
230
1.0
 70
     8
 71
     3
 72
    13
 73
     9
 74
     7
 42
0.0000000001
 43
0.0000000001
 44
0.0000000001
 40
0.0
 40
0.0
 40
0.0
 40
0.0
 40
0.0026519816678703
 40
0.0065097207577946
 40
0.0116666813985617
 40
0.0180797249118406
 40
0.0255383230293585
 40
0.033763006204886
 40
0.033763006204886
 40
0.033763006204886
 40
0.033763006204886
 10
172.7629751453338
 20
-101.4232190874298
 30
0.0
 10
172.7623640721523
 20
-101.4238578640167
 30
0.0
 10
172.7608640935428
 20
-101.425425845145
 30
0.0
 10
172.7581658427681
 20
-101.4282263824816
 30
0.0
 10
172.7545854286501
 20
-101.4319178466719
 30
0.0
 10
172.7501501388597
 20
-101.4364521954387
 30
0.0
 10
172.7449835969449
 20
-101.4417016754663
 30
0.0
 10
172.7412947759109
 20
-101.4454060233118
 30
0.0
 10
172.7393602710245
 20
-101.4473486708249
 30
0.0
 11
172.7629751453338
 21
-101.4232190874298
 31
0.0
 11
172.7611409998976
 21
-101.4251345292288
 31
0.0
 11
172.7584650071971
 21
-101.4279132364737
 31
0.0
 11
172.7548746163239
 21
-101.431615038255
 31
0.0
 11
172.7503916672778
 21
-101.4362009182091
 31
0.0
 11
172.7451577982393
 21
-101.4415147963378
 31
0.0
 11
172.7393602710245
 21
-101.4473486708249
 31
0.0
  0
SPLINE
  5
8ED
330
31
100
AcDbEntity
  8
0
  6
Continuous
 62
     7
100
AcDbSpline
210
0.0
220
0.0
230
1.0
 70
     8
 71
     3
 72
    10
 73
     6
 74
     4
 42
0.0000000001
 43
0.0000000001
 44
0.0000000001
 40
0.0
 40
0.0
 40
0.0
 40
0.0
 40
0.0084897563041499
 40
0.0170406598550997
 40
0.0256149779511185
 40
0.0256149779511185
 40
0.0256149779511185
 40
0.0256149779511185
 10
172.7117452931188
 20
-101.4232196765207
 30
0.0
 10
172.7145752118761
 20
-101.4232193965138
 30
0.0
 10
172.7202554318064
 20
-101.4232188344833
 30
0.0
 10
172.7287937577985
 20
-101.4232191018942
 30
0.0
 10
172.7345021650131
 20
-101.4232190559086
 30
0.0
 10
172.7373602710445
 20
-101.4232190328844
 30
0.0
 11
172.7117452931188
 21
-101.4232196765207
 31
0.0
 11
172.7202350493976
 21
-101.4232190201571
 31
0.0
 11
172.7287859529485
 21
-101.4232190456117
 31
0.0
 11
172.7373602710445
 21
-101.4232190328844
 31
0.0
  0
SPLINE
  5
8EE
330
31
100
AcDbEntity
  8
0
  6
Continuous
 62
     9
100
AcDbSpline
210
0.0
220
0.0
230
1.0
 70
     8
 71
     3
 72
     9
 73
     5
 74
     3
 42
0.0000000001
 43
0.0000000001
 44
0.0000000001
 40
0.0
 40
0.0
 40
0.0
 40
0.0
 40
0.0009997329952579
 40
0.0020000010584279
 40
0.0020000010584279
 40
0.0020000010584279
 40
0.0020000010584279
 10
172.7353602710645
 20
-101.4473502853703
 30
0.0
 10
172.735693515347
 20
-101.4473504905898
 30
0.0
 10
172.7363601822682
 20
-101.4473509011387
 30
0.0
 10
172.7370268486671
 20
-101.4473518311496
 30
0.0
 10
172.7373602710445
 20
-101.4473522962794
 30
0.0
 11
172.7353602710645
 21
-101.4473502853703
 31
0.0
 11
172.7363600037818
 21
-101.4473510308249
 31
0.0
 11
172.7373602710445
 21
-101.4473522962794
 31
0.0
  0
SPLINE
  5
8EF
330
31
100
AcDbEntity
  8
0
  6
Continuous
 62
     7
100
AcDbSpline
210
0.0
220
0.0
230
1.0
 70
     8
 71
     3
 72
     9
 73
     5
 74
     3
 42
0.0000000001
 43
0.0000000001
 44
0.0000000001
 40
0.0
 40
0.0
 40
0.0
 40
0.0
 40
0.007482340614987
 40
0.0141574079776304
 40
0.0141574079776304
 40
0.0141574079776304
 40
0.0141574079776304
 10
172.8480900990281
 20
-101.5210190319064
 30
0.0
 10
172.8505882178797
 20
-101.5210718745443
 30
0.0
 10
172.8553149323638
 20
-101.5211718586031
 30
0.0
 10
172.8599668222551
 20
-101.5220092974632
 30
0.0
 10
172.8621601388874
 20
-101.5224041409835
 30
0.0
 11
172.8480900990281
 21
-101.5210190319064
 31
0.0
 11
172.855563555317
 21
-101.5213835482664
 31
0.0
 11
172.8621601388874
 21
-101.5224041409835
 31
0.0
  0
SPLINE
  5
8F0
330
31
100
AcDbEntity
  8
0
  6
Continuous
 62
     7
100
AcDbSpline
210
0.0
220
0.0
230
1.0
 70
    24
 71
     3
 72
    17
 73
    13
 74
    11
 42
0.0000000001
 43
0.0000000001
 44
0.0000000001
 40
0.0
 40
0.0
 40
0.0
 40
0.0
 40
0.004589950921764
 40
0.009245068803875
 40
0.0138630391529358
 40
0.0183470629086976
 40
0.0225986259551876
 40
0.0265092889689839
 40
0.0299474323806514
 40
0.0327393496259471
 40
0.0346452929387621
 40
0.0353553387057456
 40
0.0353553387057456
 40
0.0353553387057456
 40
0.0353553387057456
 10
172.7393602710245
 20
-101.5460190316564
 30
0.0
 10
172.7404421328318
 20
-101.544937169849
 30
0.0
 10
172.7426212164464
 20
-101.5427580862344
 30
0.0
 10
172.7458887661108
 20
-101.5394905365702
 30
0.0
 10
172.7491313485026
 20
-101.5362479541783
 30
0.0
 10
172.7522788121074
 20
-101.5331004905734
 30
0.0
 10
172.7552595617747
 20
-101.5301197409063
 30
0.0
 10
172.7579937950805
 20
-101.5273855076002
 30
0.0
 10
172.7603839865719
 20
-101.5249953161091
 30
0.0
 10
172.762301661098
 20
-101.5230776415827
 30
0.0
 10
172.7635763168429
 20
-101.5218029858379
 30
0.0
 10
172.7641929113822
 20
-101.5211863912987
 30
0.0
 10
172.7643602707745
 20
-101.5210190319064
 30
0.0
 11
172.7393602710245
 21
-101.5460190316564
 31
0.0
 11
172.7426058564466
 21
-101.5427734462343
 31
0.0
 11
172.7458975218683
 21
-101.5394817808127
 31
0.0
 11
172.7491629200174
 21
-101.5362163826635
 31
0.0
 11
172.7523336036221
 21
-101.5330456990588
 31
0.0
 11
172.7553399126829
 21
-101.530039389998
 31
0.0
 11
172.7581051690189
 21
-101.527274133662
 31
0.0
 11
172.76053630354
 21
-101.5248429991409
 31
0.0
 11
172.7625104871566
 21
-101.5228688155242
 31
0.0
 11
172.7638581925977
 21
-101.5215211100832
 31
0.0
 11
172.7643602707745
 21
-101.5210190319064
 31
0.0
  0
SPLINE
  5
8F1
330
31
100
AcDbEntity
  8
0
  6
Continuous
 62
     7
100
AcDbSpline
210
0.0
220
0.0
230
1.0
 70
     8
 71
     3
 72
     9
 73
     5
 74
     3
 42
0.0000000001
 43
0.0000000001
 44
0.0000000001
 40
0.0
 40
0.0
 40
0.0
 40
0.0
 40
0.0066762349801931
 40
0.0141574878425325
 40
0.0141574878425325
 40
0.0141574878425325
 40
0.0141574878425325
 10
172.7629751453338
 20
-101.4232190874298
 30
0.0
 10
172.7633700501232
 20
-101.4254127898512
 30
0.0
 10
172.7642074771718
 20
-101.4300647105003
 30
0.0
 10
172.7643074447994
 20
-101.4347914504298
 30
0.0
 10
172.7643602707745
 20
-101.4372892054709
 30
0.0
 11
172.7629751453338
 21
-101.4232190874298
 31
0.0
 11
172.7639958653236
 21
-101.4298168328184
 31
0.0
 11
172.7643602707745
 21
-101.4372892054709
 31
0.0
  0
SPLINE
  5
8F2
330
31
100
AcDbEntity
  8
0
  6
Continuous
 62
     7
100
AcDbSpline
210
0.0
220
0.0
230
1.0
 70
     8
 71
     3
 72
    17
 73
    13
 74
    11
 42
0.0000000001
 43
0.0000000001
 44
0.0000000001
 40
0.0
 40
0.0
 40
0.0
 40
0.0
 40
0.0048925623432534
 40
0.0096305620417237
 40
0.0140528852099015
 40
0.0180372151660554
 40
0.0214454665889782
 40
0.024356960666755
 40
0.0270978260147452
 40
0.029680986781821
 40
0.0319577732422659
 40
0.0337637740539521
 40
0.0337637740539521
 40
0.0337637740539521
 40
0.0337637740539521
 10
172.8380294900378
 20
-101.5500190316164
 30
0.0
 10
172.8391863369821
 20
-101.5511685489038
 30
0.0
 10
172.8414634845152
 20
-101.5534312686767
 30
0.0
 10
172.8447897913659
 20
-101.5567295008529
 30
0.0
 10
172.8479095660121
 20
-101.5598060317498
 30
0.0
 10
172.8507203144079
 20
-101.5625646438481
 30
0.0
 10
172.8531774317113
 20
-101.5649645822362
 30
0.0
 10
172.8553426793498
 20
-101.5670701333151
 30
0.0
 10
172.8573147868149
 20
-101.568979788107
 30
0.0
 10
172.8591387263971
 20
-101.5707383109447
 30
0.0
 10
172.8607413059467
 20
-101.5722774520186
 30
0.0
 10
172.8617250033672
 20
-101.5732179137023
 30
0.0
 10
172.8621601370692
 20
-101.5736339222893
 30
0.0
 11
172.8380294900378
 21
-101.5500190316164
 31
0.0
 11
172.8415006500031
 21
-101.5534669606728
 31
0.0
 11
172.844866086333
 21
-101.5568019988213
 31
0.0
 11
172.8480148153925
 21
-101.5599072278811
 31
0.0
 11
172.8508585699095
 21
-101.5626979169441
 31
0.0
 11
172.8532968317033
 21
-101.5650793151021
 31
0.0
 11
172.8553841898643
 21
-101.567109027809
 31
0.0
 11
172.8573532607537
 21
-101.5690156223355
 31
0.0
 11
172.8592128589169
 21
-101.570808556863
 31
0.0
 11
172.8608551552641
 21
-101.5723854586654
 31
0.0
 11
172.8621601370692
 21
-101.5736339222893
 31
0.0
  0
SPLINE
  5
8F3
330
31
100
AcDbEntity
  8
0
  6
Continuous
 62
     7
100
AcDbSpline
210
0.0
220
0.0
230
1.0
 70
     8
 71
     3
 72
     9
 73
     5
 74
     3
 42
0.0000000001
 43
0.0000000001
 44
0.0000000001
 40
0.0
 40
0.0
 40
0.0
 40
0.0
 40
0.0066750673626196
 40
0.0141574061615719
 40
0.0141574061615719
 40
0.0141574061615719
 40
0.0141574061615719
 10
172.8621601370692
 20
-101.5736339222893
 30
0.0
 10
172.8599668204373
 20
-101.5740287658103
 30
0.0
 10
172.8553149311436
 20
-101.5748662045648
 30
0.0
 10
172.8505882172708
 20
-101.5749661886962
 30
0.0
 10
172.8480900990281
 20
-101.5750190313664
 30
0.0
 11
172.8621601370692
 21
-101.5736339222893
 31
0.0
 11
172.8555635534988
 21
-101.5746545150064
 31
0.0
 11
172.8480900990281
 21
-101.5750190313664
 31
0.0
  0
SPLINE
  5
8F4
330
31
100
AcDbEntity
  8
0
  6
Continuous
 62
     7
100
AcDbSpline
210
0.0
220
0.0
230
1.0
 70
    24
 71
     3
 72
    17
 73
    13
 74
    11
 42
0.0000000001
 43
0.0000000001
 44
0.0000000001
 40
0.0
 40
0.0
 40
0.0
 40
0.0
 40
0.004589950921764
 40
0.0092450688037142
 40
0.0138630391529358
 40
0.0183470629086172
 40
0.0225986259551675
 40
0.0265092889689839
 40
0.0299474323806715
 40
0.0327393496258767
 40
0.0346452929387621
 40
0.0353553387057657
 40
0.0353553387057657
 40
0.0353553387057657
 40
0.0353553387057657
 10
176.0793602376245
 20
-101.5500190316164
 30
0.0
 10
176.0804420994318
 20
-101.5511008934237
 30
0.0
 10
176.0826211830465
 20
-101.5532799770383
 30
0.0
 10
176.0858887327106
 20
-101.5565475267027
 30
0.0
 10
176.0891313151025
 20
-101.5597901090944
 30
0.0
 10
176.0922787787075
 20
-101.5629375726993
 30
0.0
 10
176.0952595283745
 20
-101.5659183223665
 30
0.0
 10
176.0979937616806
 20
-101.5686525556725
 30
0.0
 10
176.1003839531718
 20
-101.5710427471637
 30
0.0
 10
176.102301627698
 20
-101.57296042169
 30
0.0
 10
176.1035762834429
 20
-101.5742350774349
 30
0.0
 10
176.1041928779822
 20
-101.5748516719741
 30
0.0
 10
176.1043602373745
 20
-101.5750190313664
 30
0.0
 11
176.0793602376245
 21
-101.5500190316164
 31
0.0
 11
176.0826058230466
 21
-101.5532646170385
 31
0.0
 11
176.0858974884681
 21
-101.5565562824601
 31
0.0
 11
176.0891628866174
 21
-101.5598216806093
 31
0.0
 11
176.0923335702221
 21
-101.5629923642139
 31
0.0
 11
176.0953398792829
 21
-101.5659986732748
 31
0.0
 11
176.0981051356189
 21
-101.5687639296108
 31
0.0
 11
176.10053627014
 21
-101.5711950641319
 31
0.0
 11
176.1025104537566
 21
-101.5731692477485
 31
0.0
 11
176.1038581591977
 21
-101.5745169531896
 31
0.0
 11
176.1043602373745
 21
-101.5750190313664
 31
0.0
  0
SPLINE
  5
8F5
330
31
100
AcDbEntity
  8
0
  6
Continuous
 62
     7
100
AcDbSpline
210
0.0
220
0.0
230
1.0
 70
     8
 71
     3
 72
     9
 73
     5
 74
     3
 42
0.0000000001
 43
0.0000000001
 44
0.0000000001
 40
0.0
 40
0.0
 40
0.0
 40
0.0
 40
0.0074815795247822
 40
0.0141574878729859
 40
0.0141574878729859
 40
0.0141574878729859
 40
0.0141574878729859
 10
176.1043602373745
 20
-101.6587488578018
 30
0.0
 10
176.1043074067025
 20
-101.6612467221264
 30
0.0
 10
176.1042074345515
 20
-101.6659734624849
 30
0.0
 10
176.1033700006386
 20
-101.6706253815153
 30
0.0
 10
176.1029751119338
 20
-101.6728189758429
 30
0.0
 11
176.1043602373745
 21
-101.6587488578018
 31
0.0
 11
176.1039957991964
 21
-101.6662215559089
 31
0.0
 11
176.1029751119338
 21
-101.6728189758429
 31
0.0
  0
SPLINE
  5
8F6
330
31
100
AcDbEntity
  8
0
  6
Continuous
 62
     7
100
AcDbSpline
210
0.0
220
0.0
230
1.0
 70
     8
 71
     3
 72
    17
 73
    13
 74
    11
 42
0.0000000001
 43
0.0000000001
 44
0.0000000001
 40
0.0
 40
0.0
 40
0.0
 40
0.0
 40
0.0018167434558872
 40
0.0041063264692234
 40
0.0067046627655909
 40
0.0094647670200093
 40
0.0124001208665953
 40
0.0158206024399624
 40
0.0197932894416904
 40
0.0241883452570765
 40
0.0288936397556701
 40
0.0337630328957933
 40
0.0337630328957933
 40
0.0337630328957933
 40
0.0337630328957933
 10
176.1029751119338
 20
-101.6728189758429
 30
0.0
 10
176.102556600388
 20
-101.67238128099
 30
0.0
 10
176.1016106522782
 20
-101.6713919734716
 30
0.0
 10
176.1000623968769
 20
-101.6697802546508
 30
0.0
 10
176.0982927382136
 20
-101.6679451914947
 30
0.0
 10
176.0963693529397
 20
-101.6659593405691
 30
0.0
 10
176.094250791923
 20
-101.6637810188089
 30
0.0
 10
176.0918450848941
 20
-101.6613181461407
 30
0.0
 10
176.0890934328956
 20
-101.6585130257448
 30
0.0
 10
176.0860339674418
 20
-101.6554099595755
 30
0.0
 10
176.0827634259484
 20
-101.6520952246755
 30
0.0
 10
176.0805075215626
 20
-101.6498375664945
 30
0.0
 10
176.0793602376245
 20
-101.6486893906297
 30
0.0
 11
176.1029751119338
 21
-101.6728189758429
 31
0.0
 11
176.10171912831
 21
-101.6715063213106
 31
0.0
 11
176.1001331955986
 21
-101.6698549558726
 31
0.0
 11
176.0983295156166
 21
-101.6679846377094
 31
0.0
 11
176.0964093319995
 21
-101.666001945002
 31
0.0
 11
176.0943628356563
 21
-101.6638976268412
 31
0.0
 11
176.091972904771
 21
-101.6614506032293
 31
0.0
 11
176.0891908829808
 21
-101.658614655985
 31
0.0
 11
176.086106386648
 21
-101.6554837778345
 31
0.0
 11
176.082798386681
 21
-101.6521375960497
 31
0.0
 11
176.0793602376245
 21
-101.6486893906297
 31
0.0
  0
SPLINE
  5
8F7
330
31
100
AcDbEntity
  8
0
  6
Continuous
 62
     9
100
AcDbSpline
210
0.0
220
0.0
230
1.0
 70
     8
 71
     3
 72
    10
 73
     6
 74
     4
 42
0.0000000001
 43
0.0000000001
 44
0.0000000001
 40
0.0
 40
0.0
 40
0.0
 40
0.0
 40
0.0091372290796041
 40
0.018191487207865
 40
0.0270078660223772
 40
0.0270078660223772
 40
0.0270078660223772
 40
0.0270078660223772
 10
176.0773602376445
 20
-101.6486857669933
 30
0.0
 10
176.0743145096492
 20
-101.6486971901265
 30
0.0
 10
176.0682507105057
 20
-101.6487199326647
 30
0.0
 10
176.0592489058927
 20
-101.648886188306
 30
0.0
 10
176.0532967170159
 20
-101.6491260115375
 30
0.0
 10
176.0503602379145
 20
-101.6492443269878
 30
0.0
 11
176.0773602376445
 21
-101.6486857669933
 31
0.0
 11
176.0682231850086
 21
-101.6487425506292
 31
0.0
 11
176.0591706850991
 21
-101.6489209760819
 31
0.0
 11
176.0503602379145
 21
-101.6492443269878
 31
0.0
  0
SPLINE
  5
8F8
330
31
100
AcDbEntity
  8
0
  6
Continuous
 62
     7
100
AcDbSpline
210
0.0
220
0.0
230
1.0
 70
     8
 71
     3
 72
    10
 73
     6
 74
     4
 42
0.0000000001
 43
0.0000000001
 44
0.0000000001
 40
0.0
 40
0.0
 40
0.0
 40
0.0
 40
0.0090435562732142
 40
0.0180584052739074
 40
0.0269999997300116
 40
0.0269999997300116
 40
0.0269999997300116
 40
0.0269999997300116
 10
176.0773602376445
 20
-101.6728190303884
 30
0.0
 10
176.0743457188867
 20
-101.6728190277192
 30
0.0
 10
176.0683262504621
 20
-101.6728190223893
 30
0.0
 10
176.0593262505521
 20
-101.6728190296399
 30
0.0
 10
176.0533407693998
 20
-101.6728190301396
 30
0.0
 10
176.0503602379145
 20
-101.6728190303884
 30
0.0
 11
176.0773602376445
 21
-101.6728190303884
 31
0.0
 11
176.0683166813713
 21
-101.6728190249338
 31
0.0
 11
176.0593018323706
 21
-101.6728190285702
 31
0.0
 11
176.0503602379145
 21
-101.6728190303884
 31
0.0
  0
SPLINE
  5
8F9
330
31
100
AcDbEntity
  8
0
  6
Continuous
 62
     7
100
AcDbSpline
210
0.0
220
0.0
230
1.0
 70
     8
 71
     3
 72
    10
 73
     6
 74
     4
 42
0.0000000001
 43
0.0000000001
 44
0.0000000001
 40
0.0
 40
0.0
 40
0.0
 40
0.0
 40
0.0084897581225127
 40
0.0170406598551552
 40
0.0256149797694813
 40
0.0256149797694813
 40
0.0256149797694813
 40
0.0256149797694813
 10
176.1029752173884
 20
-101.6728183849338
 30
0.0
 10
176.100145298025
 20
-101.6728186657078
 30
0.0
 10
176.0944650780949
 20
-101.6728192292781
 30
0.0
 10
176.0859267514965
 20
-101.6728189612556
 30
0.0
 10
176.080218344282
 20
-101.6728190073231
 30
0.0
 10
176.0773602376445
 20
-101.6728190303884
 30
0.0
 11
176.1029752173884
 21
-101.6728183849338
 31
0.0
 11
176.0944854592914
 21
-101.6728190431157
 31
0.0
 11
176.0859345575588
 21
-101.6728190176611
 31
0.0
 11
176.0773602376445
 21
-101.6728190303884
 31
0.0
  0
SPLINE
  5
8FA
330
31
100
AcDbEntity
  8
0
  6
Continuous
 62
     9
100
AcDbSpline
210
0.0
220
0.0
230
1.0
 70
     8
 71
     3
 72
     9
 73
     5
 74
     3
 42
0.0000000001
 43
0.0000000001
 44
0.0000000001
 40
0.0
 40
0.0
 40
0.0
 40
0.0
 40
0.0009997311784221
 40
0.0020000010574574
 40
0.0020000010574574
 40
0.0020000010574574
 40
0.0020000010574574
 10
176.0793602376245
 20
-101.6486877779024
 30
0.0
 10
176.0790269939483
 20
-101.6486875717735
 30
0.0
 10
176.0783603270289
 20
-101.6486871594047
 30
0.0
 10
176.0776936606282
 20
-101.6486862312137
 30
0.0
 10
176.0773602376445
 20
-101.6486857669933
 30
0.0
 11
176.0793602376245
 21
-101.6486877779024
 31
0.0
 11
176.0783605067254
 21
-101.6486870306297
 31
0.0
 11
176.0773602376445
 21
-101.6486857669933
 31
0.0
  0
SPLINE
  5
8FB
330
31
100
AcDbEntity
  8
0
  6
Continuous
 62
     9
100
AcDbSpline
210
0.0
220
0.0
230
1.0
 70
     8
 71
     3
 72
     9
 73
     5
 74
     3
 42
0.0000000001
 43
0.0000000001
 44
0.0000000001
 40
0.0
 40
0.0
 40
0.0
 40
0.0
 40
0.0020016413541704
 40
0.0040000014625628
 40
0.0040000014625628
 40
0.0040000014625628
 40
0.0040000014625628
 10
176.1780293202742
 20
-101.5460190316564
 30
0.0
 10
176.1780282829971
 20
-101.5466862448792
 30
0.0
 10
176.1780262101433
 20
-101.5480195775771
 30
0.0
 10
176.1780271977733
 20
-101.5493529115195
 30
0.0
 10
176.1780276911833
 20
-101.5500190316164
 30
0.0
 11
176.1780293202742
 21
-101.5460190316564
 31
0.0
 11
176.1780269748197
 21
-101.5480206716364
 31
0.0
 11
176.1780276911833
 21
-101.5500190316164
 31
0.0
  0
SPLINE
  5
8FC
330
31
100
AcDbEntity
  8
0
  6
Continuous
 62
     7
100
AcDbSpline
210
0.0
220
0.0
230
1.0
 70
     8
 71
     3
 72
    13
 73
     9
 74
     7
 42
0.0000000001
 43
0.0000000001
 44
0.0000000001
 40
0.0
 40
0.0
 40
0.0
 40
0.0
 40
0.0082154406829451
 40
0.0156751188045413
 40
0.022091238047405
 40
0.0272509153772446
 40
0.0311106164561016
 40
0.0337637491740747
 40
0.0337637491740747
 40
0.0337637491740747
 40
0.0337637491740747
 10
176.178029478456
 20
-101.5460190316564
 30
0.0
 10
176.1799716710674
 20
-101.5440884432451
 30
0.0
 10
176.1836773882771
 20
-101.540404866931
 30
0.0
 10
176.1889202062306
 20
-101.535233990264
 30
0.0
 10
176.1934565736724
 20
-101.530797476524
 30
0.0
 10
176.1971499666665
 20
-101.5272153406343
 30
0.0
 10
176.1999521867138
 20
-101.5245160350949
 30
0.0
 10
176.2015210128693
 20
-101.5230154388051
 30
0.0
 10
176.2021601054874
 20
-101.5224041409835
 30
0.0
 11
176.178029478456
 21
-101.5460190316564
 31
0.0
 11
176.1838600093068
 21
-101.5402312535324
 31
0.0
 11
176.189171821981
 21
-101.5349937499484
 31
0.0
 11
176.1937594401169
 21
-101.5305081790842
 31
0.0
 11
176.1974633582616
 21
-101.526916068211
 31
0.0
 11
176.2002437055065
 21
-101.524238950056
 31
0.0
 11
176.2021601054874
 21
-101.5224041409835
 31
0.0
  0
SPLINE
  5
8FD
330
31
100
AcDbEntity
  8
0
  6
Continuous
 62
     7
100
AcDbSpline
210
0.0
220
0.0
230
1.0
 70
     8
 71
     3
 72
    11
 73
     7
 74
     5
 42
0.0000000001
 43
0.0000000001
 44
0.0000000001
 40
0.0
 40
0.0
 40
0.0
 40
0.0
 40
0.0127532090235235
 40
0.0256150998040478
 40
0.0384772451299606
 40
0.0512301596057827
 40
0.0512301596057827
 40
0.0512301596057827
 40
0.0512301596057827
 10
176.2021590254874
 20
-101.5224039500743
 30
0.0
 10
176.202159558999
 20
-101.5266550197237
 30
0.0
 10
176.2021606305689
 20
-101.5351933862748
 30
0.0
 10
176.202160044406
 20
-101.5480191346668
 30
0.0
 10
176.2021606178109
 20
-101.5608447848753
 30
0.0
 10
176.2021595668893
 20
-101.5693831380942
 30
0.0
 10
176.2021590436693
 20
-101.5736341095621
 30
0.0
 11
176.2021590254874
 21
-101.5224039500743
 31
0.0
 11
176.2021602636692
 21
-101.5351571590377
 31
0.0
 11
176.2021602382146
 21
-101.5480190498182
 31
0.0
 11
176.2021602582147
 21
-101.5608811951441
 31
0.0
 11
176.2021590436693
 21
-101.5736341095621
 31
0.0
  0
SPLINE
  5
8FE
330
31
100
AcDbEntity
  8
0
  6
Continuous
 62
     7
100
AcDbSpline
210
0.0
220
0.0
230
1.0
 70
     8
 71
     3
 72
     9
 73
     5
 74
     3
 42
0.0000000001
 43
0.0000000001
 44
0.0000000001
 40
0.0
 40
0.0
 40
0.0
 40
0.0
 40
0.0074823406150154
 40
0.0141574097744508
 40
0.0141574097744508
 40
0.0141574097744508
 40
0.0141574097744508
 10
175.9666304114791
 20
-101.5750190313664
 30
0.0
 10
175.9641322926325
 20
-101.5749661886926
 30
0.0
 10
175.9594055775581
 20
-101.5748662045534
 30
0.0
 10
175.954753687041
 20
-101.5740287658104
 30
0.0
 10
175.9525603698016
 20
-101.5736339222893
 30
0.0
 11
175.9666304114791
 21
-101.5750190313664
 31
0.0
 11
175.9591569551902
 21
-101.5746545150064
 31
0.0
 11
175.9525603698016
 21
-101.5736339222893
 31
0.0
  0
SPLINE
  5
8FF
330
31
100
AcDbEntity
  8
0
  6
Continuous
 62
     7
100
AcDbSpline
210
0.0
220
0.0
230
1.0
 70
     8
 71
     3
 72
    17
 73
    13
 74
    11
 42
0.0000000001
 43
0.0000000001
 44
0.0000000001
 40
0.0
 40
0.0
 40
0.0
 40
0.0
 40
0.0018169981079184
 40
0.0041069386374573
 40
0.006705633874039
 40
0.0094660405547994
 40
0.0124016446173344
 40
0.0158224116136341
 40
0.0197953289828056
 40
0.0241908486744995
 40
0.0288971941184609
 40
0.0337637599657546
 40
0.0337637599657546
 40
0.0337637599657546
 40
0.0337637599657546
 10
175.9525603698016
 20
-101.5736339222893
 30
0.0
 10
175.9529981513731
 20
-101.5732153786185
 30
0.0
 10
175.9539876637139
 20
-101.57226934947
 30
0.0
 10
175.9555997542651
 20
-101.5707210138409
 30
0.0
 10
175.9574352187899
 20
-101.5689512821141
 30
0.0
 10
175.9594214206354
 20
-101.5670278222404
 30
0.0
 10
175.9615999788028
 20
-101.5649091037267
 30
0.0
 10
175.9640629661384
 20
-101.5625031472995
 30
0.0
 10
175.9668674588714
 20
-101.5597503917003
 30
0.0
 10
175.969970541418
 20
-101.5566901038855
 30
0.0
 10
175.9732769304337
 20
-101.5534117663046
 30
0.0
 10
175.975540347209
 20
-101.5511624917711
 30
0.0
 10
175.976690996833
 20
-101.5500190316164
 30
0.0
 11
175.9525603698016
 21
-101.5736339222893
 31
0.0
 11
175.9538732897885
 21
-101.5723778477564
 31
0.0
 11
175.9555250461356
 21
-101.5707918059541
 31
0.0
 11
175.957395777026
 21
-101.5689880368812
 31
0.0
 11
175.9593788097333
 21
-101.5670677696277
 31
0.0
 11
175.961483346076
 21
-101.5650211387391
 31
0.0
 11
175.963930420597
 21
-101.5626308514903
 31
0.0
 11
175.966765884205
 21
-101.5598480078817
 31
0.0
 11
175.969895436901
 21
-101.5567615060944
 31
0.0
 11
175.9732383932312
 21
-101.5534487534003
 31
0.0
 11
175.976690996833
 21
-101.5500190316164
 31
0.0
  0
SPLINE
  5
900
330
31
100
AcDbEntity
  8
0
  6
Continuous
 62
     7
100
AcDbSpline
210
0.0
220
0.0
230
1.0
 70
     8
 71
     3
 72
    11
 73
     7
 74
     5
 42
0.0000000001
 43
0.0000000001
 44
0.0000000001
 40
0.0
 40
0.0
 40
0.0
 40
0.0
 40
0.0127531999304986
 40
0.0256153670746128
 40
0.03847723785514
 40
0.0512301614238561
 40
0.0512301614238561
 40
0.0512301614238561
 40
0.0512301614238561
 10
175.9525614298016
 20
-101.5736341095621
 30
0.0
 10
175.9525609055773
 20
-101.5693830429427
 30
0.0
 10
175.9525598526496
 20
-101.5608445872997
 30
0.0
 10
175.9525604302325
 20
-101.5480188413335
 30
0.0
 10
175.9525598521387
 20
-101.5351931874871
 30
0.0
 10
175.9525609211872
 20
-101.5266549227541
 30
0.0
 10
175.952561453438
 20
-101.5224039482562
 30
0.0
 11
175.9525614298016
 21
-101.5736341095621
 31
0.0
 11
175.952560213438
 21
-101.5608809096896
 31
0.0
 11
175.9525602370743
 21
-101.5480187425455
 31
0.0
 11
175.9525602170743
 21
-101.535156871765
 31
0.0
 11
175.952561453438
 21
-101.5224039482562
 31
0.0
  0
SPLINE
  5
901
330
31
100
AcDbEntity
  8
0
  6
Continuous
 62
     7
100
AcDbSpline
210
0.0
220
0.0
230
1.0
 70
     8
 71
     3
 72
    13
 73
     9
 74
     7
 42
0.0000000001
 43
0.0000000001
 44
0.0000000001
 40
0.0
 40
0.0
 40
0.0
 40
0.0
 40
0.0026531508246955
 40
0.006512879067537
 40
0.0116725937753938
 40
0.0180887540408066
 40
0.0255484316556629
 40
0.0337637633290634
 40
0.0337637633290634
 40
0.0337637633290634
 40
0.0337637633290634
 10
175.952560373438
 20
-101.5224041391652
 30
0.0
 10
175.9531994714224
 20
-101.5230154401073
 30
0.0
 10
175.9547683109493
 20
-101.5245160442466
 30
0.0
 10
175.9575705581797
 20
-101.5272153612876
 30
0.0
 10
175.9612639784416
 20
-101.5307975195706
 30
0.0
 10
175.965800371818
 20
-101.5352340441378
 30
0.0
 10
175.9710430775155
 20
-101.5404050019886
 30
0.0
 10
175.9747488232771
 20
-101.544088497646
 30
0.0
 10
175.9766910186512
 20
-101.5460190316564
 30
0.0
 11
175.952560373438
 21
-101.5224041391652
 31
0.0
 11
175.9544767897825
 21
-101.5242389573287
 31
0.0
 11
175.9572571624819
 21
-101.526916088211
 31
0.0
 11
175.9609611115358
 21
-101.5305082209024
 31
0.0
 11
175.9655487514899
 21
-101.5349938281303
 31
0.0
 11
175.970860513255
 21
-101.5402313826234
 31
0.0
 11
175.9766910186512
 21
-101.5460190316564
 31
0.0
  0
SPLINE
  5
902
330
31
100
AcDbEntity
  8
0
  6
Continuous
 62
     9
100
AcDbSpline
210
0.0
220
0.0
230
1.0
 70
     8
 71
     3
 72
     9
 73
     5
 74
     3
 42
0.0000000001
 43
0.0000000001
 44
0.0000000001
 40
0.0
 40
0.0
 40
0.0
 40
0.0
 40
0.0019980346893031
 40
0.0040000015689516
 40
0.0040000015689516
 40
0.0040000015689516
 40
0.0040000015689516
 10
175.9766926913785
 20
-101.5500190316164
 30
0.0
 10
175.9766932282975
 20
-101.5493530200014
 30
0.0
 10
175.9766943031923
 20
-101.5480196860414
 30
0.0
 10
175.9766921651079
 20
-101.546686353361
 30
0.0
 10
175.9766910950148
 20
-101.5460190316564
 30
0.0
 11
175.9766926913785
 21
-101.5500190316164
 31
0.0
 11
175.9766935004694
 21
-101.5480209970909
 31
0.0
 11
175.9766910950148
 21
-101.5460190316564
 31
0.0
  0
SPLINE
  5
903
330
31
100
AcDbEntity
  8
0
  6
Continuous
 62
     7
100
AcDbSpline
210
0.0
220
0.0
230
1.0
 70
     8
 71
     3
 72
     9
 73
     5
 74
     3
 42
0.0000000001
 43
0.0000000001
 44
0.0000000001
 40
0.0
 40
0.0
 40
0.0
 40
0.0
 40
0.0066750673626001
 40
0.0141574060730035
 40
0.0141574060730035
 40
0.0141574060730035
 40
0.0141574060730035
 10
175.952560373438
 20
-101.5224041391652
 30
0.0
 10
175.9547536900636
 20
-101.5220092955167
 30
0.0
 10
175.9594055793149
 20
-101.5211718564971
 30
0.0
 10
175.9641322932287
 20
-101.521071873812
 30
0.0
 10
175.9666304114791
 20
-101.5210190319064
 30
0.0
 11
175.952560373438
 21
-101.5224041391652
 31
0.0
 11
175.9591569570084
 21
-101.5213835464482
 31
0.0
 11
175.9666304114791
 21
-101.5210190319064
 31
0.0
  0
SPLINE
  5
904
330
31
100
AcDbEntity
  8
0
  6
Continuous
 62
     7
100
AcDbSpline
210
0.0
220
0.0
230
1.0
 70
    24
 71
     3
 72
    17
 73
    13
 74
    11
 42
0.0000000001
 43
0.0000000001
 44
0.0000000001
 40
0.0
 40
0.0
 40
0.0
 40
0.0
 40
0.0045899509217238
 40
0.0092450688037142
 40
0.0138630391528956
 40
0.0183470629086373
 40
0.0225986259551273
 40
0.0265092889688834
 40
0.0299474323806112
 40
0.0327393496259069
 40
0.0346452929387219
 40
0.0353553387057054
 40
0.0353553387057054
 40
0.0353553387057054
 40
0.0353553387057054
 10
176.0753602376644
 20
-101.5460190316564
 30
0.0
 10
176.074278375857
 20
-101.544937169849
 30
0.0
 10
176.0720992922425
 20
-101.5427580862344
 30
0.0
 10
176.0688317425783
 20
-101.5394905365701
 30
0.0
 10
176.0655891601864
 20
-101.5362479541783
 30
0.0
 10
176.0624416965815
 20
-101.5331004905734
 30
0.0
 10
176.0594609469143
 20
-101.5301197409063
 30
0.0
 10
176.0567267136085
 20
-101.5273855076002
 30
0.0
 10
176.0543365221171
 20
-101.5249953161091
 30
0.0
 10
176.0524188475909
 20
-101.5230776415826
 30
0.0
 10
176.0511441918461
 20
-101.5218029858379
 30
0.0
 10
176.0505275973068
 20
-101.5211863912987
 30
0.0
 10
176.0503602379145
 20
-101.5210190319064
 30
0.0
 11
176.0753602376644
 21
-101.5460190316564
 31
0.0
 11
176.0721146522424
 21
-101.5427734462343
 31
0.0
 11
176.0688229868208
 21
-101.5394817808127
 31
0.0
 11
176.0655575886716
 21
-101.5362163826635
 31
0.0
 11
176.0623869050669
 21
-101.5330456990588
 31
0.0
 11
176.0593805960061
 21
-101.530039389998
 31
0.0
 11
176.0566153396702
 21
-101.527274133662
 31
0.0
 11
176.054184205149
 21
-101.5248429991409
 31
0.0
 11
176.0522100215324
 21
-101.5228688155242
 31
0.0
 11
176.0508623160913
 21
-101.5215211100832
 31
0.0
 11
176.0503602379145
 21
-101.5210190319064
 31
0.0
  0
SPLINE
  5
905
330
31
100
AcDbEntity
  8
0
  6
Continuous
 62
     7
100
AcDbSpline
210
0.0
220
0.0
230
1.0
 70
     8
 71
     3
 72
     9
 73
     5
 74
     3
 42
0.0000000001
 43
0.0000000001
 44
0.0000000001
 40
0.0
 40
0.0
 40
0.0
 40
0.0
 40
0.0074815796132412
 40
0.0141574876835457
 40
0.0141574876835457
 40
0.0141574876835457
 40
0.0141574876835457
 10
176.0503602379145
 20
-101.4372892054709
 30
0.0
 10
176.0504130695251
 20
-101.4347913411809
 30
0.0
 10
176.0505130434497
 20
-101.4300646010072
 30
0.0
 10
176.051350475527
 20
-101.4254126817855
 30
0.0
 10
176.0517453633551
 20
-101.4232190874298
 30
0.0
 11
176.0503602379145
 21
-101.4372892054709
 31
0.0
 11
176.0507246779109
 21
-101.4298165073639
 31
0.0
 11
176.0517453633551
 21
-101.4232190874298
 31
0.0
  0
SPLINE
  5
906
330
31
100
AcDbEntity
  8
0
  6
Continuous
 62
     7
100
AcDbSpline
210
0.0
220
0.0
230
1.0
 70
     8
 71
     3
 72
    17
 73
    13
 74
    11
 42
0.0000000001
 43
0.0000000001
 44
0.0000000001
 40
0.0
 40
0.0
 40
0.0
 40
0.0
 40
0.0018167421422965
 40
0.0041063264670082
 40
0.0067046627166751
 40
0.0094647682772045
 40
0.0124001221237905
 40
0.0158206024267049
 40
0.019793289428603
 40
0.0241883439487442
 40
0.0288936397402504
 40
0.033763031592871
 40
0.033763031592871
 40
0.033763031592871
 40
0.033763031592871
 10
176.0517453633551
 20
-101.4232190874298
 30
0.0
 10
176.0521638750813
 20
-101.4236567815035
 30
0.0
 10
176.0531098242823
 20
-101.4246460879755
 30
0.0
 10
176.0546580769462
 20
-101.4262578094047
 30
0.0
 10
176.0564277404132
 20
-101.4280928691199
 30
0.0
 10
176.0583511231874
 20
-101.4300787230459
 30
0.0
 10
176.0604696853536
 20
-101.4322570437084
 30
0.0
 10
176.0628753903006
 20
-101.4347199178145
 30
0.0
 10
176.0656270418601
 20
-101.4375250374492
 30
0.0
 10
176.06868650913
 20
-101.4406281018241
 30
0.0
 10
176.0719570480906
 20
-101.4439428386251
 30
0.0
 10
176.0742129535064
 20
-101.4462004957841
 30
0.0
 10
176.0753602376644
 20
-101.4473486708249
 30
0.0
 11
176.0517453633551
 21
-101.4232190874298
 31
0.0
 11
176.053001346979
 21
-101.424531740144
 31
0.0
 11
176.0545872796904
 21
-101.4261831074002
 31
0.0
 11
176.0563909614906
 21
-101.4280534237451
 31
0.0
 11
176.0583111451077
 21
-101.4300361182707
 31
0.0
 11
176.0603576414509
 21
-101.4321404364315
 31
0.0
 11
176.0627475705179
 21
-101.4345874600434
 31
0.0
 11
176.0655295923083
 21
-101.4374234072878
 31
0.0
 11
176.0686140886411
 21
-101.4405542836201
 31
0.0
 11
176.071922088608
 21
-101.443900467223
 31
0.0
 11
176.0753602376644
 21
-101.4473486708249
 31
0.0
  0
SPLINE
  5
907
330
31
100
AcDbEntity
  8
0
  6
Continuous
 62
     9
100
AcDbSpline
210
0.0
220
0.0
230
1.0
 70
     8
 71
     3
 72
     9
 73
     5
 74
     3
 42
0.0000000001
 43
0.0000000001
 44
0.0000000001
 40
0.0
 40
0.0
 40
0.0
 40
0.0
 40
0.0010002735177749
 40
0.002000001059754
 40
0.002000001059754
 40
0.002000001059754
 40
0.002000001059754
 10
176.0773602376445
 20
-101.4473522962794
 30
0.0
 10
176.0776936618402
 20
-101.4473518313016
 30
0.0
 10
176.0783603282398
 20
-101.4473509015999
 30
0.0
 10
176.0790269951602
 20
-101.4473504895306
 30
0.0
 10
176.0793602376245
 20
-101.4473502835522
 30
0.0
 11
176.0773602376445
 21
-101.4473522962794
 31
0.0
 11
176.0783605103618
 21
-101.4473510308249
 31
0.0
 11
176.0793602376245
 21
-101.4473502835522
 31
0.0
  0
SPLINE
  5
908
330
31
100
AcDbEntity
  8
0
  6
Continuous
 62
     7
100
AcDbSpline
210
0.0
220
0.0
230
1.0
 70
     8
 71
     3
 72
    10
 73
     6
 74
     4
 42
0.0000000001
 43
0.0000000001
 44
0.0000000001
 40
0.0
 40
0.0
 40
0.0
 40
0.0
 40
0.0085758126414911
 40
0.0171270834650461
 40
0.0256149834074485
 40
0.0256149834074485
 40
0.0256149834074485
 40
0.0256149834074485
 10
176.0773602376445
 20
-101.4232190328844
 30
0.0
 10
176.0802188418577
 20
-101.4232190564106
 30
0.0
 10
176.0859278696781
 20
-101.4232191033957
 30
0.0
 10
176.0944661974897
 20
-101.4232188285694
 30
0.0
 10
176.1001459210554
 20
-101.4232194091355
 30
0.0
 10
176.1029752210248
 20
-101.4232196983389
 30
0.0
 11
176.0773602376445
 21
-101.4232190328844
 31
0.0
 11
176.085936050286
 21
-101.4232190456117
 31
0.0
 11
176.0944873211095
 21
-101.4232190201571
 31
0.0
 11
176.1029752210248
 21
-101.4232196983389
 31
0.0
  0
SPLINE
  5
909
330
31
100
AcDbEntity
  8
0
  6
Continuous
 62
     7
100
AcDbSpline
210
0.0
220
0.0
230
1.0
 70
     8
 71
     3
 72
    13
 73
     9
 74
     7
 42
0.0000000001
 43
0.0000000001
 44
0.0000000001
 40
0.0
 40
0.0
 40
0.0
 40
0.0
 40
0.0026519816678506
 40
0.006509720757775
 40
0.0116666813985618
 40
0.0180797249118209
 40
0.0255383230293587
 40
0.0337630062048863
 40
0.0337630062048863
 40
0.0337630062048863
 40
0.0337630062048863
 10
176.1029751119338
 20
-101.4232190874298
 30
0.0
 10
176.1023640387523
 20
-101.4238578640167
 30
0.0
 10
176.1008640601428
 20
-101.425425845145
 30
0.0
 10
176.0981658093681
 20
-101.4282263824816
 30
0.0
 10
176.0945853952502
 20
-101.431917846672
 30
0.0
 10
176.0901501054599
 20
-101.4364521954388
 30
0.0
 10
176.0849835635449
 20
-101.4417016754663
 30
0.0
 10
176.0812947425108
 20
-101.4454060233118
 30
0.0
 10
176.0793602376245
 20
-101.4473486708249
 30
0.0
 11
176.1029751119338
 21
-101.4232190874298
 31
0.0
 11
176.1011409664976
 21
-101.4251345292288
 31
0.0
 11
176.0984649737971
 21
-101.4279132364737
 31
0.0
 11
176.0948745829239
 21
-101.431615038255
 31
0.0
 11
176.0903916338778
 21
-101.4362009182091
 31
0.0
 11
176.0851577648393
 21
-101.4415147963378
 31
0.0
 11
176.0793602376245
 21
-101.4473486708249
 31
0.0
  0
SPLINE
  5
90A
330
31
100
AcDbEntity
  8
0
  6
Continuous
 62
     7
100
AcDbSpline
210
0.0
220
0.0
230
1.0
 70
     8
 71
     3
 72
    10
 73
     6
 74
     4
 42
0.0000000001
 43
0.0000000001
 44
0.0000000001
 40
0.0
 40
0.0
 40
0.0
 40
0.0
 40
0.0084897563040646
 40
0.0170406598549292
 40
0.0256149779510333
 40
0.0256149779510333
 40
0.0256149779510333
 40
0.0256149779510333
 10
176.0517452597189
 20
-101.4232196765207
 30
0.0
 10
176.0545751784762
 20
-101.4232193965138
 30
0.0
 10
176.0602553984063
 20
-101.4232188344833
 30
0.0
 10
176.0687937243985
 20
-101.4232191018942
 30
0.0
 10
176.074502131613
 20
-101.4232190559086
 30
0.0
 10
176.0773602376445
 20
-101.4232190328844
 30
0.0
 11
176.0517452597189
 21
-101.4232196765207
 31
0.0
 11
176.0602350159976
 21
-101.4232190201571
 31
0.0
 11
176.0687859195484
 21
-101.4232190456117
 31
0.0
 11
176.0773602376445
 21
-101.4232190328844
 31
0.0
  0
SPLINE
  5
90B
330
31
100
AcDbEntity
  8
0
  6
Continuous
 62
     9
100
AcDbSpline
210
0.0
220
0.0
230
1.0
 70
     8
 71
     3
 72
     9
 73
     5
 74
     3
 42
0.0000000001
 43
0.0000000001
 44
0.0000000001
 40
0.0
 40
0.0
 40
0.0
 40
0.0
 40
0.0009997329953147
 40
0.0020000010584848
 40
0.0020000010584848
 40
0.0020000010584848
 40
0.0020000010584848
 10
176.0753602376644
 20
-101.4473502853703
 30
0.0
 10
176.075693481947
 20
-101.4473504905898
 30
0.0
 10
176.0763601488682
 20
-101.4473509011387
 30
0.0
 10
176.0770268152671
 20
-101.4473518311495
 30
0.0
 10
176.0773602376445
 20
-101.4473522962794
 30
0.0
 11
176.0753602376644
 21
-101.4473502853703
 31
0.0
 11
176.0763599703818
 21
-101.4473510308249
 31
0.0
 11
176.0773602376445
 21
-101.4473522962794
 31
0.0
  0
SPLINE
  5
90C
330
31
100
AcDbEntity
  8
0
  6
Continuous
 62
     7
100
AcDbSpline
210
0.0
220
0.0
230
1.0
 70
     8
 71
     3
 72
     9
 73
     5
 74
     3
 42
0.0000000001
 43
0.0000000001
 44
0.0000000001
 40
0.0
 40
0.0
 40
0.0
 40
0.0
 40
0.007482340614987
 40
0.0141574079776023
 40
0.0141574079776023
 40
0.0141574079776023
 40
0.0141574079776023
 10
176.1880900656281
 20
-101.5210190319064
 30
0.0
 10
176.1905881844798
 20
-101.5210718745443
 30
0.0
 10
176.1953148989639
 20
-101.5211718586031
 30
0.0
 10
176.1999667888551
 20
-101.5220092974632
 30
0.0
 10
176.2021601054874
 20
-101.5224041409835
 30
0.0
 11
176.1880900656281
 21
-101.5210190319064
 31
0.0
 11
176.195563521917
 21
-101.5213835482664
 31
0.0
 11
176.2021601054874
 21
-101.5224041409835
 31
0.0
  0
SPLINE
  5
90D
330
31
100
AcDbEntity
  8
0
  6
Continuous
 62
     7
100
AcDbSpline
210
0.0
220
0.0
230
1.0
 70
    24
 71
     3
 72
    17
 73
    13
 74
    11
 42
0.0000000001
 43
0.0000000001
 44
0.0000000001
 40
0.0
 40
0.0
 40
0.0
 40
0.0
 40
0.004589950921764
 40
0.0092450688037142
 40
0.0138630391529358
 40
0.0183470629086775
 40
0.0225986259551675
 40
0.0265092889689839
 40
0.0299474323806514
 40
0.0327393496259471
 40
0.0346452929387621
 40
0.0353553387057456
 40
0.0353553387057456
 40
0.0353553387057456
 40
0.0353553387057456
 10
176.0793602376245
 20
-101.5460190316564
 30
0.0
 10
176.0804420994318
 20
-101.544937169849
 30
0.0
 10
176.0826211830465
 20
-101.5427580862345
 30
0.0
 10
176.0858887327106
 20
-101.5394905365701
 30
0.0
 10
176.0891313151025
 20
-101.5362479541784
 30
0.0
 10
176.0922787787074
 20
-101.5331004905734
 30
0.0
 10
176.0952595283746
 20
-101.5301197409062
 30
0.0
 10
176.0979937616805
 20
-101.5273855076002
 30
0.0
 10
176.1003839531719
 20
-101.5249953161091
 30
0.0
 10
176.102301627698
 20
-101.5230776415826
 30
0.0
 10
176.1035762834429
 20
-101.5218029858379
 30
0.0
 10
176.1041928779822
 20
-101.5211863912987
 30
0.0
 10
176.1043602373745
 20
-101.5210190319064
 30
0.0
 11
176.0793602376245
 21
-101.5460190316564
 31
0.0
 11
176.0826058230466
 21
-101.5427734462343
 31
0.0
 11
176.0858974884681
 21
-101.5394817808127
 31
0.0
 11
176.0891628866174
 21
-101.5362163826635
 31
0.0
 11
176.0923335702221
 21
-101.5330456990588
 31
0.0
 11
176.0953398792829
 21
-101.530039389998
 31
0.0
 11
176.0981051356189
 21
-101.527274133662
 31
0.0
 11
176.10053627014
 21
-101.5248429991409
 31
0.0
 11
176.1025104537566
 21
-101.5228688155242
 31
0.0
 11
176.1038581591977
 21
-101.5215211100832
 31
0.0
 11
176.1043602373745
 21
-101.5210190319064
 31
0.0
  0
SPLINE
  5
90E
330
31
100
AcDbEntity
  8
0
  6
Continuous
 62
     7
100
AcDbSpline
210
0.0
220
0.0
230
1.0
 70
     8
 71
     3
 72
     9
 73
     5
 74
     3
 42
0.0000000001
 43
0.0000000001
 44
0.0000000001
 40
0.0
 40
0.0
 40
0.0
 40
0.0
 40
0.0066762349801931
 40
0.0141574878425325
 40
0.0141574878425325
 40
0.0141574878425325
 40
0.0141574878425325
 10
176.1029751119338
 20
-101.4232190874298
 30
0.0
 10
176.1033700167232
 20
-101.4254127898512
 30
0.0
 10
176.1042074437718
 20
-101.4300647105003
 30
0.0
 10
176.1043074113994
 20
-101.4347914504298
 30
0.0
 10
176.1043602373745
 20
-101.4372892054709
 30
0.0
 11
176.1029751119338
 21
-101.4232190874298
 31
0.0
 11
176.1039958319236
 21
-101.4298168328184
 31
0.0
 11
176.1043602373745
 21
-101.4372892054709
 31
0.0
  0
SPLINE
  5
90F
330
31
100
AcDbEntity
  8
0
  6
Continuous
 62
     7
100
AcDbSpline
210
0.0
220
0.0
230
1.0
 70
     8
 71
     3
 72
    17
 73
    13
 74
    11
 42
0.0000000001
 43
0.0000000001
 44
0.0000000001
 40
0.0
 40
0.0
 40
0.0
 40
0.0
 40
0.0048925623432534
 40
0.009630562041764
 40
0.0140528852098811
 40
0.0180372151660554
 40
0.0214454665889781
 40
0.0243569606667549
 40
0.0270978260147655
 40
0.0296809867818209
 40
0.0319577732422658
 40
0.033763774053952
 40
0.033763774053952
 40
0.033763774053952
 40
0.033763774053952
 10
176.1780294566378
 20
-101.5500190316164
 30
0.0
 10
176.1791863035821
 20
-101.5511685489038
 30
0.0
 10
176.1814634511152
 20
-101.5534312686767
 30
0.0
 10
176.184789757966
 20
-101.5567295008528
 30
0.0
 10
176.1879095326121
 20
-101.5598060317498
 30
0.0
 10
176.1907202810078
 20
-101.5625646438481
 30
0.0
 10
176.1931773983113
 20
-101.5649645822362
 30
0.0
 10
176.1953426459499
 20
-101.5670701333151
 30
0.0
 10
176.1973147534149
 20
-101.568979788107
 30
0.0
 10
176.1991386929971
 20
-101.5707383109447
 30
0.0
 10
176.2007412725466
 20
-101.5722774520186
 30
0.0
 10
176.2017249699672
 20
-101.5732179137023
 30
0.0
 10
176.2021601036692
 20
-101.5736339222893
 30
0.0
 11
176.1780294566378
 21
-101.5500190316164
 31
0.0
 11
176.1815006166031
 21
-101.5534669606728
 31
0.0
 11
176.1848660529331
 21
-101.5568019988213
 31
0.0
 11
176.1880147819925
 21
-101.5599072278811
 31
0.0
 11
176.1908585365095
 21
-101.5626979169441
 31
0.0
 11
176.1932967983033
 21
-101.5650793151021
 31
0.0
 11
176.1953841564643
 21
-101.567109027809
 31
0.0
 11
176.1973532273537
 21
-101.5690156223355
 31
0.0
 11
176.1992128255169
 21
-101.570808556863
 31
0.0
 11
176.2008551218641
 21
-101.5723854586654
 31
0.0
 11
176.2021601036692
 21
-101.5736339222893
 31
0.0
  0
SPLINE
  5
910
330
31
100
AcDbEntity
  8
0
  6
Continuous
 62
     7
100
AcDbSpline
210
0.0
220
0.0
230
1.0
 70
     8
 71
     3
 72
     9
 73
     5
 74
     3
 42
0.0000000001
 43
0.0000000001
 44
0.0000000001
 40
0.0
 40
0.0
 40
0.0
 40
0.0
 40
0.0066750673625073
 40
0.0141574061615731
 40
0.0141574061615731
 40
0.0141574061615731
 40
0.0141574061615731
 10
176.2021601036692
 20
-101.5736339222893
 30
0.0
 10
176.1999667870373
 20
-101.5740287658103
 30
0.0
 10
176.1953148977437
 20
-101.5748662045648
 30
0.0
 10
176.1905881838709
 20
-101.5749661886962
 30
0.0
 10
176.1880900656281
 20
-101.5750190313664
 30
0.0
 11
176.2021601036692
 21
-101.5736339222893
 31
0.0
 11
176.1955635200989
 21
-101.5746545150064
 31
0.0
 11
176.1880900656281
 21
-101.5750190313664
 31
0.0
  0
LINE
  5
FC1
330
31
100
AcDbEntity
  8
0
100
AcDbLine
 10
289.9096985483124
 20
-158.3185216021131
 30
0.0
 11
193.9096985483123
 21
-158.3185216021132
 31
0.0
  0
LINE
  5
FC2
330
31
100
AcDbEntity
  8
0
100
AcDbLine
 10
289.9096985483124
 20
-160.5685216021134
 30
0.0
 11
193.9096985483123
 21
-160.5685216021135
 31
0.0
  0
LINE
  5
FC3
330
31
100
AcDbEntity
  8
0
100
AcDbLine
 10
289.9096985483124
 20
-104.3185216021132
 30
0.0
 11
289.9096985483124
 21
-160.5685216021134
 31
0.0
  0
LINE
  5
FC5
330
31
100
AcDbEntity
  8
0
100
AcDbLine
 10
290.2846985483124
 20
-160.2576032929902
 30
0.0
 11
290.2846985483124
 21
-160.3570399112366
 31
0.0
  0
LINE
  5
FC6
330
31
100
AcDbEntity
  8
0
100
AcDbLine
 10
290.1616985483124
 20
-160.5573216021134
 30
0.0
 11
290.1616985483124
 21
-160.3073216021134
 31
0.0
  0
LINE
  5
FC7
330
31
100
AcDbEntity
  8
0
100
AcDbLine
 10
290.1616985483124
 20
-160.3073216021134
 30
0.0
 11
290.1616985483124
 21
-160.0573216021134
 31
0.0
  0
ARC
  5
FC8
330
31
100
AcDbEntity
  8
0
100
AcDbCircle
 10
290.0010129753019
 20
-160.2939143886186
 30
0.0
 40
0.286
100
AcDbArc
 50
7.294065611215637
 51
55.81701977390078
  0
ARC
  5
FC9
330
31
100
AcDbEntity
  8
0
100
AcDbCircle
 10
290.0010129753019
 20
-160.3207288156082
 30
0.0
 40
0.2859999999999999
100
AcDbArc
 50
304.1829802260992
 51
352.7059343887843
  0
LINE
  5
FCA
330
31
100
AcDbEntity
  8
0
100
AcDbLine
 10
290.1616985483124
 20
-160.5573216021134
 30
0.0
 11
289.9096985483124
 21
-160.5573216021134
 31
0.0
  0
LINE
  5
FCB
330
31
100
AcDbEntity
  8
0
100
AcDbLine
 10
290.1616985483124
 20
-160.0573216021134
 30
0.0
 11
289.9096985483124
 21
-160.0573216021134
 31
0.0
  0
LINE
  5
FCC
330
31
100
AcDbEntity
  8
0
100
AcDbLine
 10
193.5346985483123
 20
-160.3570399112367
 30
0.0
 11
193.5346985483123
 21
-160.2576032929902
 31
0.0
  0
LINE
  5
FCD
330
31
100
AcDbEntity
  8
0
100
AcDbLine
 10
193.6576985483123
 20
-160.0573216021134
 30
0.0
 11
193.6576985483123
 21
-160.3073216021134
 31
0.0
  0
LINE
  5
FCE
330
31
100
AcDbEntity
  8
0
100
AcDbLine
 10
193.6576985483123
 20
-160.3073216021134
 30
0.0
 11
193.6576985483123
 21
-160.5573216021134
 31
0.0
  0
ARC
  5
FCF
330
31
100
AcDbEntity
  8
0
100
AcDbCircle
 10
193.8183841213228
 20
-160.3207288156083
 30
0.0
 40
0.286
100
AcDbArc
 50
187.2940656112156
 51
235.8170197739008
  0
ARC
  5
FD0
330
31
100
AcDbEntity
  8
0
100
AcDbCircle
 10
193.8183841213228
 20
-160.2939143886187
 30
0.0
 40
0.2859999999999999
100
AcDbArc
 50
124.1829802260992
 51
172.7059343887843
  0
LINE
  5
FD1
330
31
100
AcDbEntity
  8
0
100
AcDbLine
 10
193.6576985483123
 20
-160.0573216021134
 30
0.0
 11
193.9096985483123
 21
-160.0573216021134
 31
0.0
  0
LINE
  5
FD2
330
31
100
AcDbEntity
  8
0
100
AcDbLine
 10
193.6576985483123
 20
-160.5573216021134
 30
0.0
 11
193.9096985483123
 21
-160.5573216021134
 31
0.0
  0
LINE
  5
FD3
330
31
100
AcDbEntity
  8
0
100
AcDbLine
 10
289.9096985483124
 20
-106.3185216021131
 30
0.0
 11
193.9096985483123
 21
-106.3185216021132
 31
0.0
  0
LINE
  5
FD6
330
31
100
AcDbEntity
  8
0
100
AcDbLine
 10
289.9096985483124
 20
-104.3185216021131
 30
0.0
 11
193.9096985483123
 21
-104.3185216021132
 31
0.0
  0
LINE
  5
FD7
330
31
100
AcDbEntity
  8
0
100
AcDbLine
 10
193.9096985483123
 20
-104.3185216021132
 30
0.0
 11
193.9096985483124
 21
-160.5685216021135
 31
0.0
  0
LINE
  5
FD8
330
31
100
AcDbEntity
  8
0
100
AcDbLine
 10
195.9096985483123
 20
-106.3185216021132
 30
0.0
 11
195.9096985483123
 21
-158.3185216021132
 31
0.0
  0
LINE
  5
FD9
330
31
100
AcDbEntity
  8
0
100
AcDbLine
 10
287.9096985483123
 20
-106.3185216021132
 30
0.0
 11
287.9096985483124
 21
-158.3185216021132
 31
0.0
  0
DIMENSION
  5
101B
330
31
100
AcDbEntity
  8
6
100
AcDbDimension
  2
*D16
 10
308.2381321700647
 20
-104.3185216021132
 30
0.0
 11
315.7981321700646
 21
-97.83852160211315
 31
0.0
 70
    32
  1
<>\PBLK.
 71
     5
 42
1.999999999999884
  3
STANDARD
100
AcDbAlignedDimension
 13
289.9096985483124
 23
-106.3185216021131
 33
0.0
 14
289.9096985483124
 24
-104.3185216021132
 34
0.0
 50
90.0
100
AcDbRotatedDimension
  0
DIMENSION
  5
102A
330
31
100
AcDbEntity
  8
6
100
AcDbDimension
  2
*D17
 10
308.2381321700646
 20
-158.3185216021132
 30
0.0
 11
308.2381321700647
 21
-132.3185216021131
 31
0.0
 70
    32
  1
<>\PV.A.
 71
     5
 42
51.99999999999997
  3
STANDARD
100
AcDbAlignedDimension
 13
287.9096985483123
 23
-106.3185216021132
 33
0.0
 14
287.9096985483124
 24
-158.3185216021132
 34
0.0
 50
90.0
100
AcDbRotatedDimension
  0
DIMENSION
  5
1038
330
31
100
AcDbEntity
  8
6
100
AcDbDimension
  2
*D18
 10
308.2381321700646
 20
-158.3185216021131
 30
0.0
 11
298.2781321700647
 21
-167.0485216021134
 31
0.0
 70
   160
  1
<>\PPOCKET
 71
     5
 42
2.250000000000312
  3
STANDARD
100
AcDbAlignedDimension
 13
289.9096985483124
 23
-160.5685216021134
 33
0.0
 14
289.9096985483124
 24
-158.3185216021131
 34
0.0
 50
90.0
100
AcDbRotatedDimension
  0
DIMENSION
  5
1072
330
31
100
AcDbEntity
  8
6
100
AcDbDimension
  2
*D19
 10
318.9235519237923
 20
-160.5685216021134
 30
0.0
 11
318.9235519237923
 21
-129.9235216021133
 31
0.0
 70
   160
 71
     5
 42
56.25000000000021
  3
STANDARD
100
AcDbAlignedDimension
 13
292.5346980620623
 23
-104.3185216021132
 33
0.0
 14
289.9096985483124
 24
-160.5685216021134
 34
0.0
 50
90.0
100
AcDbRotatedDimension
  0
DIMENSION
  5
1080
330
31
100
AcDbEntity
  8
6
100
AcDbDimension
  2
*D20
 10
193.5346985483123
 20
-175.4437355665264
 30
0.0
 11
241.9096985483124
 21
-175.4437355665264
 31
0.0
 70
    32
  1
<> OVERALL LENGTH OF SLAT
 71
     5
 42
96.75000000000013
  3
STANDARD
100
AcDbAlignedDimension
 13
290.2846985483124
 23
-160.3073216021134
 33
0.0
 14
193.5346985483123
 24
-160.3073216021135
 34
0.0
100
AcDbRotatedDimension
  0
DIMENSION
  5
108E
330
31
100
AcDbEntity
  8
6
100
AcDbDimension
  2
*D21
 10
193.9096985483123
 20
-170.5735392851224
 30
0.0
 11
241.9096985483124
 21
-170.5735392851224
 31
0.0
 70
    32
  1
<> FABRIC WIDTH
 71
     5
 42
96.00000000000013
  3
STANDARD
100
AcDbAlignedDimension
 13
289.9096985483124
 23
-160.5685216021134
 33
0.0
 14
193.9096985483123
 24
-160.5685216021135
 34
0.0
100
AcDbRotatedDimension
  0
DIMENSION
  5
109C
330
31
100
AcDbEntity
  8
6
100
AcDbDimension
  2
*D22
 10
195.9096985483123
 20
-165.4697573333484
 30
0.0
 11
241.9096985483124
 21
-165.4697573333484
 31
0.0
 70
    32
  1
<> V.A.
 71
     5
 42
92.00000000000013
  3
STANDARD
100
AcDbAlignedDimension
 13
287.9096985483124
 23
-158.3185216021132
 33
0.0
 14
195.9096985483123
 24
-158.3185216021132
 34
0.0
100
AcDbRotatedDimension
  0
DIMENSION
  5
10B4
330
31
100
AcDbEntity
  8
6
100
AcDbDimension
  2
*D23
 10
193.9096985483123
 20
-165.4697573333484
 30
0.0
 11
179.8096985483123
 21
-165.4697573333484
 31
0.0
 70
    32
  1
<>\PBORDERS
 71
     5
 42
2.0
  3
STANDARD
100
AcDbAlignedDimension
 13
195.9096985483123
 23
-158.3185216021132
 33
0.0
 14
193.9096985483123
 24
-160.5685216021135
 34
0.0
100
AcDbRotatedDimension
  0
DIMENSION
  5
1167
330
31
100
AcDbEntity
  8
6
100
AcDbDimension
  2
*D24
 10
195.9096985483123
 20
-158.3185216021132
 30
0.0
 11
241.9096985483123
 21
-132.3185216021132
 31
0.0
 70
    33
  1
106" DIAG.\PACTUAL <>
 71
     5
 42
105.6787585089832
  3
STANDARD
100
AcDbAlignedDimension
 13
287.9096985483123
 23
-106.3185216021132
 33
0.0
 14
195.9096985483123
 24
-158.3185216021132
 34
0.0
  0
LWPOLYLINE
  5
12B0
102
{ACAD_REACTORS
330
12B5
102
}
330
31
100
AcDbEntity
  8
0
100
AcDbPolyline
 90
        4
 70
     1
 43
0.0
 10
193.9096985483123
 20
-106.3185216021132
 10
195.9096985483123
 20
-106.3185216021132
 10
195.9096985483123
 20
-158.3185216021132
 10
193.9096985483123
 20
-158.3185216021132
  0
LWPOLYLINE
  5
12B1
102
{ACAD_REACTORS
330
12B5
102
}
330
31
100
AcDbEntity
  8
0
100
AcDbPolyline
 90
        4
 70
     1
 43
0.0
 10
287.9096985483124
 20
-158.3185216021132
 10
289.9096985483124
 20
-158.3185216021132
 10
289.9096985483124
 20
-106.3185216021132
 10
287.9096985483124
 20
-106.3185216021132
  0
LWPOLYLINE
  5
12B2
102
{ACAD_REACTORS
330
12B7
102
}
330
31
100
AcDbEntity
  8
0
100
AcDbPolyline
 90
        4
 70
     1
 43
0.0
 10
289.9096985483124
 20
-106.3185216021132
 10
193.9096985483123
 20
-106.3185216021132
 10
193.9096985483123
 20
-104.3185216021132
 10
289.9096985483124
 20
-104.3185216021132
  0
LWPOLYLINE
  5
12B3
102
{ACAD_REACTORS
330
12B7
102
}
330
31
100
AcDbEntity
  8
0
100
AcDbPolyline
 90
        4
 70
     1
 43
0.0
 10
193.9096985483124
 20
-158.3185216021132
 10
289.9096985483124
 20
-158.3185216021132
 10
289.9096985483124
 20
-160.5685216021134
 10
193.9096985483124
 20
-160.5685216021134
  0
HATCH
  5
12B5
330
31
100
AcDbEntity
  8
0
 62
     2
100
AcDbHatch
 10
0.0
 20
0.0
 30
0.0
210
0.0
220
0.0
230
1.0
  2
ANSI31
 70
     0
 71
     1
 91
        2
 92
        1
 93
        4
 72
     1
 10
287.9096985483124
 20
-158.3185216021132
 11
289.9096985483124
 21
-158.3185216021132
 72
     1
 10
289.9096985483124
 20
-158.3185216021132
 11
289.9096985483124
 21
-106.3185216021132
 72
     1
 10
289.9096985483124
 20
-106.3185216021132
 11
287.9096985483124
 21
-106.3185216021132
 72
     1
 10
287.9096985483124
 20
-106.3185216021132
 11
287.9096985483124
 21
-158.3185216021132
 97
        1
330
12B1
 92
        1
 93
        4
 72
     1
 10
193.9096985483123
 20
-106.3185216021132
 11
195.9096985483123
 21
-106.3185216021132
 72
     1
 10
195.9096985483123
 20
-106.3185216021132
 11
195.9096985483123
 21
-158.3185216021132
 72
     1
 10
195.9096985483123
 20
-158.3185216021132
 11
193.9096985483123
 21
-158.3185216021132
 72
     1
 10
193.9096985483123
 20
-158.3185216021132
 11
193.9096985483123
 21
-106.3185216021132
 97
        1
330
12B0
 75
     0
 76
     1
 52
90.0
 41
10.0
 77
     0
 78
     1
 53
135.0
 43
12.0
 44
8.0
 45
-0.8838834764831844
 46
-0.8838834764831842
 79
     0
 98
        1
 10
12.0
 20
8.0
  0
HATCH
  5
12B7
330
31
100
AcDbEntity
  8
0
 62
     2
100
AcDbHatch
 10
0.0
 20
0.0
 30
0.0
210
0.0
220
0.0
230
1.0
  2
ANSI31
 70
     0
 71
     1
 91
        2
 92
        1
 93
        4
 72
     1
 10
289.9096985483124
 20
-106.3185216021132
 11
193.9096985483123
 21
-106.3185216021132
 72
     1
 10
193.9096985483123
 20
-106.3185216021132
 11
193.9096985483123
 21
-104.3185216021132
 72
     1
 10
193.9096985483123
 20
-104.3185216021132
 11
289.9096985483124
 21
-104.3185216021132
 72
     1
 10
289.9096985483124
 20
-104.3185216021132
 11
289.9096985483124
 21
-106.3185216021132
 97
        1
330
12B2
 92
        1
 93
        4
 72
     1
 10
193.9096985483124
 20
-158.3185216021132
 11
289.9096985483124
 21
-158.3185216021132
 72
     1
 10
289.9096985483124
 20
-158.3185216021132
 11
289.9096985483124
 21
-160.5685216021134
 72
     1
 10
289.9096985483124
 20
-160.5685216021134
 11
193.9096985483124
 21
-160.5685216021134
 72
     1
 10
193.9096985483124
 20
-160.5685216021134
 11
193.9096985483124
 21
-158.3185216021132
 97
        1
330
12B3
 75
     0
 76
     1
 52
0.0
 41
10.0
 77
     0
 78
     1
 53
45.0
 43
12.0
 44
8.0
 45
-0.8838834764831842
 46
0.8838834764831844
 79
     0
 98
        1
 10
12.0
 20
8.0
  0
LINE
  5
12D2
330
31
100
AcDbEntity
  8
0
100
AcDbLine
 10
172.2756523018651
 20
-160.2751797307902
 30
0.0
 11
172.0276367637616
 21
-158.3185216021135
 31
0.0
  0
LINE
  5
12D3
330
31
100
AcDbEntity
  8
0
100
AcDbLine
 10
172.0276367637619
 20
-158.3185216021135
 30
0.0
 11
172.0396367637618
 21
-158.3185216021135
 31
0.0
  0
LINE
  5
12D4
330
31
100
AcDbEntity
  8
0
100
AcDbLine
 10
172.0396367637618
 20
-158.3185216021135
 30
0.0
 11
172.287462549636
 21
-160.2736827268358
 31
0.0
  0
LINE
  5
12D5
330
31
100
AcDbEntity
  8
0
100
AcDbLine
 10
171.7678109778876
 20
-160.2736827268358
 30
0.0
 11
172.0156367637618
 21
-158.3185216021135
 31
0.0
  0
LINE
  5
12D6
330
31
100
AcDbEntity
  8
0
100
AcDbLine
 10
172.0156367637618
 20
-158.3185216021135
 30
0.0
 11
172.0176367637618
 21
-158.3185216021135
 31
0.0
  0
LINE
  5
12D7
330
31
100
AcDbEntity
  8
0
100
AcDbLine
 10
172.0276367637619
 20
-158.3185216021135
 30
0.0
 11
171.7796212256585
 21
-160.2751797307902
 31
0.0
  0
LINE
  5
12D8
330
31
100
AcDbEntity
  8
0
100
AcDbLine
 10
172.0166367637618
 20
-116.3030190040863
 30
0.0
 11
172.0166367637617
 21
-158.3185216021135
 31
0.0
  0
LINE
  5
12D9
330
31
100
AcDbEntity
  8
0
100
AcDbLine
 10
172.0176367637618
 20
-116.3030190040863
 30
0.0
 11
172.0156367637618
 21
-116.3030190040863
 31
0.0
  0
LINE
  5
12DA
330
31
100
AcDbEntity
  8
0
100
AcDbLine
 10
172.0176367637618
 20
-116.3030190040863
 30
0.0
 11
172.0176367637618
 21
-158.3185216021134
 31
0.0
  0
LINE
  5
12DB
330
31
100
AcDbEntity
  8
0
100
AcDbLine
 10
172.0156367637618
 20
-104.3030190040864
 30
0.0
 11
172.0156367637618
 21
-116.3030190040863
 31
0.0
  0
LINE
  5
12DC
330
31
100
AcDbEntity
  8
0
100
AcDbLine
 10
172.0276367637619
 20
-158.3185216021135
 30
0.0
 11
172.0276367637618
 21
-104.3030190040864
 31
0.0
  0
ARC
  5
12DD
330
31
100
AcDbEntity
  8
0
100
AcDbCircle
 10
172.0276367637619
 20
-160.3066168562845
 30
0.0
 40
0.2619047458289574
100
AcDbArc
 50
172.776017130699
 51
7.223982869301
  0
CIRCLE
  5
12DE
330
31
100
AcDbEntity
  8
0
100
AcDbCircle
 10
172.0276367637619
 20
-160.3066168562845
 30
0.0
 40
0.0497183091231996
  0
CIRCLE
  5
12DF
330
31
100
AcDbEntity
  8
0
100
AcDbCircle
 10
172.0276367637619
 20
-160.3066168562845
 30
0.0
 40
0.2500000000000002
  0
DIMENSION
  5
1641
330
31
100
AcDbEntity
  8
6
100
AcDbDimension
  2
*D26
 10
176.6573602318445
 20
-92.94346218516819
 30
0.0
 11
173.6263602621545
 21
-92.94346218516819
 31
0.0
 70
   160
 71
     5
 42
6.061999939379973
  3
STANDARD
100
AcDbAlignedDimension
 13
170.5953602924645
 23
-97.9475190676414
 33
0.0
 14
176.6573602318445
 24
-97.9475190676414
 34
0.0
100
AcDbRotatedDimension
  0
DIMENSION
  5
166D
330
31
100
AcDbEntity
  8
6
100
AcDbDimension
  2
*D27
 10
177.5023602233945
 20
-107.2970764066807
 30
0.0
 11
188.3023602233945
 21
-107.2970764066807
 31
0.0
 70
    32
 71
     5
 42
7.754999922449997
  3
STANDARD
100
AcDbAlignedDimension
 13
169.7473603009445
 23
-104.3030190040864
 33
0.0
 14
177.5023602233945
 24
-104.3030190040864
 34
0.0
100
AcDbRotatedDimension
  0
DIMENSION
  5
167B
330
31
100
AcDbEntity
  8
6
100
AcDbDimension
  2
*D28
 10
157.0664886515868
 20
-104.3030190040864
 30
0.0
 11
157.0664886515869
 21
-101.0952690361639
 31
0.0
 70
   160
 71
     5
 42
6.415499935844991
  3
STANDARD
100
AcDbAlignedDimension
 13
170.6553602918645
 23
-97.8875190682414
 33
0.0
 14
169.7473603009445
 24
-104.3030190040864
 34
0.0
 50
90.0
100
AcDbRotatedDimension
  0
DIMENSION
  5
173C
330
31
100
AcDbEntity
  8
6
100
AcDbDimension
  2
*D29
 10
178.1263602171545
 20
-87.11283445859271
 30
0.0
 11
173.6263602621545
 21
-87.11283445859271
 31
0.0
 70
   160
 71
     5
 42
8.999999910000013
  3
STANDARD
100
AcDbAlignedDimension
 13
169.1263603071545
 23
-97.70851907003141
 33
0.0
 14
178.1263602171545
 24
-97.70851907003141
 34
0.0
100
AcDbRotatedDimension
  0
ENDSEC
  0
SECTION
  2
OBJECTS
  0
DICTIONARY
  5
A68
330
0
100
AcDbDictionary
281
     1
  3
ACAD_COLOR
350
CED
  3
ACAD_GROUP
350
A69
  3
ACAD_LAYOUT
350
CF0
  3
ACAD_MATERIAL
350
CEC
  3
ACAD_MLINESTYLE
350
A6A
  3
ACAD_PLOTSETTINGS
350
CF1
  3
ACAD_PLOTSTYLENAME
350
CEA
  3
ACAD_TABLESTYLE
350
CEE
  3
AcDbVariableDictionary
350
F97
  3
ASE_INDEX_DICTIONARY
350
F94
  0
DICTIONARY
  5
FD4
330
31
100
AcDbDictionary
280
     1
281
     1
  3
ACAD_SORTENTS
360
FD5
  0
DICTIONARY
  5
CED
102
{ACAD_REACTORS
330
A68
102
}
330
A68
100
AcDbDictionary
281
     1
  0
DICTIONARY
  5
A69
102
{ACAD_REACTORS
330
A68
102
}
330
A68
100
AcDbDictionary
281
     1
  0
DICTIONARY
  5
CF0
102
{ACAD_REACTORS
330
A68
102
}
330
A68
100
AcDbDictionary
281
     1
  3
Layout1
350
CF3
  3
Model
350
CF2
  0
DICTIONARY
  5
CEC
102
{ACAD_REACTORS
330
A68
102
}
330
A68
100
AcDbDictionary
281
     1
  0
DICTIONARY
  5
A6A
102
{ACAD_REACTORS
330
A68
102
}
330
A68
100
AcDbDictionary
281
     1
  3
STANDARD
350
A6B
  0
DICTIONARY
  5
CF1
102
{ACAD_REACTORS
330
A68
102
}
330
A68
100
AcDbDictionary
281
     1
  0
ACDBDICTIONARYWDFLT
  5
CEA
102
{ACAD_REACTORS
330
A68
102
}
330
A68
100
AcDbDictionary
281
     1
  3
Normal
350
CEB
100
AcDbDictionaryWithDefault
340
CEB
  0
DICTIONARY
  5
CEE
102
{ACAD_REACTORS
330
A68
102
}
330
A68
100
AcDbDictionary
281
     1
  3
Standard
350
CEF
  0
DICTIONARY
  5
F97
102
{ACAD_REACTORS
330
A68
102
}
330
A68
100
AcDbDictionary
281
     1
  3
CTABLESTYLE
350
F98
  3
DIMASSOC
350
F99
  3
PROJECTNAME
350
F9A
  0
DICTIONARY
  5
F94
102
{ACAD_REACTORS
330
A68
102
}
330
A68
100
AcDbDictionary
281
     1
  3
ASEBlockHierarchyIndexRecord
350
F96
1001
DCO15
1040
1573358554.911
  0
SORTENTSTABLE
  5
FD5
102
{ACAD_REACTORS
330
FD4
102
}
330
FD4
100
AcDbSortentsTable
330
31
331
AA
  5
AA
331
B2
  5
B2
331
BA
  5
BA
331
47
  5
47
331
87D
  5
87D
331
8E4
  5
8E4
331
FC3
  5
FC6
331
885
  5
885
331
8EC
  5
8EC
331
FCB
  5
FD1
331
88D
  5
88D
331
8F4
  5
8F4
331
8FC
  5
8FC
331
12B3
  5
12B7
331
895
  5
895
331
522
  5
522
331
559
  5
559
331
34D
  5
34D
331
187
  5
187
331
2D6
  5
2D6
331
4BB
  5
4BB
331
598
  5
598
331
7E8
  5
7E8
331
4C3
  5
4C3
331
355
  5
355
331
52A
  5
52A
331
561
  5
561
331
569
  5
569
331
3FC
  5
3FC
331
2F6
  5
2F6
331
35D
  5
35D
331
532
  5
532
331
1C7
  5
1C7
331
571
  5
571
331
7F8
  5
7F8
331
404
  5
404
331
4D3
  5
4D3
331
2FE
  5
2FE
331
365
  5
365
331
53A
  5
53A
331
93
  5
93
331
FD3
  5
FC2
331
904
  5
904
331
8C5
  5
8C5
331
8CD
  5
8CD
331
90C
  5
90C
331
8D5
  5
8D5
331
8DD
  5
8DD
331
542
  5
542
331
36D
  5
36D
331
49C
  5
49C
331
579
  5
579
331
336
  5
336
331
860
  5
860
331
54A
  5
54A
331
33E
  5
33E
331
375
  5
375
331
4A4
  5
4A4
331
581
  5
581
331
589
  5
589
331
868
  5
868
331
513
  5
513
331
552
  5
552
331
346
  5
346
331
25F
  5
25F
331
4B4
  5
4B4
331
591
  5
591
331
51B
  5
51B
331
16A
  5
16A
331
A3
  5
A3
331
AB
  5
AB
331
B3
  5
B3
331
BB
  5
BB
331
1167
  5
1194
331
87E
  5
87E
331
8E5
  5
8E5
331
8ED
  5
8ED
331
FCC
  5
FD2
331
886
  5
886
331
88E
  5
88E
331
8F5
  5
8F5
331
896
  5
896
331
8FD
  5
8FD
331
180
  5
180
331
55A
  5
55A
331
599
  5
599
331
4BC
  5
4BC
331
188
  5
188
331
34E
  5
34E
331
523
  5
523
331
52B
  5
52B
331
562
  5
562
331
4C4
  5
4C4
331
7E9
  5
7E9
331
356
  5
356
331
533
  5
533
331
35E
  5
35E
331
3FD
  5
3FD
331
56A
  5
56A
331
1C8
  5
1C8
331
2F7
  5
2F7
331
7F9
  5
7F9
331
2FF
  5
2FF
331
366
  5
366
331
53B
  5
53B
331
572
  5
572
331
C3
  5
C3
331
1038
  5
1072
331
94
  5
94
331
15B
  5
15B
331
1080
  5
108E
331
8C6
  5
8C6
331
905
  5
905
331
90D
  5
90D
331
8CE
  5
8CE
331
8D6
  5
8D6
331
8DE
  5
8DE
331
1F8
  5
1F8
331
57A
  5
57A
331
337
  5
337
331
36E
  5
36E
331
543
  5
543
331
582
  5
582
331
861
  5
861
331
4A5
  5
4A5
331
50C
  5
50C
331
33F
  5
33F
331
376
  5
376
331
54B
  5
54B
331
553
  5
553
331
58A
  5
58A
331
4B5
  5
4B5
331
347
  5
347
331
514
  5
514
331
869
  5
869
331
51C
  5
51C
331
3AE
  5
3AE
331
592
  5
592
331
A4
  5
A4
331
AC
  5
AC
331
B4
  5
B4
331
87F
  5
87F
331
8E6
  5
8E6
331
FC5
  5
FCB
331
FCD
  5
FD3
331
887
  5
887
331
8EE
  5
8EE
331
88F
  5
88F
331
8F6
  5
8F6
331
8FE
  5
8FE
331
12B5
  5
12B1
331
897
  5
897
331
181
  5
181
331
59A
  5
59A
331
34F
  5
34F
331
4BD
  5
4BD
331
7EA
  5
7EA
331
4C5
  5
4C5
331
357
  5
357
331
52C
  5
52C
331
563
  5
563
331
56B
  5
56B
331
3FE
  5
3FE
331
4CD
  5
4CD
331
2F8
  5
2F8
331
35F
  5
35F
331
534
  5
534
331
53C
  5
53C
331
573
  5
573
331
7FA
  5
7FA
331
367
  5
367
331
C4
  5
C4
331
85
  5
85
331
10C
  5
10C
331
15C
  5
15C
331
8C7
  5
8C7
331
906
  5
906
331
8CF
  5
8CF
331
90E
  5
90E
331
8D7
  5
8D7
331
8DF
  5
8DF
331
330
  5
330
331
36F
  5
36F
331
544
  5
544
331
57B
  5
57B
331
338
  5
338
331
862
  5
862
331
50D
  5
50D
331
54C
  5
54C
331
340
  5
340
331
377
  5
377
331
4A6
  5
4A6
331
583
  5
583
331
58B
  5
58B
331
86A
  5
86A
331
4B6
  5
4B6
331
515
  5
515
331
554
  5
554
331
593
  5
593
331
51D
  5
51D
331
A5
  5
A5
331
AD
  5
AD
331
B5
  5
B5
331
102A
  5
1038
331
FC6
  5
FCC
331
880
  5
880
331
8E7
  5
8E7
331
8EF
  5
8EF
331
FCE
  5
FD6
331
888
  5
888
331
890
  5
890
331
8F7
  5
8F7
331
8FF
  5
8FF
331
348
  5
348
331
182
  5
182
331
4BE
  5
4BE
331
59B
  5
59B
331
350
  5
350
331
52D
  5
52D
331
564
  5
564
331
358
  5
358
331
1C2
  5
1C2
331
2F1
  5
2F1
331
4C6
  5
4C6
331
7EB
  5
7EB
331
535
  5
535
331
360
  5
360
331
3FF
  5
3FF
331
56C
  5
56C
331
2F9
  5
2F9
331
7FB
  5
7FB
331
53D
  5
53D
331
574
  5
574
331
C5
  5
C5
331
1072
  5
1080
331
15D
  5
15D
331
FD6
  5
FC3
331
8C8
  5
8C8
331
907
  5
907
331
90F
  5
90F
331
8D0
  5
8D0
331
8D8
  5
8D8
331
331
  5
331
331
368
  5
368
331
57C
  5
57C
331
339
  5
339
331
370
  5
370
331
545
  5
545
331
54D
  5
54D
331
584
  5
584
331
4A7
  5
4A7
331
50E
  5
50E
331
863
  5
863
331
341
  5
341
331
378
  5
378
331
58C
  5
58C
331
4B7
  5
4B7
331
516
  5
516
331
86B
  5
86B
331
51E
  5
51E
331
594
  5
594
331
A6
  5
A6
331
AE
  5
AE
331
B6
  5
B6
331
101B
  5
102A
331
8E0
  5
8E0
331
881
  5
881
331
8E8
  5
8E8
331
FC7
  5
FCD
331
FCF
  5
FD7
331
889
  5
889
331
8F0
  5
8F0
331
891
  5
891
331
8F8
  5
8F8
331
12B7
  5
12B5
331
349
  5
349
331
183
  5
183
331
4BF
  5
4BF
331
351
  5
351
331
526
  5
526
331
7EC
  5
7EC
331
4C7
  5
4C7
331
52E
  5
52E
331
2F2
  5
2F2
331
359
  5
359
331
1C3
  5
1C3
331
3F8
  5
3F8
331
565
  5
565
331
56D
  5
56D
331
7F4
  5
7F4
331
400
  5
400
331
2FA
  5
2FA
331
361
  5
361
331
536
  5
536
331
53E
  5
53E
331
575
  5
575
331
7FC
  5
7FC
331
C6
  5
C6
331
FD7
  5
FC9
331
900
  5
900
331
8C9
  5
8C9
331
908
  5
908
331
8D1
  5
8D1
331
910
  5
910
331
8D9
  5
8D9
331
369
  5
369
331
332
  5
332
331
546
  5
546
331
371
  5
371
331
4A0
  5
4A0
331
57D
  5
57D
331
33A
  5
33A
331
864
  5
864
331
50F
  5
50F
331
54E
  5
54E
331
342
  5
342
331
379
  5
379
331
4B0
  5
4B0
331
585
  5
585
331
58D
  5
58D
331
517
  5
517
331
595
  5
595
331
51F
  5
51F
331
A7
  5
A7
331
AF
  5
AF
331
B7
  5
B7
331
17E
  5
17E
331
8E1
  5
8E1
331
8E9
  5
8E9
331
FC8
  5
FCE
331
882
  5
882
331
8F1
  5
8F1
331
FD8
  5
FCA
331
88A
  5
88A
331
892
  5
892
331
8F9
  5
8F9
331
12B0
  5
12B2
331
4B8
  5
4B8
331
34A
  5
34A
331
184
  5
184
331
3C9
  5
3C9
331
4C0
  5
4C0
331
2E3
  5
2E3
331
352
  5
352
331
527
  5
527
331
52F
  5
52F
331
566
  5
566
331
35A
  5
35A
331
3F9
  5
3F9
331
1C4
  5
1C4
331
2F3
  5
2F3
331
4C8
  5
4C8
331
7ED
  5
7ED
331
7F5
  5
7F5
331
537
  5
537
331
362
  5
362
331
401
  5
401
331
56E
  5
56E
331
2FB
  5
2FB
331
7FD
  5
7FD
331
53F
  5
53F
331
576
  5
576
331
10F
  5
10F
331
FD0
  5
FD8
331
901
  5
901
331
8CA
  5
8CA
331
909
  5
909
331
8D2
  5
8D2
331
8DA
  5
8DA
331
333
  5
333
331
36A
  5
36A
331
499
  5
499
331
57E
  5
57E
331
4A1
  5
4A1
331
33B
  5
33B
331
372
  5
372
331
547
  5
547
331
54F
  5
54F
331
586
  5
586
331
4B1
  5
4B1
331
343
  5
343
331
510
  5
510
331
865
  5
865
331
58E
  5
58E
331
518
  5
518
331
596
  5
596
331
A0
  5
A0
331
A8
  5
A8
331
177
  5
177
331
B0
  5
B0
331
109C
  5
10B4
331
B8
  5
B8
331
17F
  5
17F
331
10B4
  5
1167
331
8E2
  5
8E2
331
FC1
  5
FC1
331
883
  5
883
331
8EA
  5
8EA
331
FC9
  5
FCF
331
FD9
  5
FC8
331
88B
  5
88B
331
8F2
  5
8F2
331
8FA
  5
8FA
331
12B1
  5
12B3
331
893
  5
893
331
520
  5
520
331
34B
  5
34B
331
185
  5
185
331
4B9
  5
4B9
331
4C1
  5
4C1
331
528
  5
528
331
353
  5
353
331
3CA
  5
3CA
331
55F
  5
55F
331
567
  5
567
331
7EE
  5
7EE
331
4C9
  5
4C9
331
530
  5
530
331
2F4
  5
2F4
331
35B
  5
35B
331
1C5
  5
1C5
331
3FA
  5
3FA
331
56F
  5
56F
331
7F6
  5
7F6
331
402
  5
402
331
2FC
  5
2FC
331
363
  5
363
331
538
  5
538
331
577
  5
577
331
99
  5
99
331
FD1
  5
FD9
331
902
  5
902
331
8C3
  5
8C3
331
8CB
  5
8CB
331
90A
  5
90A
331
8D3
  5
8D3
331
8DB
  5
8DB
331
540
  5
540
331
36B
  5
36B
331
49A
  5
49A
331
334
  5
334
331
85E
  5
85E
331
548
  5
548
331
373
  5
373
331
4A2
  5
4A2
331
57F
  5
57F
331
205
  5
205
331
33C
  5
33C
331
866
  5
866
331
511
  5
511
331
550
  5
550
331
344
  5
344
331
4B2
  5
4B2
331
587
  5
587
331
58F
  5
58F
331
295
  5
295
331
519
  5
519
331
597
  5
597
331
A1
  5
A1
331
A9
  5
A9
331
B1
  5
B1
331
46
  5
46
331
B9
  5
B9
331
FC2
  5
FC4
331
87C
  5
87C
331
8E3
  5
8E3
331
8EB
  5
8EB
331
FCA
  5
FD0
331
884
  5
884
331
8F3
  5
8F3
331
88C
  5
88C
331
894
  5
894
331
8FB
  5
8FB
331
12B2
  5
12B6
331
558
  5
558
331
3BB
  5
3BB
331
4BA
  5
4BA
331
34C
  5
34C
331
521
  5
521
331
186
  5
186
331
560
  5
560
331
4C2
  5
4C2
331
354
  5
354
331
529
  5
529
331
531
  5
531
331
568
  5
568
331
35C
  5
35C
331
3FB
  5
3FB
331
1C6
  5
1C6
331
2F5
  5
2F5
331
4CA
  5
4CA
331
7EF
  5
7EF
331
7F7
  5
7F7
331
539
  5
539
331
2FD
  5
2FD
331
364
  5
364
331
403
  5
403
331
570
  5
570
331
6A
  5
6A
331
F9
  5
F9
331
9A
  5
9A
331
FD2
  5
101B
331
108E
  5
109C
331
8C4
  5
8C4
331
903
  5
903
331
90B
  5
90B
331
8CC
  5
8CC
331
8D4
  5
8D4
331
8DC
  5
8DC
331
578
  5
578
331
4DA
  5
4DA
331
541
  5
541
331
335
  5
335
331
36C
  5
36C
331
49B
  5
49B
331
580
  5
580
331
85F
  5
85F
331
4A3
  5
4A3
331
33D
  5
33D
331
374
  5
374
331
549
  5
549
331
551
  5
551
331
588
  5
588
331
4B3
  5
4B3
331
25E
  5
25E
331
345
  5
345
331
512
  5
512
331
867
  5
867
331
51A
  5
51A
331
590
  5
590
  0
LAYOUT
  5
CF3
102
{ACAD_REACTORS
330
CF0
102
}
330
CF0
100
AcDbPlotSettings
  1

  2
\\DALITE03\PR00109
  4

  6

 40
0.0
 41
0.0
 42
0.0
 43
0.0
 44
0.0
 45
0.0
 46
0.0
 47
0.0
 48
0.0
 49
0.0
140
0.0
141
0.0
142
1.0
143
1.0
 70
   688
 72
     0
 73
     0
 74
     5
  7
acad2.ctb
 75
    16
147
1.0
 76
     0
 77
     2
 78
   300
148
0.0
149
0.0
100
AcDbLayout
  1
Layout1
 70
     0
 71
     1
 10
0.0
 20
0.0
 11
12.0
 21
9.0
 12
0.0
 22
0.0
 32
0.0
 14
1.000000000000000E+20
 24
1.000000000000000E+20
 34
1.000000000000000E+20
 15
-1.000000000000000E+20
 25
-1.000000000000000E+20
 35
-1.000000000000000E+20
146
0.0
 13
0.0
 23
0.0
 33
0.0
 16
1.0
 26
0.0
 36
0.0
 17
0.0
 27
1.0
 37
0.0
 76
     0
330
32
  0
LAYOUT
  5
CF2
102
{ACAD_REACTORS
330
CF0
102
}
330
CF0
100
AcDbPlotSettings
  1

  2
\\DALITE03\PR00109
  4

  6

 40
0.0
 41
0.0
 42
0.0
 43
0.0
 44
0.0
 45
0.0
 46
0.0
 47
0.0
 48
0.0
 49
0.0
140
0.0
141
0.0
142
1.0
143
1.0
 70
  1712
 72
     0
 73
     0
 74
     0
  7
acad2.ctb
 75
     0
147
1.0
 76
     0
 77
     2
 78
   300
148
0.0
149
0.0
100
AcDbLayout
  1
Model
 70
     1
 71
     0
 10
0.0
 20
0.0
 11
12.0
 21
9.0
 12
0.0
 22
0.0
 32
0.0
 14
0.0
 24
0.0
 34
0.0
 15
0.0
 25
0.0
 35
0.0
146
0.0
 13
0.0
 23
0.0
 33
0.0
 16
1.0
 26
0.0
 36
0.0
 17
0.0
 27
1.0
 37
0.0
 76
     0
330
31
  0
MLINESTYLE
  5
A6B
102
{ACAD_REACTORS
330
A6A
102
}
330
A6A
100
AcDbMlineStyle
  2
STANDARD
 70
     0
  3

 62
     0
 51
90.00000000000019
 52
90.00000000000019
 71
     2
 49
0.5
 62
   256
  6
BYLAYER
 49
-0.5
 62
   256
  6
BYLAYER
  0
ACDBPLACEHOLDER
  5
CEB
102
{ACAD_REACTORS
330
CEA
102
}
330
CEA
  0
TABLESTYLE
  5
CEF
102
{ACAD_REACTORS
330
CEE
102
}
330
CEE
100
AcDbTableStyle
  3
Standard
 70
     0
 71
     0
 40
0.06
 41
0.06
280
     0
281
     0
  7
STANDARD
140
0.18
170
     2
 62
     0
 63
     7
283
     0
274
    -2
284
     1
 64
     0
275
    -2
285
     1
 65
     0
276
    -2
286
     1
 66
     0
277
    -2
287
     1
 67
     0
278
    -2
288
     1
 68
     0
279
    -2
289
     1
 69
     0
  7
STANDARD
140
0.25
170
     5
 62
     0
 63
     7
283
     0
274
    -2
284
     1
 64
     0
275
    -2
285
     1
 65
     0
276
    -2
286
     1
 66
     0
277
    -2
287
     1
 67
     0
278
    -2
288
     1
 68
     0
279
    -2
289
     1
 69
     0
  7
STANDARD
140
0.18
170
     5
 62
     0
 63
     7
283
     0
274
    -2
284
     1
 64
     0
275
    -2
285
     1
 65
     0
276
    -2
286
     1
 66
     0
277
    -2
287
     1
 67
     0
278
    -2
288
     1
 68
     0
279
    -2
289
     1
 69
     0
  0
DICTIONARYVAR
  5
F98
102
{ACAD_REACTORS
330
F97
102
}
330
F97
100
DictionaryVariables
280
     0
  1
STANDARD
  0
DICTIONARYVAR
  5
F99
102
{ACAD_REACTORS
330
F97
102
}
330
F97
100
DictionaryVariables
280
     0
  1
1
  0
DICTIONARYVAR
  5
F9A
102
{ACAD_REACTORS
330
F97
102
}
330
F97
100
DictionaryVariables
280
     0
  1

  0
XRECORD
  5
F96
102
{ACAD_REACTORS
330
F94
102
}
330
F94
100
AcDbXrecord
280
     1
  0
ENDSEC
  0
EOF
