  0
SECTION
  2
HEADER
  9
$ACADVER
  1
AC1015
  9
$ACADMAINTVER
 70
    20
  9
$DWGCODEPAGE
  3
ANSI_1252
  9
$INSBASE
 10
0.0
 20
0.0
 30
0.0
  9
$EXTMIN
 10
229.2294054470185
 20
-83.5760639226906
 30
-0.0000000000112498
  9
$EXTMAX
 10
959.676514668113
 20
372.9683022448257
 30
0.0000000000002956
  9
$LIMMIN
 10
0.0
 20
0.0
  9
$LIMMAX
 10
12.0
 20
9.0
  9
$ORTHOMODE
 70
     0
  9
$REGENMODE
 70
     1
  9
$FILLMODE
 70
     1
  9
$QTEXTMODE
 70
     0
  9
$MIRRTEXT
 70
     1
  9
$LTSCALE
 40
0.5
  9
$ATTMODE
 70
     1
  9
$TEXTSIZE
 40
0.25
  9
$TRACEWID
 40
0.05
  9
$TEXTSTYLE
  7
ROMANS
  9
$CLAYER
  8
6
  9
$CELTYPE
  6
ByLayer
  9
$CECOLOR
 62
   256
  9
$CELTSCALE
 40
1.0
  9
$DISPSILH
 70
     0
  9
$DIMSCALE
 40
30.0
  9
$DIMASZ
 40
0.08
  9
$DIMEXO
 40
0.06
  9
$DIMDLI
 40
0.03
  9
$DIMRND
 40
0.0
  9
$DIMDLE
 40
0.0
  9
$DIMEXE
 40
0.06
  9
$DIMTP
 40
0.0
  9
$DIMTM
 40
0.0
  9
$DIMTXT
 40
0.1
  9
$DIMCEN
 40
0.0
  9
$DIMTSZ
 40
0.0
  9
$DIMTOL
 70
     0
  9
$DIMLIM
 70
     0
  9
$DIMTIH
 70
     1
  9
$DIMTOH
 70
     1
  9
$DIMSE1
 70
     0
  9
$DIMSE2
 70
     0
  9
$DIMTAD
 70
     0
  9
$DIMZIN
 70
     4
  9
$DIMBLK
  1

  9
$DIMASO
 70
     1
  9
$DIMSHO
 70
     1
  9
$DIMPOST
  1

  9
$DIMAPOST
  1

  9
$DIMALT
 70
     0
  9
$DIMALTD
 70
     2
  9
$DIMALTF
 40
25.4
  9
$DIMLFAC
 40
1.0
  9
$DIMTOFL
 70
     0
  9
$DIMTVP
 40
0.0
  9
$DIMTIX
 70
     0
  9
$DIMSOXD
 70
     0
  9
$DIMSAH
 70
     0
  9
$DIMBLK1
  1

  9
$DIMBLK2
  1

  9
$DIMSTYLE
  2
BOTH
  9
$DIMCLRD
 70
     0
  9
$DIMCLRE
 70
     0
  9
$DIMCLRT
 70
     0
  9
$DIMTFAC
 40
1.799999999999997
  9
$DIMGAP
 40
0.05
  9
$DIMJUST
 70
     0
  9
$DIMSD1
 70
     0
  9
$DIMSD2
 70
     0
  9
$DIMTOLJ
 70
     1
  9
$DIMTZIN
 70
     0
  9
$DIMALTZ
 70
     0
  9
$DIMALTTZ
 70
     0
  9
$DIMUPT
 70
     0
  9
$DIMDEC
 70
     4
  9
$DIMTDEC
 70
     4
  9
$DIMALTU
 70
     2
  9
$DIMALTTD
 70
     2
  9
$DIMTXSTY
  7
STANDARD
  9
$DIMAUNIT
 70
     0
  9
$DIMADEC
 70
     0
  9
$DIMALTRND
 40
0.0
  9
$DIMAZIN
 70
     0
  9
$DIMDSEP
 70
    46
  9
$DIMATFIT
 70
     3
  9
$DIMFRAC
 70
     0
  9
$DIMLDRBLK
  1

  9
$DIMLUNIT
 70
     2
  9
$DIMLWD
 70
    -2
  9
$DIMLWE
 70
    -2
  9
$DIMTMOVE
 70
     0
  9
$LUNITS
 70
     2
  9
$LUPREC
 70
     2
  9
$SKETCHINC
 40
0.1
  9
$FILLETRAD
 40
0.0
  9
$AUNITS
 70
     0
  9
$AUPREC
 70
     0
  9
$MENU
  1
acad
  9
$ELEVATION
 40
0.0
  9
$PELEVATION
 40
0.0
  9
$THICKNESS
 40
0.0
  9
$LIMCHECK
 70
     0
  9
$CHAMFERA
 40
0.0
  9
$CHAMFERB
 40
0.0
  9
$CHAMFERC
 40
0.0
  9
$CHAMFERD
 40
0.0
  9
$SKPOLY
 70
     0
  9
$TDCREATE
 40
2449799.443811690
  9
$TDUCREATE
 40
2449799.652145023
  9
$TDUPDATE
 40
2454527.352487049
  9
$TDUUPDATE
 40
2454527.560820382
  9
$TDINDWG
 40
1.5026676273
  9
$TDUSRTIMER
 40
1.5026672685
  9
$USRTIMER
 70
     1
  9
$ANGBASE
 50
0.0
  9
$ANGDIR
 70
     0
  9
$PDMODE
 70
     0
  9
$PDSIZE
 40
0.0
  9
$PLINEWID
 40
0.0
  9
$SPLFRAME
 70
     0
  9
$SPLINETYPE
 70
     6
  9
$SPLINESEGS
 70
     8
  9
$HANDSEED
  5
729C
  9
$SURFTAB1
 70
     6
  9
$SURFTAB2
 70
     6
  9
$SURFTYPE
 70
     6
  9
$SURFU
 70
     6
  9
$SURFV
 70
     6
  9
$UCSBASE
  2

  9
$UCSNAME
  2

  9
$UCSORG
 10
0.0
 20
0.0
 30
0.0
  9
$UCSXDIR
 10
1.0
 20
0.0
 30
0.0
  9
$UCSYDIR
 10
0.0
 20
1.0
 30
0.0
  9
$UCSORTHOREF
  2

  9
$UCSORTHOVIEW
 70
     0
  9
$UCSORGTOP
 10
0.0
 20
0.0
 30
0.0
  9
$UCSORGBOTTOM
 10
0.0
 20
0.0
 30
0.0
  9
$UCSORGLEFT
 10
0.0
 20
0.0
 30
0.0
  9
$UCSORGRIGHT
 10
0.0
 20
0.0
 30
0.0
  9
$UCSORGFRONT
 10
0.0
 20
0.0
 30
0.0
  9
$UCSORGBACK
 10
0.0
 20
0.0
 30
0.0
  9
$PUCSBASE
  2

  9
$PUCSNAME
  2

  9
$PUCSORG
 10
0.0
 20
0.0
 30
0.0
  9
$PUCSXDIR
 10
1.0
 20
0.0
 30
0.0
  9
$PUCSYDIR
 10
0.0
 20
1.0
 30
0.0
  9
$PUCSORTHOREF
  2

  9
$PUCSORTHOVIEW
 70
     0
  9
$PUCSORGTOP
 10
0.0
 20
0.0
 30
0.0
  9
$PUCSORGBOTTOM
 10
0.0
 20
0.0
 30
0.0
  9
$PUCSORGLEFT
 10
0.0
 20
0.0
 30
0.0
  9
$PUCSORGRIGHT
 10
0.0
 20
0.0
 30
0.0
  9
$PUCSORGFRONT
 10
0.0
 20
0.0
 30
0.0
  9
$PUCSORGBACK
 10
0.0
 20
0.0
 30
0.0
  9
$USERI1
 70
     0
  9
$USERI2
 70
     0
  9
$USERI3
 70
     0
  9
$USERI4
 70
     0
  9
$USERI5
 70
     0
  9
$USERR1
 40
0.0
  9
$USERR2
 40
0.0
  9
$USERR3
 40
0.0
  9
$USERR4
 40
0.0
  9
$USERR5
 40
0.0
  9
$WORLDVIEW
 70
     1
  9
$SHADEDGE
 70
     3
  9
$SHADEDIF
 70
    70
  9
$TILEMODE
 70
     1
  9
$MAXACTVP
 70
    16
  9
$PINSBASE
 10
0.0
 20
0.0
 30
0.0
  9
$PLIMCHECK
 70
     0
  9
$PEXTMIN
 10
0.0
 20
0.0
 30
0.0
  9
$PEXTMAX
 10
22.25491359552769
 20
8.0
 30
0.0
  9
$PLIMMIN
 10
11.47366360679155
 20
-0.2312499894870548
  9
$PLIMMAX
 10
22.47366336649566
 20
8.268749770217054
  9
$UNITMODE
 70
     0
  9
$VISRETAIN
 70
     0
  9
$PLINEGEN
 70
     0
  9
$PSLTSCALE
 70
     1
  9
$TREEDEPTH
 70
  3020
  9
$CMLSTYLE
  2
Standard
  9
$CMLJUST
 70
     0
  9
$CMLSCALE
 40
1.0
  9
$PROXYGRAPHICS
 70
     1
  9
$MEASUREMENT
 70
     0
  9
$CELWEIGHT
370
    -1
  9
$ENDCAPS
280
     0
  9
$JOINSTYLE
280
     0
  9
$LWDISPLAY
290
     0
  9
$INSUNITS
 70
     0
  9
$HYPERLINKBASE
  1

  9
$STYLESHEET
  1

  9
$XEDIT
290
     1
  9
$CEPSNTYPE
380
     0
  9
$PSTYLEMODE
290
     1
  9
$FINGERPRINTGUID
  2
{6A82E649-3166-4BB5-9F0C-5EE60C65E7F9}
  9
$VERSIONGUID
  2
{8D19B22B-C740-44A2-AA3C-13FF281D3019}
  9
$EXTNAMES
290
     1
  9
$PSVPSCALE
 40
0.0
  9
$OLESTARTUP
290
     0
  0
ENDSEC
  0
SECTION
  2
CLASSES
  0
CLASS
  1
ACDBDICTIONARYWDFLT
  2
AcDbDictionaryWithDefault
  3
ObjectDBX Classes
 90
        0
280
     0
281
     0
  0
CLASS
  1
TABLESTYLE
  2
AcDbTableStyle
  3
ObjectDBX Classes
 90
     2047
280
     0
281
     0
  0
CLASS
  1
SORTENTSTABLE
  2
AcDbSortentsTable
  3
ObjectDBX Classes
 90
        0
280
     0
281
     0
  0
CLASS
  1
DICTIONARYVAR
  2
AcDbDictionaryVar
  3
ObjectDBX Classes
 90
        0
280
     0
281
     0
  0
CLASS
  1
ACDBPLACEHOLDER
  2
AcDbPlaceHolder
  3
ObjectDBX Classes
 90
        0
280
     0
281
     0
  0
CLASS
  1
LAYOUT
  2
AcDbLayout
  3
ObjectDBX Classes
 90
        0
280
     0
281
     0
  0
ENDSEC
  0
SECTION
  2
TABLES
  0
TABLE
  2
VPORT
  5
61EC
330
0
100
AcDbSymbolTable
 70
     6
  0
VPORT
  5
7290
330
61EC
100
AcDbSymbolTableRecord
100
AcDbViewportTableRecord
  2
*Active
 70
     0
 10
0.0
 20
0.0
 11
1.0
 21
1.0
 12
424.8084151840051
 22
30.76036552672744
 13
0.0
 23
0.0
 14
1.0
 24
1.0
 15
0.0
 25
0.0
 16
0.0
 26
0.0
 36
1.0
 17
0.0
 27
0.0
 37
0.0
 40
255.1087527410184
 41
1.488020176544766
 42
50.0
 43
0.0
 44
0.0
 50
0.0
 51
0.0
 71
     0
 72
   100
 73
     1
 74
     0
 75
     0
 76
     0
 77
     0
 78
     0
281
     0
 65
     0
110
0.0
120
0.0
130
0.0
111
1.0
121
0.0
131
0.0
112
0.0
122
1.0
132
0.0
 79
     0
146
0.0
  0
ENDTAB
  0
TABLE
  2
LTYPE
  5
61E9
330
0
100
AcDbSymbolTable
 70
     4
  0
LTYPE
  5
61F7
330
61E9
100
AcDbSymbolTableRecord
100
AcDbLinetypeTableRecord
  2
ByBlock
 70
     0
  3

 72
    65
 73
     0
 40
0.0
  0
LTYPE
  5
61F8
330
61E9
100
AcDbSymbolTableRecord
100
AcDbLinetypeTableRecord
  2
ByLayer
 70
     0
  3

 72
    65
 73
     0
 40
0.0
  0
LTYPE
  5
61F9
330
61E9
100
AcDbSymbolTableRecord
100
AcDbLinetypeTableRecord
  2
CONTINUOUS
 70
     0
  3
Solid line
 72
    65
 73
     0
 40
0.0
  0
LTYPE
  5
620D
330
61E9
100
AcDbSymbolTableRecord
100
AcDbLinetypeTableRecord
  2
DB_ED_SALW
 70
     0
  3
DB_ED_SALW
 72
    65
 73
     2
 40
2.0
 49
1.0
 74
     0
 49
1.0
 74
     0
  0
LTYPE
  5
620E
330
61E9
100
AcDbSymbolTableRecord
100
AcDbLinetypeTableRecord
  2
HIDDEN
 70
     0
  3
__ __ __ __ __ __ __ __ __ __ __ __ __ __ __ __
 72
    65
 73
     2
 40
0.375
 49
0.25
 74
     0
 49
-0.125
 74
     0
  0
LTYPE
  5
620F
330
61E9
100
AcDbSymbolTableRecord
100
AcDbLinetypeTableRecord
  2
PHANTOM
 70
     0
  3
______  __  __  ______  __  __  ______  __  __ 
 72
    65
 73
     6
 40
2.5
 49
1.25
 74
     0
 49
-0.25
 74
     0
 49
0.25
 74
     0
 49
-0.25
 74
     0
 49
0.25
 74
     0
 49
-0.25
 74
     0
  0
ENDTAB
  0
TABLE
  2
LAYER
  5
61E6
102
{ACAD_XDICTIONARY
360
63C5
102
}
330
0
100
AcDbSymbolTable
 70
    12
  0
LAYER
  5
61F4
330
61E6
100
AcDbSymbolTableRecord
100
AcDbLayerTableRecord
  2
0
 70
     0
 62
     7
  6
CONTINUOUS
370
    -3
390
61F3
  0
LAYER
  5
620A
330
61E6
100
AcDbSymbolTableRecord
100
AcDbLayerTableRecord
  2
6
 70
     0
 62
     6
  6
CONTINUOUS
370
    -3
390
61F3
  0
LAYER
  5
6210
330
61E6
100
AcDbSymbolTableRecord
100
AcDbLayerTableRecord
  2
2
 70
     0
 62
     2
  6
CONTINUOUS
370
    -3
390
61F3
  0
LAYER
  5
6211
330
61E6
100
AcDbSymbolTableRecord
100
AcDbLayerTableRecord
  2
4
 70
     0
 62
     4
  6
CONTINUOUS
370
    -3
390
61F3
  0
LAYER
  5
6212
330
61E6
100
AcDbSymbolTableRecord
100
AcDbLayerTableRecord
  2
DEFPOINTS
 70
     0
 62
     7
  6
CONTINUOUS
290
     0
370
    -3
390
61F3
  0
LAYER
  5
6213
330
61E6
100
AcDbSymbolTableRecord
100
AcDbLayerTableRecord
  2
AME_FRE
 70
     0
 62
     7
  6
CONTINUOUS
370
    -3
390
61F3
  0
LAYER
  5
6214
330
61E6
100
AcDbSymbolTableRecord
100
AcDbLayerTableRecord
  2
VPORT
 70
     1
 62
     7
  6
CONTINUOUS
370
    -3
390
61F3
  0
LAYER
  5
6215
330
61E6
100
AcDbSymbolTableRecord
100
AcDbLayerTableRecord
  2
1A
 70
     0
 62
     1
  6
HIDDEN
370
    -3
390
61F3
  0
LAYER
  5
6216
330
61E6
100
AcDbSymbolTableRecord
100
AcDbLayerTableRecord
  2
5
 70
     0
 62
     5
  6
PHANTOM
370
    -3
390
61F3
  0
LAYER
  5
6217
330
61E6
100
AcDbSymbolTableRecord
100
AcDbLayerTableRecord
  2
AM_VIS
 70
     0
 62
     2
  6
CONTINUOUS
370
    -3
390
61F3
  0
LAYER
  5
63C1
330
61E6
100
AcDbSymbolTableRecord
100
AcDbLayerTableRecord
  2
DEFAULT_2
 70
     0
 62
     8
  6
HIDDEN
370
    -3
390
61F3
  0
LAYER
  5
63C2
330
61E6
100
AcDbSymbolTableRecord
100
AcDbLayerTableRecord
  2
7_DIM
 70
     0
 62
     7
  6
CONTINUOUS
370
    -3
390
61F3
  0
ENDTAB
  0
TABLE
  2
STYLE
  5
61E7
330
0
100
AcDbSymbolTable
 70
     2
  0
STYLE
  5
61F5
330
61E7
100
AcDbSymbolTableRecord
100
AcDbTextStyleTableRecord
  2
STANDARD
 70
     0
 40
0.0
 41
1.0
 50
0.0
 71
     0
 42
0.2
  3
txt
  4

  0
STYLE
  5
620B
330
61E7
100
AcDbSymbolTableRecord
100
AcDbTextStyleTableRecord
  2
ROMANS
 70
     0
 40
0.0
 41
1.0
 50
0.0
 71
     0
 42
0.25
  3
romans
  4

  0
ENDTAB
  0
TABLE
  2
VIEW
  5
61EA
330
0
100
AcDbSymbolTable
 70
     0
  0
ENDTAB
  0
TABLE
  2
UCS
  5
61EB
330
0
100
AcDbSymbolTable
 70
     0
  0
ENDTAB
  0
TABLE
  2
APPID
  5
61ED
330
0
100
AcDbSymbolTable
 70
     2
  0
APPID
  5
61F6
330
61ED
100
AcDbSymbolTableRecord
100
AcDbRegAppTableRecord
  2
ACAD
 70
     0
  0
APPID
  5
63C4
330
61ED
100
AcDbSymbolTableRecord
100
AcDbRegAppTableRecord
  2
ACAD_PSEXT
 70
     0
  0
ENDTAB
  0
TABLE
  2
DIMSTYLE
  5
61EE
330
0
100
AcDbSymbolTable
 70
     3
100
AcDbDimStyleTable
 71
     1
340
6218
  0
DIMSTYLE
105
6218
102
{ACAD_REACTORS
330
4E
330
5884
330
5888
330
588C
330
5893
330
5894
330
5896
330
598B
330
59AC
330
5D74
330
6FE5
102
}
330
61EE
100
AcDbSymbolTableRecord
100
AcDbDimStyleTableRecord
  2
BOTH
 70
     0
 40
30.0
 41
0.08
 42
0.06
 43
0.03
 44
0.06
 78
     4
140
0.1
141
0.0
146
1.799999999999997
147
0.05
271
     2
272
     2
279
     2
284
     4
285
     4
286
     4
340
620B
  0
DIMSTYLE
105
6219
330
61EE
100
AcDbSymbolTableRecord
100
AcDbDimStyleTableRecord
  2
AM_ANSI
 70
     0
  4
mm
 41
0.1
 42
0.05
 43
0.5
 44
0.1
 47
0.1
 48
0.1
 78
     7
140
0.12
141
0.0
146
0.71
147
0.06
176
   256
177
   256
178
     2
271
     2
272
     2
279
     2
284
     4
285
     4
286
     4
340
620B
  0
DIMSTYLE
105
63C3
102
{ACAD_REACTORS
330
63D3
330
63D2
330
63D1
330
63D0
330
63CF
330
63CE
330
63CD
330
63CC
330
63CB
330
63CA
330
63C9
330
63C8
330
68B6
330
68B7
330
68B8
330
708D
330
708E
102
}
330
61EE
100
AcDbSymbolTableRecord
100
AcDbDimStyleTableRecord
  2
STANDARD
 70
     0
 47
0.001
 48
0.001
140
0.1
271
     3
340
61F5
  0
ENDTAB
  0
TABLE
  2
BLOCK_RECORD
  5
61E5
330
0
100
AcDbSymbolTable
 70
    75
  0
BLOCK_RECORD
  5
6206
102
{ACAD_XDICTIONARY
360
62E2
102
}
330
61E5
100
AcDbSymbolTableRecord
100
AcDbBlockTableRecord
  2
*Model_Space
340
6209
  0
BLOCK_RECORD
  5
6202
330
61E5
100
AcDbSymbolTableRecord
100
AcDbBlockTableRecord
  2
*Paper_Space
340
6205
  0
BLOCK_RECORD
  5
621C
330
61E5
100
AcDbSymbolTableRecord
100
AcDbBlockTableRecord
  2
$MODEL_SPACE
340
0
  0
BLOCK_RECORD
  5
621E
330
61E5
100
AcDbSymbolTableRecord
100
AcDbBlockTableRecord
  2
$PAPER_SPACE
340
0
  0
BLOCK_RECORD
  5
6220
330
61E5
100
AcDbSymbolTableRecord
100
AcDbBlockTableRecord
  2
*D2
340
0
  0
BLOCK_RECORD
  5
6222
330
61E5
100
AcDbSymbolTableRecord
100
AcDbBlockTableRecord
  2
19911025104231
340
0
  0
BLOCK_RECORD
  5
6224
330
61E5
100
AcDbSymbolTableRecord
100
AcDbBlockTableRecord
  2
POCKETS
340
0
102
{BLKREFS
331
10C
102
}
  0
BLOCK_RECORD
  5
6226
330
61E5
100
AcDbSymbolTableRecord
100
AcDbBlockTableRecord
  2
*D5
340
0
  0
BLOCK_RECORD
  5
6228
330
61E5
100
AcDbSymbolTableRecord
100
AcDbBlockTableRecord
  2
*D6
340
0
  0
BLOCK_RECORD
  5
622A
330
61E5
100
AcDbSymbolTableRecord
100
AcDbBlockTableRecord
  2
*D7
340
0
  0
BLOCK_RECORD
  5
622C
330
61E5
100
AcDbSymbolTableRecord
100
AcDbBlockTableRecord
  2
*D8
340
0
  0
BLOCK_RECORD
  5
622E
330
61E5
100
AcDbSymbolTableRecord
100
AcDbBlockTableRecord
  2
*U9
340
0
102
{BLKREFS
331
5FE7
102
}
  0
BLOCK_RECORD
  5
622F
330
61E5
100
AcDbSymbolTableRecord
100
AcDbBlockTableRecord
  2
*D10
340
0
  0
BLOCK_RECORD
  5
6231
330
61E5
100
AcDbSymbolTableRecord
100
AcDbBlockTableRecord
  2
*D11
340
0
  0
BLOCK_RECORD
  5
6233
330
61E5
100
AcDbSymbolTableRecord
100
AcDbBlockTableRecord
  2
*D12
340
0
  0
BLOCK_RECORD
  5
6235
330
61E5
100
AcDbSymbolTableRecord
100
AcDbBlockTableRecord
  2
*D13
340
0
  0
BLOCK_RECORD
  5
6237
330
61E5
100
AcDbSymbolTableRecord
100
AcDbBlockTableRecord
  2
*U14
340
0
102
{BLKREFS
331
5F32
102
}
  0
BLOCK_RECORD
  5
6238
330
61E5
100
AcDbSymbolTableRecord
100
AcDbBlockTableRecord
  2
*D15
340
0
  0
BLOCK_RECORD
  5
623A
330
61E5
100
AcDbSymbolTableRecord
100
AcDbBlockTableRecord
  2
*D16
340
0
  0
BLOCK_RECORD
  5
623C
330
61E5
100
AcDbSymbolTableRecord
100
AcDbBlockTableRecord
  2
*D17
340
0
  0
BLOCK_RECORD
  5
623E
330
61E5
100
AcDbSymbolTableRecord
100
AcDbBlockTableRecord
  2
*U18
340
0
102
{BLKREFS
331
6100
102
}
  0
BLOCK_RECORD
  5
623F
330
61E5
100
AcDbSymbolTableRecord
100
AcDbBlockTableRecord
  2
*D19
340
0
  0
BLOCK_RECORD
  5
6241
330
61E5
100
AcDbSymbolTableRecord
100
AcDbBlockTableRecord
  2
*U20
340
0
102
{BLKREFS
331
601D
102
}
  0
BLOCK_RECORD
  5
6242
330
61E5
100
AcDbSymbolTableRecord
100
AcDbBlockTableRecord
  2
*D21
340
0
  0
BLOCK_RECORD
  5
6244
330
61E5
100
AcDbSymbolTableRecord
100
AcDbBlockTableRecord
  2
*D22
340
0
  0
BLOCK_RECORD
  5
6246
330
61E5
100
AcDbSymbolTableRecord
100
AcDbBlockTableRecord
  2
*D23
340
0
  0
BLOCK_RECORD
  5
6248
330
61E5
100
AcDbSymbolTableRecord
100
AcDbBlockTableRecord
  2
*D24
340
0
  0
BLOCK_RECORD
  5
624A
330
61E5
100
AcDbSymbolTableRecord
100
AcDbBlockTableRecord
  2
*D25
340
0
  0
BLOCK_RECORD
  5
624C
330
61E5
100
AcDbSymbolTableRecord
100
AcDbBlockTableRecord
  2
*D26
340
0
  0
BLOCK_RECORD
  5
624E
330
61E5
100
AcDbSymbolTableRecord
100
AcDbBlockTableRecord
  2
*D27
340
0
  0
BLOCK_RECORD
  5
6250
330
61E5
100
AcDbSymbolTableRecord
100
AcDbBlockTableRecord
  2
*X28
340
0
  0
BLOCK_RECORD
  5
6252
330
61E5
100
AcDbSymbolTableRecord
100
AcDbBlockTableRecord
  2
*X29
340
0
  0
BLOCK_RECORD
  5
6254
330
61E5
100
AcDbSymbolTableRecord
100
AcDbBlockTableRecord
  2
*X30
340
0
  0
BLOCK_RECORD
  5
625F
330
61E5
100
AcDbSymbolTableRecord
100
AcDbBlockTableRecord
  2
*D31
340
0
  0
BLOCK_RECORD
  5
626C
330
61E5
100
AcDbSymbolTableRecord
100
AcDbBlockTableRecord
  2
*D32
340
0
  0
BLOCK_RECORD
  5
6279
330
61E5
100
AcDbSymbolTableRecord
100
AcDbBlockTableRecord
  2
*D33
340
0
  0
BLOCK_RECORD
  5
6286
330
61E5
100
AcDbSymbolTableRecord
100
AcDbBlockTableRecord
  2
*D34
340
0
  0
BLOCK_RECORD
  5
6293
330
61E5
100
AcDbSymbolTableRecord
100
AcDbBlockTableRecord
  2
*D35
340
0
  0
BLOCK_RECORD
  5
62A0
330
61E5
100
AcDbSymbolTableRecord
100
AcDbBlockTableRecord
  2
*D36
340
0
  0
BLOCK_RECORD
  5
62AD
330
61E5
100
AcDbSymbolTableRecord
100
AcDbBlockTableRecord
  2
*D37
340
0
  0
BLOCK_RECORD
  5
62BA
330
61E5
100
AcDbSymbolTableRecord
100
AcDbBlockTableRecord
  2
*D38
340
0
  0
BLOCK_RECORD
  5
62FD
330
61E5
100
AcDbSymbolTableRecord
100
AcDbBlockTableRecord
  2
*D39
340
0
  0
BLOCK_RECORD
  5
630A
330
61E5
100
AcDbSymbolTableRecord
100
AcDbBlockTableRecord
  2
*D40
340
0
  0
BLOCK_RECORD
  5
6317
330
61E5
100
AcDbSymbolTableRecord
100
AcDbBlockTableRecord
  2
*D41
340
0
  0
BLOCK_RECORD
  5
6324
330
61E5
100
AcDbSymbolTableRecord
100
AcDbBlockTableRecord
  2
*D42
340
0
  0
BLOCK_RECORD
  5
6331
330
61E5
100
AcDbSymbolTableRecord
100
AcDbBlockTableRecord
  2
*D43
340
0
  0
BLOCK_RECORD
  5
633E
330
61E5
100
AcDbSymbolTableRecord
100
AcDbBlockTableRecord
  2
*D44
340
0
  0
BLOCK_RECORD
  5
634C
330
61E5
100
AcDbSymbolTableRecord
100
AcDbBlockTableRecord
  2
*D45
340
0
  0
BLOCK_RECORD
  5
635A
330
61E5
100
AcDbSymbolTableRecord
100
AcDbBlockTableRecord
  2
*D46
340
0
  0
BLOCK_RECORD
  5
6368
330
61E5
100
AcDbSymbolTableRecord
100
AcDbBlockTableRecord
  2
*D47
340
0
  0
BLOCK_RECORD
  5
6375
330
61E5
100
AcDbSymbolTableRecord
100
AcDbBlockTableRecord
  2
*D48
340
0
  0
BLOCK_RECORD
  5
6382
330
61E5
100
AcDbSymbolTableRecord
100
AcDbBlockTableRecord
  2
*D49
340
0
  0
BLOCK_RECORD
  5
638F
330
61E5
100
AcDbSymbolTableRecord
100
AcDbBlockTableRecord
  2
*D50
340
0
  0
BLOCK_RECORD
  5
639C
330
61E5
100
AcDbSymbolTableRecord
100
AcDbBlockTableRecord
  2
*D51
340
0
  0
BLOCK_RECORD
  5
63A9
330
61E5
100
AcDbSymbolTableRecord
100
AcDbBlockTableRecord
  2
*D52
340
0
  0
BLOCK_RECORD
  5
63B6
330
61E5
100
AcDbSymbolTableRecord
100
AcDbBlockTableRecord
  2
*D53
340
0
  0
BLOCK_RECORD
  5
6DAF
330
61E5
100
AcDbSymbolTableRecord
100
AcDbBlockTableRecord
  2
*D55
340
0
  0
BLOCK_RECORD
  5
6DBC
330
61E5
100
AcDbSymbolTableRecord
100
AcDbBlockTableRecord
  2
*D56
340
0
  0
BLOCK_RECORD
  5
6DC9
330
61E5
100
AcDbSymbolTableRecord
100
AcDbBlockTableRecord
  2
*D57
340
0
  0
BLOCK_RECORD
  5
6DD6
330
61E5
100
AcDbSymbolTableRecord
100
AcDbBlockTableRecord
  2
*D58
340
0
  0
BLOCK_RECORD
  5
6DE4
330
61E5
100
AcDbSymbolTableRecord
100
AcDbBlockTableRecord
  2
*D59
340
0
  0
BLOCK_RECORD
  5
6DF1
330
61E5
100
AcDbSymbolTableRecord
100
AcDbBlockTableRecord
  2
*D60
340
0
  0
BLOCK_RECORD
  5
6DFF
330
61E5
100
AcDbSymbolTableRecord
100
AcDbBlockTableRecord
  2
*D61
340
0
  0
BLOCK_RECORD
  5
6E0D
330
61E5
100
AcDbSymbolTableRecord
100
AcDbBlockTableRecord
  2
*D62
340
0
  0
BLOCK_RECORD
  5
6E1A
330
61E5
100
AcDbSymbolTableRecord
100
AcDbBlockTableRecord
  2
*D63
340
0
  0
BLOCK_RECORD
  5
6E27
330
61E5
100
AcDbSymbolTableRecord
100
AcDbBlockTableRecord
  2
*D64
340
0
  0
BLOCK_RECORD
  5
6E34
330
61E5
100
AcDbSymbolTableRecord
100
AcDbBlockTableRecord
  2
*D65
340
0
  0
BLOCK_RECORD
  5
6E41
330
61E5
100
AcDbSymbolTableRecord
100
AcDbBlockTableRecord
  2
*D66
340
0
  0
BLOCK_RECORD
  5
6E4E
330
61E5
100
AcDbSymbolTableRecord
100
AcDbBlockTableRecord
  2
*D67
340
0
  0
BLOCK_RECORD
  5
6E5B
330
61E5
100
AcDbSymbolTableRecord
100
AcDbBlockTableRecord
  2
*D68
340
0
  0
BLOCK_RECORD
  5
6E68
330
61E5
100
AcDbSymbolTableRecord
100
AcDbBlockTableRecord
  2
*D69
340
0
  0
BLOCK_RECORD
  5
6F5A
330
61E5
100
AcDbSymbolTableRecord
100
AcDbBlockTableRecord
  2
*D70
340
0
  0
BLOCK_RECORD
  5
6FD8
330
61E5
100
AcDbSymbolTableRecord
100
AcDbBlockTableRecord
  2
*D71
340
0
  0
BLOCK_RECORD
  5
6FFB
330
61E5
100
AcDbSymbolTableRecord
100
AcDbBlockTableRecord
  2
*D72
340
0
  0
BLOCK_RECORD
  5
708F
330
61E5
100
AcDbSymbolTableRecord
100
AcDbBlockTableRecord
  2
*D73
340
0
  0
BLOCK_RECORD
  5
709C
330
61E5
100
AcDbSymbolTableRecord
100
AcDbBlockTableRecord
  2
*D74
340
0
  0
ENDTAB
  0
ENDSEC
  0
SECTION
  2
BLOCKS
  0
BLOCK
  5
6207
330
6206
100
AcDbEntity
  8
0
100
AcDbBlockBegin
  2
*Model_Space
 70
     0
 10
0.0
 20
0.0
 30
0.0
  3
*Model_Space
  1

  0
ENDBLK
  5
6208
330
6206
100
AcDbEntity
  8
0
100
AcDbBlockEnd
  0
BLOCK
  5
6203
330
6202
100
AcDbEntity
 67
     1
  8
0
100
AcDbBlockBegin
  2
*Paper_Space
 70
     0
 10
0.0
 20
0.0
 30
0.0
  3
*Paper_Space
  1

  0
ENDBLK
  5
6204
330
6202
100
AcDbEntity
 67
     1
  8
0
100
AcDbBlockEnd
  0
BLOCK
  5
621D
330
621C
100
AcDbEntity
  8
0
100
AcDbBlockBegin
  2
$MODEL_SPACE
 70
     0
 10
0.0
 20
0.0
 30
0.0
  3
$MODEL_SPACE
  1

  0
ENDBLK
  5
3B
330
621C
100
AcDbEntity
  8
0
100
AcDbBlockEnd
  0
BLOCK
  5
621F
330
621E
100
AcDbEntity
  8
0
100
AcDbBlockBegin
  2
$PAPER_SPACE
 70
     0
 10
0.0
 20
0.0
 30
0.0
  3
$PAPER_SPACE
  1

  0
ENDBLK
  5
39
330
621E
100
AcDbEntity
  8
0
100
AcDbBlockEnd
  0
BLOCK
  5
6221
330
6220
100
AcDbEntity
  8
0
100
AcDbBlockBegin
  2
*D2
 70
     1
 10
0.0
 20
0.0
 30
0.0
  3
*D2
  1

  0
LINE
  5
43
330
6220
100
AcDbEntity
  8
0
  6
ByBlock
 62
     0
100
AcDbLine
 10
0.0
 20
0.00000625
 30
0.0
 11
0.0
 21
0.000018
 31
0.0
  0
LINE
  5
44
330
6220
100
AcDbEntity
  8
0
  6
ByBlock
 62
     0
100
AcDbLine
 10
0.0
 20
0.00000625
 30
0.0
 11
0.0
 21
0.000018
 31
0.0
  0
LINE
  5
45
330
6220
100
AcDbEntity
  8
0
  6
ByBlock
 62
     0
100
AcDbLine
 10
-0.000018
 20
0.0
 30
0.0
 11
-0.000036
 21
0.0
 31
0.0
  0
LINE
  5
46
330
6220
100
AcDbEntity
  8
0
  6
ByBlock
 62
     0
100
AcDbLine
 10
0.000018
 20
0.0
 30
0.0
 11
0.000036
 21
0.0
 31
0.0
  0
SOLID
  5
47
330
6220
100
AcDbEntity
  8
0
  6
ByBlock
 62
     0
100
AcDbTrace
 10
-0.000018
 20
0.000003
 30
0.0
 11
-0.000018
 21
-0.000003
 31
0.0
 12
0.0
 22
0.0
 32
0.0
 13
0.0
 23
0.0
 33
0.0
  0
SOLID
  5
48
330
6220
100
AcDbEntity
  8
0
  6
ByBlock
 62
     0
100
AcDbTrace
 10
0.000018
 20
0.000003
 30
0.0
 11
0.000018
 21
-0.000003
 31
0.0
 12
0.0
 22
0.0
 32
0.0
 13
0.0
 23
0.0
 33
0.0
  0
POINT
  5
49
330
6220
100
AcDbEntity
  8
DEFPOINTS
  6
ByBlock
 62
     0
100
AcDbPoint
 10
0.0
 20
0.0
 30
0.0
  0
POINT
  5
4A
330
6220
100
AcDbEntity
  8
DEFPOINTS
  6
ByBlock
 62
     0
100
AcDbPoint
 10
0.0
 20
0.0
 30
0.0
  0
POINT
  5
4B
330
6220
100
AcDbEntity
  8
DEFPOINTS
  6
ByBlock
 62
     0
100
AcDbPoint
 10
0.0
 20
0.0
 30
0.0
  0
ENDBLK
  5
4C
330
6220
100
AcDbEntity
  8
0
100
AcDbBlockEnd
  0
BLOCK
  5
6223
330
6222
100
AcDbEntity
  8
0
100
AcDbBlockBegin
  2
19911025104231
 70
     0
 10
0.0
 20
0.0
 30
0.0
  3
19911025104231
  1

  0
DIMENSION
  5
4E
330
6222
100
AcDbEntity
  8
0
  6
DB_ED_SALW
 62
     5
100
AcDbDimension
  2
*D2
 10
0.0
 20
0.0
 30
0.0
 11
0.0
 21
0.0
 31
0.0
  1
 
 71
     5
 42
-1.0
  3
BOTH
100
AcDbAlignedDimension
 13
0.0
 23
0.0
 33
0.0
 14
0.0
 24
0.0
 34
0.0
100
AcDbRotatedDimension
  0
ENDBLK
  5
4F
330
6222
100
AcDbEntity
  8
0
100
AcDbBlockEnd
  0
BLOCK
  5
6225
330
6224
100
AcDbEntity
  8
0
100
AcDbBlockBegin
  2
POCKETS
 70
     0
 10
0.0
 20
0.0
 30
0.0
  3
POCKETS
  1

  0
ENDBLK
  5
51
330
6224
100
AcDbEntity
  8
0
100
AcDbBlockEnd
  0
BLOCK
  5
6227
330
6226
100
AcDbEntity
  8
0
100
AcDbBlockBegin
  2
*D5
 70
     1
 10
0.0
 20
0.0
 30
0.0
  3
*D5
  1

  0
LINE
  5
5F54
330
6226
100
AcDbEntity
  8
6
 62
     0
100
AcDbLine
 10
54.38288319860967
 20
-7.013188445285806
 30
0.0
 11
74.26972667305474
 21
-7.013188445285812
 31
0.0
  0
LINE
  5
5F55
330
6226
100
AcDbEntity
  8
6
 62
     0
100
AcDbLine
 10
54.38288319860967
 20
103.234311554714
 30
0.0
 11
74.26972667305475
 21
103.234311554714
 31
0.0
  0
LINE
  5
5F56
330
6226
100
AcDbEntity
  8
6
 62
     0
100
AcDbLine
 10
72.46972667305474
 20
-4.613188445285808
 30
0.0
 11
72.46972667305475
 21
48.55914575354836
 31
0.0
  0
LINE
  5
5F57
330
6226
100
AcDbEntity
  8
6
 62
     0
100
AcDbLine
 10
72.46972667305475
 20
100.8343115547141
 30
0.0
 11
72.46972667305475
 21
54.55914575354835
 31
0.0
  0
SOLID
  5
5F58
330
6226
100
AcDbEntity
  8
6
 62
     0
100
AcDbTrace
 10
72.06972667305473
 20
-4.613188445285808
 30
0.0
 11
72.86972667305473
 21
-4.613188445285808
 31
0.0
 12
72.46972667305474
 22
-7.013188445285811
 32
0.0
 13
72.46972667305474
 23
-7.013188445285811
 33
0.0
  0
SOLID
  5
5F59
330
6226
100
AcDbEntity
  8
6
 62
     0
100
AcDbTrace
 10
72.06972667305476
 20
100.8343115547141
 30
0.0
 11
72.86972667305476
 21
100.8343115547141
 31
0.0
 12
72.46972667305475
 22
103.234311554714
 32
0.0
 13
72.46972667305475
 23
103.234311554714
 33
0.0
  0
TEXT
  5
5F5A
330
6226
100
AcDbEntity
  8
6
 62
     0
100
AcDbText
 10
64.39829810162617
 20
50.05914575354836
 30
0.0
 40
3.0
  1
110.25
  7
ROMANS
100
AcDbText
  0
POINT
  5
5F5B
330
6226
100
AcDbEntity
  8
DEFPOINTS
 62
     0
100
AcDbPoint
 10
52.5828831986097
 20
-7.013188445285804
 30
0.0
  0
POINT
  5
5F5C
330
6226
100
AcDbEntity
  8
DEFPOINTS
 62
     0
100
AcDbPoint
 10
52.5828831986097
 20
103.234311554714
 30
0.0
  0
POINT
  5
5F5D
330
6226
100
AcDbEntity
  8
DEFPOINTS
 62
     0
100
AcDbPoint
 10
72.46972667305475
 20
103.234311554714
 30
0.0
  0
ENDBLK
  5
5848
330
6226
100
AcDbEntity
  8
0
100
AcDbBlockEnd
  0
BLOCK
  5
6229
330
6228
100
AcDbEntity
  8
0
100
AcDbBlockBegin
  2
*D6
 70
     1
 10
0.0
 20
0.0
 30
0.0
  3
*D6
  1

  0
LINE
  5
5F73
330
6228
100
AcDbEntity
  8
6
 62
     0
100
AcDbLine
 10
-163.4171168013903
 20
-8.813188445285806
 30
0.0
 11
-163.4171168013903
 21
-27.5125467798469
 31
0.0
  0
LINE
  5
5F74
330
6228
100
AcDbEntity
  8
6
 62
     0
100
AcDbLine
 10
52.5828831986097
 20
-8.813188445285806
 30
0.0
 11
52.5828831986097
 21
-27.5125467798469
 31
0.0
  0
LINE
  5
5F75
330
6228
100
AcDbEntity
  8
6
 62
     0
100
AcDbLine
 10
-161.0171168013903
 20
-25.71254677984688
 30
0.0
 11
-64.34568822996173
 21
-25.71254677984688
 31
0.0
  0
LINE
  5
5F76
330
6228
100
AcDbEntity
  8
6
 62
     0
100
AcDbLine
 10
50.18288319860968
 20
-25.71254677984688
 30
0.0
 11
-46.48854537281887
 21
-25.71254677984688
 31
0.0
  0
SOLID
  5
5F77
330
6228
100
AcDbEntity
  8
6
 62
     0
100
AcDbTrace
 10
-161.0171168013903
 20
-25.31254677984689
 30
0.0
 11
-161.0171168013903
 21
-26.11254677984689
 31
0.0
 12
-163.4171168013903
 22
-25.71254677984688
 32
0.0
 13
-163.4171168013903
 23
-25.71254677984688
 33
0.0
  0
SOLID
  5
5F78
330
6228
100
AcDbEntity
  8
6
 62
     0
100
AcDbTrace
 10
50.18288319860968
 20
-25.31254677984689
 30
0.0
 11
50.18288319860968
 21
-26.11254677984689
 31
0.0
 12
52.5828831986097
 22
-25.71254677984688
 32
0.0
 13
52.5828831986097
 23
-25.71254677984688
 33
0.0
  0
TEXT
  5
5F79
330
6228
100
AcDbEntity
  8
6
 62
     0
100
AcDbText
 10
-63.27425965853318
 20
-27.21254677984688
 30
0.0
 40
3.0
  1
216.00
  7
ROMANS
100
AcDbText
  0
POINT
  5
5F7A
330
6228
100
AcDbEntity
  8
DEFPOINTS
 62
     0
100
AcDbPoint
 10
-163.4171168013903
 20
-7.013188445285804
 30
0.0
  0
POINT
  5
5F7B
330
6228
100
AcDbEntity
  8
DEFPOINTS
 62
     0
100
AcDbPoint
 10
52.5828831986097
 20
-7.013188445285804
 30
0.0
  0
POINT
  5
5F7C
330
6228
100
AcDbEntity
  8
DEFPOINTS
 62
     0
100
AcDbPoint
 10
52.5828831986097
 20
-25.71254677984688
 30
0.0
  0
ENDBLK
  5
5818
330
6228
100
AcDbEntity
  8
0
100
AcDbBlockEnd
  0
BLOCK
  5
622B
330
622A
100
AcDbEntity
  8
0
100
AcDbBlockBegin
  2
*D7
 70
     1
 10
0.0
 20
0.0
 30
0.0
  3
*D7
  1

  0
LINE
  5
5F40
330
622A
100
AcDbEntity
  8
6
 62
     0
100
AcDbLine
 10
54.38288319860967
 20
-4.763188445285806
 30
0.0
 11
62.99000582010014
 21
-4.763188445285808
 31
0.0
  0
LINE
  5
5F41
330
622A
100
AcDbEntity
  8
6
 62
     0
100
AcDbLine
 10
54.38288319860967
 20
67.2368115547132
 30
0.0
 11
62.99000582010014
 21
67.2368115547132
 31
0.0
  0
LINE
  5
5F42
330
622A
100
AcDbEntity
  8
6
 62
     0
100
AcDbLine
 10
61.19000582010015
 20
-2.363188445285808
 30
0.0
 11
61.19000582010015
 21
28.2368115547137
 31
0.0
  0
LINE
  5
5F43
330
622A
100
AcDbEntity
  8
6
 62
     0
100
AcDbLine
 10
61.19000582010015
 20
64.8368115547132
 30
0.0
 11
61.19000582010015
 21
34.23681155471369
 31
0.0
  0
SOLID
  5
5F44
330
622A
100
AcDbEntity
  8
6
 62
     0
100
AcDbTrace
 10
60.79000582010015
 20
-2.363188445285806
 30
0.0
 11
61.59000582010015
 21
-2.363188445285808
 31
0.0
 12
61.19000582010015
 22
-4.763188445285806
 32
0.0
 13
61.19000582010015
 23
-4.763188445285806
 33
0.0
  0
SOLID
  5
5F45
330
622A
100
AcDbEntity
  8
6
 62
     0
100
AcDbTrace
 10
60.79000582010017
 20
64.8368115547132
 30
0.0
 11
61.59000582010015
 21
64.8368115547132
 31
0.0
 12
61.19000582010015
 22
67.2368115547132
 32
0.0
 13
61.19000582010015
 23
67.2368115547132
 33
0.0
  0
TEXT
  5
5F46
330
622A
100
AcDbEntity
  8
6
 62
     0
100
AcDbText
 10
54.76143439152872
 20
29.7368115547137
 30
0.0
 40
3.0
  1
72.00
  7
ROMANS
100
AcDbText
  0
POINT
  5
5F47
330
622A
100
AcDbEntity
  8
DEFPOINTS
 62
     0
100
AcDbPoint
 10
52.5828831986097
 20
-4.763188445285805
 30
0.0
  0
POINT
  5
5F48
330
622A
100
AcDbEntity
  8
DEFPOINTS
 62
     0
100
AcDbPoint
 10
52.5828831986097
 20
67.2368115547132
 30
0.0
  0
POINT
  5
5F49
330
622A
100
AcDbEntity
  8
DEFPOINTS
 62
     0
100
AcDbPoint
 10
61.19000582010015
 20
67.2368115547132
 30
0.0
  0
ENDBLK
  5
5824
330
622A
100
AcDbEntity
  8
0
100
AcDbBlockEnd
  0
BLOCK
  5
622D
330
622C
100
AcDbEntity
  8
0
100
AcDbBlockBegin
  2
*D8
 70
     1
 10
0.0
 20
0.0
 30
0.0
  3
*D8
  1

  0
LINE
  5
5FE1
330
622C
100
AcDbEntity
  8
6
 62
     0
100
AcDbLine
 10
-161.4171168013903
 20
-6.563188445285804
 30
0.0
 11
-161.4171168013903
 21
-14.34286204721574
 31
0.0
  0
LINE
  5
5FE2
330
622C
100
AcDbEntity
  8
6
 62
     0
100
AcDbLine
 10
-163.4171168013903
 20
-8.813188445285806
 30
0.0
 11
-163.4171168013903
 21
-14.34286204721574
 31
0.0
  0
LINE
  5
5FE3
330
622C
100
AcDbEntity
  8
6
 62
     0
100
AcDbLine
 10
-159.0171168013903
 20
-12.54286204721575
 30
0.0
 11
-156.6171168013902
 21
-12.54286204721575
 31
0.0
  0
LINE
  5
5FE4
330
622C
100
AcDbEntity
  8
6
 62
     0
100
AcDbLine
 10
-165.8171168013903
 20
-12.54286204721575
 30
0.0
 11
-170.6718787061522
 21
-12.54286204721575
 31
0.0
  0
SOLID
  5
5FE5
330
622C
100
AcDbEntity
  8
6
 62
     0
100
AcDbTrace
 10
-159.0171168013903
 20
-12.14286204721575
 30
0.0
 11
-159.0171168013903
 21
-12.94286204721575
 31
0.0
 12
-161.4171168013903
 22
-12.54286204721575
 32
0.0
 13
-161.4171168013903
 23
-12.54286204721575
 33
0.0
  0
SOLID
  5
5FE6
330
622C
100
AcDbEntity
  8
6
 62
     0
100
AcDbTrace
 10
-165.8171168013903
 20
-12.14286204721575
 30
0.0
 11
-165.8171168013903
 21
-12.94286204721575
 31
0.0
 12
-163.4171168013903
 22
-12.54286204721575
 32
0.0
 13
-163.4171168013903
 23
-12.54286204721575
 33
0.0
  0
INSERT
  5
5FE7
330
622C
100
AcDbEntity
  8
6
100
AcDbBlockReference
  2
*U9
 10
0.0
 20
0.0
 30
0.0
  0
POINT
  5
5FE8
330
622C
100
AcDbEntity
  8
DEFPOINTS
 62
     0
100
AcDbPoint
 10
-161.4171168013903
 20
-4.763188445285805
 30
0.0
  0
POINT
  5
5FE9
330
622C
100
AcDbEntity
  8
DEFPOINTS
 62
     0
100
AcDbPoint
 10
-163.4171168013903
 20
-7.013188445285804
 30
0.0
  0
POINT
  5
5FEA
330
622C
100
AcDbEntity
  8
DEFPOINTS
 62
     0
100
AcDbPoint
 10
-163.4171168013903
 20
-12.54286204721575
 30
0.0
  0
ENDBLK
  5
574C
330
622C
100
AcDbEntity
  8
0
100
AcDbBlockEnd
  0
BLOCK
  5
6257
330
622E
100
AcDbEntity
  8
0
100
AcDbBlockBegin
  2
*U9
 70
     1
 10
0.0
 20
0.0
 30
0.0
  3
*U9
  1

  0
TEXT
  5
61D5
330
622E
100
AcDbEntity
  8
6
 62
     0
100
AcDbText
 10
-185.6004501347236
 20
-9.042862047215747
 30
0.0
 40
3.0
  1
2.00
  7
ROMANS
100
AcDbText
  0
TEXT
  5
61D6
330
622E
100
AcDbEntity
  8
6
 62
     0
100
AcDbText
 10
-189.6004501347236
 20
-14.04286204721574
 30
0.0
 40
3.0
  1
BORDER
  7
ROMANS
100
AcDbText
  0
TEXT
  5
61D7
330
622E
100
AcDbEntity
  8
6
 62
     0
100
AcDbText
 10
-185.0290215632949
 20
-19.04286204721573
 30
0.0
 40
3.0
  1
TYP.
  7
ROMANS
100
AcDbText
  0
ENDBLK
  5
61D9
330
622E
100
AcDbEntity
  8
0
100
AcDbBlockEnd
  0
BLOCK
  5
6230
330
622F
100
AcDbEntity
  8
0
100
AcDbBlockBegin
  2
*D10
 70
     1
 10
0.0
 20
0.0
 30
0.0
  3
*D10
  1

  0
LINE
  5
5FEB
330
622F
100
AcDbEntity
  8
6
 62
     0
100
AcDbLine
 10
88.35688428333019
 20
-70.0258914292771
 30
0.0
 11
100.3448479439499
 21
-70.02589142927714
 31
0.0
  0
LINE
  5
5FEC
330
622F
100
AcDbEntity
  8
6
 62
     0
100
AcDbLine
 10
93.24369880846472
 20
-37.50730627823396
 30
0.0
 11
100.3448479439499
 21
-37.50730627823396
 31
0.0
  0
LINE
  5
5FED
330
622F
100
AcDbEntity
  8
6
 62
     0
100
AcDbLine
 10
98.54484794395
 20
-67.62589142927713
 30
0.0
 11
98.54484794395
 21
-56.76659885375554
 31
0.0
  0
LINE
  5
5FEE
330
622F
100
AcDbEntity
  8
6
 62
     0
100
AcDbLine
 10
98.54484794395
 20
-39.90730627823396
 30
0.0
 11
98.54484794395
 21
-50.76659885375555
 31
0.0
  0
SOLID
  5
5FEF
330
622F
100
AcDbEntity
  8
6
 62
     0
100
AcDbTrace
 10
98.14484794394999
 20
-67.62589142927713
 30
0.0
 11
98.94484794395005
 21
-67.62589142927713
 31
0.0
 12
98.54484794395
 22
-70.02589142927714
 32
0.0
 13
98.54484794395
 23
-70.02589142927714
 33
0.0
  0
SOLID
  5
5FF0
330
622F
100
AcDbEntity
  8
6
 62
     0
100
AcDbTrace
 10
98.14484794394999
 20
-39.90730627823396
 30
0.0
 11
98.94484794395005
 21
-39.90730627823396
 31
0.0
 12
98.54484794395
 22
-37.50730627823396
 32
0.0
 13
98.54484794395
 23
-37.50730627823396
 33
0.0
  0
TEXT
  5
5FF1
330
622F
100
AcDbEntity
  8
6
 62
     0
100
AcDbText
 10
93.54484794395002
 20
-55.26659885375553
 30
0.0
 40
3.0
  1
2.25
  7
ROMANS
100
AcDbText
  0
POINT
  5
5FF2
330
622F
100
AcDbEntity
  8
DEFPOINTS
 62
     0
100
AcDbPoint
 10
86.5568842833302
 20
-70.0258914292771
 30
0.0
  0
POINT
  5
5FF3
330
622F
100
AcDbEntity
  8
DEFPOINTS
 62
     0
100
AcDbPoint
 10
91.44369880846474
 20
-37.50730627823396
 30
0.0
  0
POINT
  5
5FF4
330
622F
100
AcDbEntity
  8
DEFPOINTS
 62
     0
100
AcDbPoint
 10
98.54484794395
 20
-37.50730627823396
 30
0.0
  0
ENDBLK
  5
5740
330
622F
100
AcDbEntity
  8
0
100
AcDbBlockEnd
  0
BLOCK
  5
6232
330
6231
100
AcDbEntity
  8
0
100
AcDbBlockBegin
  2
*D11
 70
     1
 10
0.0
 20
0.0
 30
0.0
  3
*D11
  1

  0
LINE
  5
5F5E
330
6231
100
AcDbEntity
  8
6
 62
     0
100
AcDbLine
 10
54.38288319860967
 20
-4.763188445285806
 30
0.0
 11
71.72557494505118
 21
-4.763188445285811
 31
0.0
  0
LINE
  5
5F5F
330
6231
100
AcDbEntity
  8
6
 62
     0
100
AcDbLine
 10
54.38288319860967
 20
-7.013188445285806
 30
0.0
 11
71.72557494505118
 21
-7.013188445285811
 31
0.0
  0
LINE
  5
5F60
330
6231
100
AcDbEntity
  8
6
 62
     0
100
AcDbLine
 10
69.9255749450512
 20
-2.36318844528581
 30
0.0
 11
69.9255749450512
 21
0.036811554714189
 31
0.0
  0
LINE
  5
5F61
330
6231
100
AcDbEntity
  8
6
 62
     0
100
AcDbLine
 10
69.9255749450512
 20
-9.413188445285813
 30
0.0
 11
69.9255749450512
 21
-11.81318844528581
 31
0.0
  0
LINE
  5
5F62
330
6231
100
AcDbEntity
  8
6
 62
     0
100
AcDbLine
 10
69.9255749450512
 20
-11.81318844528581
 30
0.0
 11
67.52557494505118
 21
-11.81318844528581
 31
0.0
  0
SOLID
  5
5F63
330
6231
100
AcDbEntity
  8
6
 62
     0
100
AcDbTrace
 10
69.52557494505119
 20
-2.36318844528581
 30
0.0
 11
70.3255749450512
 21
-2.36318844528581
 31
0.0
 12
69.9255749450512
 22
-4.763188445285808
 32
0.0
 13
69.9255749450512
 23
-4.763188445285808
 33
0.0
  0
SOLID
  5
5F64
330
6231
100
AcDbEntity
  8
6
 62
     0
100
AcDbTrace
 10
69.52557494505119
 20
-9.413188445285813
 30
0.0
 11
70.3255749450512
 21
-9.413188445285813
 31
0.0
 12
69.9255749450512
 22
-7.013188445285808
 32
0.0
 13
69.9255749450512
 23
-7.013188445285808
 33
0.0
  0
TEXT
  5
5F65
330
6231
100
AcDbEntity
  8
6
 62
     0
100
AcDbText
 10
56.45414637362262
 20
-13.31318844528579
 30
0.0
 40
3.0
  1
2.25
  7
ROMANS
100
AcDbText
  0
POINT
  5
5F66
330
6231
100
AcDbEntity
  8
DEFPOINTS
 62
     0
100
AcDbPoint
 10
52.5828831986097
 20
-4.763188445285805
 30
0.0
  0
POINT
  5
5F67
330
6231
100
AcDbEntity
  8
DEFPOINTS
 62
     0
100
AcDbPoint
 10
52.5828831986097
 20
-7.013188445285804
 30
0.0
  0
POINT
  5
5F68
330
6231
100
AcDbEntity
  8
DEFPOINTS
 62
     0
100
AcDbPoint
 10
69.9255749450512
 20
-7.013188445285808
 30
0.0
  0
ENDBLK
  5
5789
330
6231
100
AcDbEntity
  8
0
100
AcDbBlockEnd
  0
BLOCK
  5
6234
330
6233
100
AcDbEntity
  8
0
100
AcDbBlockBegin
  2
*D12
 70
     1
 10
0.0
 20
0.0
 30
0.0
  3
*D12
  1

  0
LINE
  5
5F69
330
6233
100
AcDbEntity
  8
6
 62
     0
100
AcDbLine
 10
-161.4171168013903
 20
-6.563188445285804
 30
0.0
 11
-161.4171168013903
 21
-20.26832052781246
 31
0.0
  0
LINE
  5
5F6A
330
6233
100
AcDbEntity
  8
6
 62
     0
100
AcDbLine
 10
50.58288319860968
 20
-6.563188445285804
 30
0.0
 11
50.58288319860968
 21
-20.26832052781246
 31
0.0
  0
LINE
  5
5F6B
330
6233
100
AcDbEntity
  8
6
 62
     0
100
AcDbLine
 10
-159.0171168013903
 20
-18.46832052781245
 30
0.0
 11
-64.34568822996173
 21
-18.46832052781245
 31
0.0
  0
LINE
  5
5F6C
330
6233
100
AcDbEntity
  8
6
 62
     0
100
AcDbLine
 10
48.18288319860967
 20
-18.46832052781245
 30
0.0
 11
-46.48854537281887
 21
-18.46832052781245
 31
0.0
  0
SOLID
  5
5F6D
330
6233
100
AcDbEntity
  8
6
 62
     0
100
AcDbTrace
 10
-159.0171168013903
 20
-18.06832052781246
 30
0.0
 11
-159.0171168013903
 21
-18.86832052781246
 31
0.0
 12
-161.4171168013903
 22
-18.46832052781245
 32
0.0
 13
-161.4171168013903
 23
-18.46832052781245
 33
0.0
  0
SOLID
  5
5F6E
330
6233
100
AcDbEntity
  8
6
 62
     0
100
AcDbTrace
 10
48.18288319860967
 20
-18.06832052781246
 30
0.0
 11
48.18288319860967
 21
-18.86832052781246
 31
0.0
 12
50.58288319860968
 22
-18.46832052781245
 32
0.0
 13
50.58288319860968
 23
-18.46832052781245
 33
0.0
  0
TEXT
  5
5F6F
330
6233
100
AcDbEntity
  8
6
 62
     0
100
AcDbText
 10
-63.27425965853318
 20
-19.96832052781245
 30
0.0
 40
3.0
  1
212.00
  7
ROMANS
100
AcDbText
  0
POINT
  5
5F70
330
6233
100
AcDbEntity
  8
DEFPOINTS
 62
     0
100
AcDbPoint
 10
-161.4171168013903
 20
-4.763188445285805
 30
0.0
  0
POINT
  5
5F71
330
6233
100
AcDbEntity
  8
DEFPOINTS
 62
     0
100
AcDbPoint
 10
50.58288319860968
 20
-4.763188445285805
 30
0.0
  0
POINT
  5
5F72
330
6233
100
AcDbEntity
  8
DEFPOINTS
 62
     0
100
AcDbPoint
 10
50.58288319860968
 20
-18.46832052781245
 30
0.0
  0
ENDBLK
  5
580C
330
6233
100
AcDbEntity
  8
0
100
AcDbBlockEnd
  0
BLOCK
  5
6236
330
6235
100
AcDbEntity
  8
0
100
AcDbBlockBegin
  2
*D13
 70
     1
 10
0.0
 20
0.0
 30
0.0
  3
*D13
  1

  0
LINE
  5
5F2C
330
6235
100
AcDbEntity
  8
6
 62
     0
100
AcDbLine
 10
54.38288319860967
 20
103.234311554714
 30
0.0
 11
62.99000582010019
 21
103.234311554714
 31
0.0
  0
LINE
  5
5F2D
330
6235
100
AcDbEntity
  8
6
 62
     0
100
AcDbLine
 10
54.38288319860974
 20
77.23681155471317
 30
0.0
 11
62.99000582010019
 21
77.23681155471317
 31
0.0
  0
LINE
  5
5F2E
330
6235
100
AcDbEntity
  8
6
 62
     0
100
AcDbLine
 10
61.19000582010018
 20
100.8343115547141
 30
0.0
 11
61.19000582010018
 21
95.73556155471369
 31
0.0
  0
LINE
  5
5F2F
330
6235
100
AcDbEntity
  8
6
 62
     0
100
AcDbLine
 10
61.19000582010018
 20
79.63681155471317
 30
0.0
 11
61.19000582010018
 21
84.73556155471369
 31
0.0
  0
SOLID
  5
5F30
330
6235
100
AcDbEntity
  8
6
 62
     0
100
AcDbTrace
 10
60.79000582010018
 20
100.8343115547141
 30
0.0
 11
61.59000582010018
 21
100.8343115547141
 31
0.0
 12
61.19000582010018
 22
103.234311554714
 32
0.0
 13
61.19000582010018
 23
103.234311554714
 33
0.0
  0
SOLID
  5
5F31
330
6235
100
AcDbEntity
  8
6
 62
     0
100
AcDbTrace
 10
60.79000582010018
 20
79.63681155471317
 30
0.0
 11
61.59000582010018
 21
79.63681155471317
 31
0.0
 12
61.19000582010018
 22
77.23681155471317
 32
0.0
 13
61.19000582010018
 23
77.23681155471317
 33
0.0
  0
INSERT
  5
5F32
330
6235
100
AcDbEntity
  8
6
100
AcDbBlockReference
  2
*U14
 10
0.0
 20
0.0
 30
0.0
  0
POINT
  5
5F33
330
6235
100
AcDbEntity
  8
DEFPOINTS
 62
     0
100
AcDbPoint
 10
52.5828831986097
 20
103.234311554714
 30
0.0
  0
POINT
  5
5F34
330
6235
100
AcDbEntity
  8
DEFPOINTS
 62
     0
100
AcDbPoint
 10
52.58288319860974
 20
77.23681155471317
 30
0.0
  0
POINT
  5
5F35
330
6235
100
AcDbEntity
  8
DEFPOINTS
 62
     0
100
AcDbPoint
 10
61.19000582010018
 20
77.23681155471317
 30
0.0
  0
ENDBLK
  5
57ED
330
6235
100
AcDbEntity
  8
0
100
AcDbBlockEnd
  0
BLOCK
  5
6256
330
6237
100
AcDbEntity
  8
0
100
AcDbBlockBegin
  2
*U14
 70
     1
 10
0.0
 20
0.0
 30
0.0
  3
*U14
  1

  0
TEXT
  5
61D0
330
6237
100
AcDbEntity
  8
6
 62
     0
100
AcDbText
 10
54.76143439152874
 20
91.23556155471368
 30
0.0
 40
3.0
  1
26.00
  7
ROMANS
100
AcDbText
  0
TEXT
  5
61D1
330
6237
100
AcDbEntity
  8
6
 62
     0
100
AcDbText
 10
56.54714867724303
 20
86.23556155471368
 30
0.0
 40
3.0
  1
R.W.
  7
ROMANS
100
AcDbText
  0
ENDBLK
  5
61D3
330
6237
100
AcDbEntity
  8
0
100
AcDbBlockEnd
  0
BLOCK
  5
6239
330
6238
100
AcDbEntity
  8
0
100
AcDbBlockBegin
  2
*D15
 70
     1
 10
0.0
 20
0.0
 30
0.0
  3
*D15
  1

  0
LINE
  5
6003
330
6238
100
AcDbEntity
  8
6
 62
     0
100
AcDbLine
 10
413.3828514990072
 20
-8.813188445285806
 30
0.0
 11
413.3828514990072
 21
-23.99307447535448
 31
0.0
  0
LINE
  5
6004
330
6238
100
AcDbEntity
  8
6
 62
     0
100
AcDbLine
 10
513.3828514990072
 20
-8.813188445285806
 30
0.0
 11
513.3828514990072
 21
-23.99307447535448
 31
0.0
  0
LINE
  5
6005
330
6238
100
AcDbEntity
  8
6
 62
     0
100
AcDbLine
 10
415.7828514990071
 20
-22.19307447535447
 30
0.0
 11
435.5971372132928
 21
-22.19307447535447
 31
0.0
  0
LINE
  5
6006
330
6238
100
AcDbEntity
  8
6
 62
     0
100
AcDbLine
 10
510.9828514990072
 20
-22.19307447535447
 30
0.0
 11
491.1685657847213
 21
-22.19307447535447
 31
0.0
  0
SOLID
  5
6007
330
6238
100
AcDbEntity
  8
6
 62
     0
100
AcDbTrace
 10
415.7828514990071
 20
-21.79307447535447
 30
0.0
 11
415.7828514990071
 21
-22.59307447535447
 31
0.0
 12
413.3828514990072
 22
-22.19307447535447
 32
0.0
 13
413.3828514990072
 23
-22.19307447535447
 33
0.0
  0
SOLID
  5
6008
330
6238
100
AcDbEntity
  8
6
 62
     0
100
AcDbTrace
 10
510.9828514990072
 20
-21.79307447535447
 30
0.0
 11
510.9828514990072
 21
-22.59307447535447
 31
0.0
 12
513.3828514990072
 22
-22.19307447535447
 32
0.0
 13
513.3828514990072
 23
-22.19307447535447
 33
0.0
  0
TEXT
  5
6009
330
6238
100
AcDbEntity
  8
6
 62
     0
100
AcDbText
 10
436.2399943561499
 20
-23.19307447535448
 30
0.0
 40
3.0
  1
100.00 (FABRIC WIDTH)
  7
ROMANS
100
AcDbText
  0
POINT
  5
600A
330
6238
100
AcDbEntity
  8
DEFPOINTS
 62
     0
100
AcDbPoint
 10
413.3828514990072
 20
-7.013188445285804
 30
0.0
  0
POINT
  5
600B
330
6238
100
AcDbEntity
  8
DEFPOINTS
 62
     0
100
AcDbPoint
 10
513.3828514990072
 20
-7.013188445285804
 30
0.0
  0
POINT
  5
600C
330
6238
100
AcDbEntity
  8
DEFPOINTS
 62
     0
100
AcDbPoint
 10
513.3828514990072
 20
-22.19307447535447
 30
0.0
  0
ENDBLK
  5
59B8
330
6238
100
AcDbEntity
  8
0
100
AcDbBlockEnd
  0
BLOCK
  5
623B
330
623A
100
AcDbEntity
  8
0
100
AcDbBlockBegin
  2
*D16
 70
     1
 10
0.0
 20
0.0
 30
0.0
  3
*D16
  1

  0
LINE
  5
5FB1
330
623A
100
AcDbEntity
  8
6
 62
     0
100
AcDbLine
 10
515.1828514990071
 20
-7.013188445285806
 30
0.0
 11
543.2843255722757
 21
-7.013188445285812
 31
0.0
  0
LINE
  5
5FB2
330
623A
100
AcDbEntity
  8
6
 62
     0
100
AcDbLine
 10
520.1828514990071
 20
77.2343115547132
 30
0.0
 11
543.2843255722757
 21
77.2343115547132
 31
0.0
  0
LINE
  5
5FB3
330
623A
100
AcDbEntity
  8
6
 62
     0
100
AcDbLine
 10
541.4843255722757
 20
-4.613188445285811
 30
0.0
 11
541.4843255722757
 21
42.39984842821395
 31
0.0
  0
LINE
  5
5FB4
330
623A
100
AcDbEntity
  8
6
 62
     0
100
AcDbLine
 10
541.4843255722757
 20
74.83431155471319
 30
0.0
 11
541.4843255722757
 21
48.39984842821396
 31
0.0
  0
SOLID
  5
5FB5
330
623A
100
AcDbEntity
  8
6
 62
     0
100
AcDbTrace
 10
541.0843255722758
 20
-4.613188445285811
 30
0.0
 11
541.8843255722756
 21
-4.613188445285811
 31
0.0
 12
541.4843255722757
 22
-7.013188445285812
 32
0.0
 13
541.4843255722757
 23
-7.013188445285812
 33
0.0
  0
SOLID
  5
5FB6
330
623A
100
AcDbEntity
  8
6
 62
     0
100
AcDbTrace
 10
541.0843255722758
 20
74.83431155471319
 30
0.0
 11
541.8843255722756
 21
74.83431155471319
 31
0.0
 12
541.4843255722757
 22
77.2343115547132
 32
0.0
 13
541.4843255722757
 23
77.2343115547132
 33
0.0
  0
TEXT
  5
5FB7
330
623A
100
AcDbEntity
  8
6
 62
     0
100
AcDbText
 10
535.0557541437043
 20
43.89984842821403
 30
0.0
 40
3.0
  1
84.25
  7
ROMANS
100
AcDbText
  0
POINT
  5
5FB8
330
623A
100
AcDbEntity
  8
DEFPOINTS
 62
     0
100
AcDbPoint
 10
513.3828514990072
 20
-7.013188445285804
 30
0.0
  0
POINT
  5
5FB9
330
623A
100
AcDbEntity
  8
DEFPOINTS
 62
     0
100
AcDbPoint
 10
518.3828514990072
 20
77.2343115547132
 30
0.0
  0
POINT
  5
5FBA
330
623A
100
AcDbEntity
  8
DEFPOINTS
 62
     0
100
AcDbPoint
 10
541.4843255722757
 20
77.2343115547132
 30
0.0
  0
ENDBLK
  5
5971
330
623A
100
AcDbEntity
  8
0
100
AcDbBlockEnd
  0
BLOCK
  5
623D
330
623C
100
AcDbEntity
  8
0
100
AcDbBlockBegin
  2
*D17
 70
     1
 10
0.0
 20
0.0
 30
0.0
  3
*D17
  1

  0
LINE
  5
60FA
330
623C
100
AcDbEntity
  8
6
 62
     0
100
AcDbLine
 10
515.1828514990071
 20
-4.763188445285806
 30
0.0
 11
532.7518219609332
 21
-4.763188445285811
 31
0.0
  0
LINE
  5
60FB
330
623C
100
AcDbEntity
  8
6
 62
     0
100
AcDbLine
 10
515.1828514990071
 20
67.2343115547132
 30
0.0
 11
532.7518219609332
 21
67.2343115547132
 31
0.0
  0
LINE
  5
60FC
330
623C
100
AcDbEntity
  8
6
 62
     0
100
AcDbLine
 10
530.9518219609331
 20
-2.36318844528581
 30
0.0
 11
530.9518219609331
 21
25.73556155471369
 31
0.0
  0
LINE
  5
60FD
330
623C
100
AcDbEntity
  8
6
 62
     0
100
AcDbLine
 10
530.9518219609331
 20
64.83431155471319
 30
0.0
 11
530.9518219609331
 21
36.73556155471369
 31
0.0
  0
SOLID
  5
60FE
330
623C
100
AcDbEntity
  8
6
 62
     0
100
AcDbTrace
 10
530.5518219609333
 20
-2.36318844528581
 30
0.0
 11
531.3518219609331
 21
-2.36318844528581
 31
0.0
 12
530.9518219609331
 22
-4.763188445285811
 32
0.0
 13
530.9518219609331
 23
-4.763188445285811
 33
0.0
  0
SOLID
  5
60FF
330
623C
100
AcDbEntity
  8
6
 62
     0
100
AcDbTrace
 10
530.5518219609333
 20
64.83431155471319
 30
0.0
 11
531.3518219609331
 21
64.83431155471319
 31
0.0
 12
530.9518219609331
 22
67.2343115547132
 32
0.0
 13
530.9518219609331
 23
67.2343115547132
 33
0.0
  0
INSERT
  5
6100
330
623C
100
AcDbEntity
  8
6
100
AcDbBlockReference
  2
*U18
 10
0.0
 20
0.0
 30
0.0
  0
POINT
  5
6101
330
623C
100
AcDbEntity
  8
DEFPOINTS
 62
     0
100
AcDbPoint
 10
513.3828514990072
 20
-4.763188445285805
 30
0.0
  0
POINT
  5
6102
330
623C
100
AcDbEntity
  8
DEFPOINTS
 62
     0
100
AcDbPoint
 10
513.3828514990072
 20
67.2343115547132
 30
0.0
  0
POINT
  5
6103
330
623C
100
AcDbEntity
  8
DEFPOINTS
 62
     0
100
AcDbPoint
 10
530.9518219609331
 20
67.2343115547132
 30
0.0
  0
ENDBLK
  5
58DC
330
623C
100
AcDbEntity
  8
0
100
AcDbBlockEnd
  0
BLOCK
  5
6259
330
623E
100
AcDbEntity
  8
0
100
AcDbBlockBegin
  2
*U18
 70
     1
 10
0.0
 20
0.0
 30
0.0
  3
*U18
  1

  0
TEXT
  5
61E1
330
623E
100
AcDbEntity
  8
6
 62
     0
100
AcDbText
 10
524.5232505323619
 20
32.23556155471377
 30
0.0
 40
3.0
  1
72.00
  7
ROMANS
100
AcDbText
  0
TEXT
  5
61E2
330
623E
100
AcDbEntity
  8
6
 62
     0
100
AcDbText
 10
527.0232505323616
 20
27.23556155471377
 30
0.0
 40
3.0
  1
VAH
  7
ROMANS
100
AcDbText
  0
ENDBLK
  5
61E4
330
623E
100
AcDbEntity
  8
0
100
AcDbBlockEnd
  0
BLOCK
  5
6240
330
623F
100
AcDbEntity
  8
0
100
AcDbBlockBegin
  2
*D19
 70
     1
 10
0.0
 20
0.0
 30
0.0
  3
*D19
  1

  0
LINE
  5
6017
330
623F
100
AcDbEntity
  8
6
 62
     0
100
AcDbLine
 10
415.3828514990071
 20
-6.563188445285804
 30
0.0
 11
415.3828514990071
 21
-16.50986088749998
 31
0.0
  0
LINE
  5
6018
330
623F
100
AcDbEntity
  8
6
 62
     0
100
AcDbLine
 10
413.3828514990072
 20
-8.813188445285806
 30
0.0
 11
413.3828514990072
 21
-16.50986088749998
 31
0.0
  0
LINE
  5
6019
330
623F
100
AcDbEntity
  8
6
 62
     0
100
AcDbLine
 10
417.782851499007
 20
-14.70986088749998
 30
0.0
 11
420.182851499007
 21
-14.70986088749998
 31
0.0
  0
LINE
  5
601A
330
623F
100
AcDbEntity
  8
6
 62
     0
100
AcDbLine
 10
410.9828514990072
 20
-14.70986088749998
 30
0.0
 11
406.1280895942452
 21
-14.70986088749998
 31
0.0
  0
SOLID
  5
601B
330
623F
100
AcDbEntity
  8
6
 62
     0
100
AcDbTrace
 10
417.782851499007
 20
-14.30986088749998
 30
0.0
 11
417.782851499007
 21
-15.10986088749998
 31
0.0
 12
415.3828514990071
 22
-14.70986088749998
 32
0.0
 13
415.3828514990071
 23
-14.70986088749998
 33
0.0
  0
SOLID
  5
601C
330
623F
100
AcDbEntity
  8
6
 62
     0
100
AcDbTrace
 10
410.9828514990072
 20
-14.30986088749998
 30
0.0
 11
410.9828514990072
 21
-15.10986088749998
 31
0.0
 12
413.3828514990072
 22
-14.70986088749998
 32
0.0
 13
413.3828514990072
 23
-14.70986088749998
 33
0.0
  0
INSERT
  5
601D
330
623F
100
AcDbEntity
  8
6
100
AcDbBlockReference
  2
*U20
 10
0.0
 20
0.0
 30
0.0
  0
POINT
  5
601E
330
623F
100
AcDbEntity
  8
DEFPOINTS
 62
     0
100
AcDbPoint
 10
415.3828514990071
 20
-4.763188445285805
 30
0.0
  0
POINT
  5
601F
330
623F
100
AcDbEntity
  8
DEFPOINTS
 62
     0
100
AcDbPoint
 10
413.3828514990072
 20
-7.013188445285804
 30
0.0
  0
POINT
  5
6020
330
623F
100
AcDbEntity
  8
DEFPOINTS
 62
     0
100
AcDbPoint
 10
413.3828514990072
 20
-14.70986088749998
 30
0.0
  0
ENDBLK
  5
58E9
330
623F
100
AcDbEntity
  8
0
100
AcDbBlockEnd
  0
BLOCK
  5
6258
330
6241
100
AcDbEntity
  8
0
100
AcDbBlockBegin
  2
*U20
 70
     1
 10
0.0
 20
0.0
 30
0.0
  3
*U20
  1

  0
TEXT
  5
61DB
330
6241
100
AcDbEntity
  8
6
 62
     0
100
AcDbText
 10
391.1995181656737
 20
-11.20986088749998
 30
0.0
 40
3.0
  1
2.00
  7
ROMANS
100
AcDbText
  0
TEXT
  5
61DC
330
6241
100
AcDbEntity
  8
6
 62
     0
100
AcDbText
 10
387.1995181656737
 20
-16.20986088749997
 30
0.0
 40
3.0
  1
BORDER
  7
ROMANS
100
AcDbText
  0
TEXT
  5
61DD
330
6241
100
AcDbEntity
  8
6
 62
     0
100
AcDbText
 10
391.7709467371023
 20
-21.20986088749997
 30
0.0
 40
3.0
  1
TYP.
  7
ROMANS
100
AcDbText
  0
ENDBLK
  5
61DF
330
6241
100
AcDbEntity
  8
0
100
AcDbBlockEnd
  0
BLOCK
  5
6243
330
6242
100
AcDbEntity
  8
0
100
AcDbBlockBegin
  2
*D21
 70
     1
 10
0.0
 20
0.0
 30
0.0
  3
*D21
  1

  0
LINE
  5
5FA6
330
6242
100
AcDbEntity
  8
6
 62
     0
100
AcDbLine
 10
515.1828514990071
 20
-4.763188445285806
 30
0.0
 11
532.7518219609332
 21
-4.763188445285811
 31
0.0
  0
LINE
  5
5FA7
330
6242
100
AcDbEntity
  8
6
 62
     0
100
AcDbLine
 10
515.1828514990071
 20
-7.013188445285806
 30
0.0
 11
532.7518219609332
 21
-7.013188445285811
 31
0.0
  0
LINE
  5
5FA8
330
6242
100
AcDbEntity
  8
6
 62
     0
100
AcDbLine
 10
530.9518219609331
 20
-2.36318844528581
 30
0.0
 11
530.9518219609331
 21
0.0368115547141888
 31
0.0
  0
LINE
  5
5FA9
330
6242
100
AcDbEntity
  8
6
 62
     0
100
AcDbLine
 10
530.9518219609331
 20
-9.413188445285806
 30
0.0
 11
530.9518219609331
 21
-15.32613783197171
 31
0.0
  0
LINE
  5
5FAA
330
6242
100
AcDbEntity
  8
6
 62
     0
100
AcDbLine
 10
530.9518219609331
 20
-15.32613783197171
 30
0.0
 11
528.5518219609333
 21
-15.32613783197171
 31
0.0
  0
SOLID
  5
5FAB
330
6242
100
AcDbEntity
  8
6
 62
     0
100
AcDbTrace
 10
530.5518219609333
 20
-2.36318844528581
 30
0.0
 11
531.3518219609331
 21
-2.36318844528581
 31
0.0
 12
530.9518219609331
 22
-4.763188445285811
 32
0.0
 13
530.9518219609331
 23
-4.763188445285811
 33
0.0
  0
SOLID
  5
5FAC
330
6242
100
AcDbEntity
  8
6
 62
     0
100
AcDbTrace
 10
530.5518219609333
 20
-9.413188445285806
 30
0.0
 11
531.3518219609331
 21
-9.413188445285806
 31
0.0
 12
530.9518219609331
 22
-7.013188445285811
 32
0.0
 13
530.9518219609331
 23
-7.013188445285811
 33
0.0
  0
TEXT
  5
5FAD
330
6242
100
AcDbEntity
  8
6
 62
     0
100
AcDbText
 10
517.4803933895048
 20
-16.82613783197162
 30
0.0
 40
3.0
  1
2.25
  7
ROMANS
100
AcDbText
  0
POINT
  5
5FAE
330
6242
100
AcDbEntity
  8
DEFPOINTS
 62
     0
100
AcDbPoint
 10
513.3828514990072
 20
-4.763188445285805
 30
0.0
  0
POINT
  5
5FAF
330
6242
100
AcDbEntity
  8
DEFPOINTS
 62
     0
100
AcDbPoint
 10
513.3828514990072
 20
-7.013188445285804
 30
0.0
  0
POINT
  5
5FB0
330
6242
100
AcDbEntity
  8
DEFPOINTS
 62
     0
100
AcDbPoint
 10
530.9518219609331
 20
-7.013188445285811
 30
0.0
  0
ENDBLK
  5
5904
330
6242
100
AcDbEntity
  8
0
100
AcDbBlockEnd
  0
BLOCK
  5
6245
330
6244
100
AcDbEntity
  8
0
100
AcDbBlockBegin
  2
*D22
 70
     1
 10
0.0
 20
0.0
 30
0.0
  3
*D22
  1

  0
LINE
  5
60F0
330
6244
100
AcDbEntity
  8
6
 62
     0
100
AcDbLine
 10
415.3828514990071
 20
-6.563188445285804
 30
0.0
 11
415.3828514990071
 21
-16.50986088749998
 31
0.0
  0
LINE
  5
60F1
330
6244
100
AcDbEntity
  8
6
 62
     0
100
AcDbLine
 10
511.3828514990071
 20
-6.563188445285804
 30
0.0
 11
511.3828514990071
 21
-16.50986088749998
 31
0.0
  0
LINE
  5
60F2
330
6244
100
AcDbEntity
  8
6
 62
     0
100
AcDbLine
 10
417.782851499007
 20
-14.70986088749998
 30
0.0
 11
450.0257086418643
 21
-14.70986088749998
 31
0.0
  0
LINE
  5
60F3
330
6244
100
AcDbEntity
  8
6
 62
     0
100
AcDbLine
 10
508.9828514990072
 20
-14.70986088749998
 30
0.0
 11
476.7399943561499
 21
-14.70986088749998
 31
0.0
  0
SOLID
  5
60F4
330
6244
100
AcDbEntity
  8
6
 62
     0
100
AcDbTrace
 10
417.782851499007
 20
-14.30986088749998
 30
0.0
 11
417.782851499007
 21
-15.10986088749998
 31
0.0
 12
415.3828514990071
 22
-14.70986088749998
 32
0.0
 13
415.3828514990071
 23
-14.70986088749998
 33
0.0
  0
SOLID
  5
60F5
330
6244
100
AcDbEntity
  8
6
 62
     0
100
AcDbTrace
 10
508.9828514990072
 20
-14.30986088749998
 30
0.0
 11
508.9828514990072
 21
-15.10986088749998
 31
0.0
 12
511.3828514990071
 22
-14.70986088749998
 32
0.0
 13
511.3828514990071
 23
-14.70986088749998
 33
0.0
  0
TEXT
  5
60F6
330
6244
100
AcDbEntity
  8
6
 62
     0
100
AcDbText
 10
451.0971372132928
 20
-16.20986088749997
 30
0.0
 40
3.0
  1
96.00 VAW
  7
ROMANS
100
AcDbText
  0
POINT
  5
60F7
330
6244
100
AcDbEntity
  8
DEFPOINTS
 62
     0
100
AcDbPoint
 10
415.3828514990071
 20
-4.763188445285805
 30
0.0
  0
POINT
  5
60F8
330
6244
100
AcDbEntity
  8
DEFPOINTS
 62
     0
100
AcDbPoint
 10
511.3828514990071
 20
-4.763188445285805
 30
0.0
  0
POINT
  5
60F9
330
6244
100
AcDbEntity
  8
DEFPOINTS
 62
     0
100
AcDbPoint
 10
511.3828514990071
 20
-14.70986088749998
 30
0.0
  0
ENDBLK
  5
5911
330
6244
100
AcDbEntity
  8
0
100
AcDbBlockEnd
  0
BLOCK
  5
6247
330
6246
100
AcDbEntity
  8
0
100
AcDbBlockBegin
  2
*D23
 70
     1
 10
0.0
 20
0.0
 30
0.0
  3
*D23
  1

  0
LINE
  5
6021
330
6246
100
AcDbEntity
  8
6
 62
     0
100
AcDbLine
 10
408.3828514990072
 20
90.34681155471322
 30
0.0
 11
408.3828514990072
 21
98.04779311840841
 31
0.0
  0
LINE
  5
6022
330
6246
100
AcDbEntity
  8
6
 62
     0
100
AcDbLine
 10
518.3828514990072
 20
90.34681155471322
 30
0.0
 11
518.3828514990072
 21
98.04779311840841
 31
0.0
  0
LINE
  5
6023
330
6246
100
AcDbEntity
  8
6
 62
     0
100
AcDbLine
 10
410.7828514990071
 20
96.24779311840841
 30
0.0
 11
420.5257086418643
 21
96.24779311840841
 31
0.0
  0
LINE
  5
6024
330
6246
100
AcDbEntity
  8
6
 62
     0
100
AcDbLine
 10
515.9828514990072
 20
96.24779311840841
 30
0.0
 11
506.23999435615
 21
96.24779311840841
 31
0.0
  0
SOLID
  5
6025
330
6246
100
AcDbEntity
  8
6
 62
     0
100
AcDbTrace
 10
410.7828514990071
 20
96.64779311840844
 30
0.0
 11
410.7828514990071
 21
95.84779311840842
 31
0.0
 12
408.3828514990072
 22
96.24779311840841
 32
0.0
 13
408.3828514990072
 23
96.24779311840841
 33
0.0
  0
SOLID
  5
6026
330
6246
100
AcDbEntity
  8
6
 62
     0
100
AcDbTrace
 10
515.9828514990072
 20
96.64779311840844
 30
0.0
 11
515.9828514990072
 21
95.84779311840842
 31
0.0
 12
518.3828514990072
 22
96.24779311840841
 32
0.0
 13
518.3828514990072
 23
96.24779311840841
 33
0.0
  0
TEXT
  5
6027
330
6246
100
AcDbEntity
  8
6
 62
     0
100
AcDbText
 10
421.1685657847215
 20
95.24779311840841
 30
0.0
 40
3.0
  1
110.00 (OVERALL LENGTH OF CASE)
  7
ROMANS
100
AcDbText
  0
POINT
  5
6028
330
6246
100
AcDbEntity
  8
DEFPOINTS
 62
     0
100
AcDbPoint
 10
408.3828514990072
 20
88.54681155471322
 30
0.0
  0
POINT
  5
6029
330
6246
100
AcDbEntity
  8
DEFPOINTS
 62
     0
100
AcDbPoint
 10
518.3828514990072
 20
88.54681155471322
 30
0.0
  0
POINT
  5
602A
330
6246
100
AcDbEntity
  8
DEFPOINTS
 62
     0
100
AcDbPoint
 10
518.3828514990072
 20
96.24779311840841
 30
0.0
  0
ENDBLK
  5
5997
330
6246
100
AcDbEntity
  8
0
100
AcDbBlockEnd
  0
BLOCK
  5
6249
330
6248
100
AcDbEntity
  8
0
100
AcDbBlockBegin
  2
*D24
 70
     1
 10
0.0
 20
0.0
 30
0.0
  3
*D24
  1

  0
LINE
  5
5FF9
330
6248
100
AcDbEntity
  8
6
 62
     0
100
AcDbLine
 10
413.1328514990071
 20
-8.813188445285806
 30
0.0
 11
413.1328514990071
 21
-30.37606392269053
 31
0.0
  0
LINE
  5
5FFA
330
6248
100
AcDbEntity
  8
6
 62
     0
100
AcDbLine
 10
513.632851499007
 20
-8.813188445285806
 30
0.0
 11
513.632851499007
 21
-30.37606392269053
 31
0.0
  0
LINE
  5
5FFB
330
6248
100
AcDbEntity
  8
6
 62
     0
100
AcDbLine
 10
415.532851499007
 20
-28.57606392269053
 30
0.0
 11
438.1685657847213
 21
-28.57606392269053
 31
0.0
  0
LINE
  5
5FFC
330
6248
100
AcDbEntity
  8
6
 62
     0
100
AcDbLine
 10
511.2328514990072
 20
-28.57606392269053
 30
0.0
 11
488.5971372132928
 21
-28.57606392269053
 31
0.0
  0
SOLID
  5
5FFD
330
6248
100
AcDbEntity
  8
6
 62
     0
100
AcDbTrace
 10
415.532851499007
 20
-28.17606392269054
 30
0.0
 11
415.532851499007
 21
-28.97606392269053
 31
0.0
 12
413.1328514990071
 22
-28.57606392269053
 32
0.0
 13
413.1328514990071
 23
-28.57606392269053
 33
0.0
  0
SOLID
  5
5FFE
330
6248
100
AcDbEntity
  8
6
 62
     0
100
AcDbTrace
 10
511.2328514990072
 20
-28.17606392269054
 30
0.0
 11
511.2328514990072
 21
-28.97606392269053
 31
0.0
 12
513.632851499007
 22
-28.57606392269053
 32
0.0
 13
513.632851499007
 23
-28.57606392269053
 33
0.0
  0
TEXT
  5
5FFF
330
6248
100
AcDbEntity
  8
6
 62
     0
100
AcDbText
 10
438.8114229275784
 20
-29.57606392269053
 30
0.0
 40
3.0
  1
100.50 (SLAT WIDTH)
  7
ROMANS
100
AcDbText
  0
POINT
  5
6000
330
6248
100
AcDbEntity
  8
DEFPOINTS
 62
     0
100
AcDbPoint
 10
413.1328514990071
 20
-7.013188445285804
 30
0.0
  0
POINT
  5
6001
330
6248
100
AcDbEntity
  8
DEFPOINTS
 62
     0
100
AcDbPoint
 10
513.632851499007
 20
-7.013188445285804
 30
0.0
  0
POINT
  5
6002
330
6248
100
AcDbEntity
  8
DEFPOINTS
 62
     0
100
AcDbPoint
 10
513.632851499007
 20
-28.57606392269053
 30
0.0
  0
ENDBLK
  5
59DC
330
6248
100
AcDbEntity
  8
0
100
AcDbBlockEnd
  0
BLOCK
  5
624B
330
624A
100
AcDbEntity
  8
0
100
AcDbBlockBegin
  2
*D25
 70
     1
 10
0.0
 20
0.0
 30
0.0
  3
*D25
  1

  0
LINE
  5
5F36
330
624A
100
AcDbEntity
  8
6
 62
     0
100
AcDbLine
 10
54.38288319860967
 20
67.2368115547132
 30
0.0
 11
62.99000582010014
 21
67.2368115547132
 31
0.0
  0
LINE
  5
5F37
330
624A
100
AcDbEntity
  8
6
 62
     0
100
AcDbLine
 10
54.38288319860967
 20
77.23681155471317
 30
0.0
 11
62.99000582010014
 21
77.23681155471317
 31
0.0
  0
LINE
  5
5F38
330
624A
100
AcDbEntity
  8
6
 62
     0
100
AcDbLine
 10
61.19000582010015
 20
64.8368115547132
 30
0.0
 11
61.19000582010015
 21
62.4368115547132
 31
0.0
  0
LINE
  5
5F39
330
624A
100
AcDbEntity
  8
6
 62
     0
100
AcDbLine
 10
61.19000582010015
 20
79.63681155471317
 30
0.0
 11
61.19000582010017
 21
82.03681155471315
 31
0.0
  0
SOLID
  5
5F3A
330
624A
100
AcDbEntity
  8
6
 62
     0
100
AcDbTrace
 10
60.79000582010017
 20
64.8368115547132
 30
0.0
 11
61.59000582010015
 21
64.8368115547132
 31
0.0
 12
61.19000582010015
 22
67.2368115547132
 32
0.0
 13
61.19000582010015
 23
67.2368115547132
 33
0.0
  0
SOLID
  5
5F3B
330
624A
100
AcDbEntity
  8
6
 62
     0
100
AcDbTrace
 10
60.79000582010017
 20
79.63681155471317
 30
0.0
 11
61.59000582010015
 21
79.63681155471317
 31
0.0
 12
61.19000582010015
 22
77.23681155471317
 32
0.0
 13
61.19000582010015
 23
77.23681155471317
 33
0.0
  0
TEXT
  5
5F3C
330
624A
100
AcDbEntity
  8
6
 62
     0
100
AcDbText
 10
54.54714867724302
 20
70.73681155471319
 30
0.0
 40
3.0
  1
10.00
  7
ROMANS
100
AcDbText
  0
POINT
  5
5F3D
330
624A
100
AcDbEntity
  8
DEFPOINTS
 62
     0
100
AcDbPoint
 10
52.5828831986097
 20
67.2368115547132
 30
0.0
  0
POINT
  5
5F3E
330
624A
100
AcDbEntity
  8
DEFPOINTS
 62
     0
100
AcDbPoint
 10
52.5828831986097
 20
77.23681155471317
 30
0.0
  0
POINT
  5
5F3F
330
624A
100
AcDbEntity
  8
DEFPOINTS
 62
     0
100
AcDbPoint
 10
61.19000582010015
 20
77.23681155471317
 30
0.0
  0
ENDBLK
  5
5D4A
330
624A
100
AcDbEntity
  8
0
100
AcDbBlockEnd
  0
BLOCK
  5
624D
330
624C
100
AcDbEntity
  8
0
100
AcDbBlockBegin
  2
*D26
 70
     1
 10
0.0
 20
0.0
 30
0.0
  3
*D26
  1

  0
LINE
  5
6124
330
624C
100
AcDbEntity
  8
6
 62
     0
100
AcDbLine
 10
515.1828514990071
 20
67.2343115547132
 30
0.0
 11
532.7518219609332
 21
67.2343115547132
 31
0.0
  0
LINE
  5
6125
330
624C
100
AcDbEntity
  8
6
 62
     0
100
AcDbLine
 10
520.1828514990071
 20
77.2343115547132
 30
0.0
 11
532.7518219609332
 21
77.2343115547132
 31
0.0
  0
LINE
  5
6126
330
624C
100
AcDbEntity
  8
6
 62
     0
100
AcDbLine
 10
530.9518219609331
 20
64.83431155471319
 30
0.0
 11
530.9518219609331
 21
62.4343115547132
 31
0.0
  0
LINE
  5
6127
330
624C
100
AcDbEntity
  8
6
 62
     0
100
AcDbLine
 10
530.9518219609331
 20
79.63431155471321
 30
0.0
 11
530.9518219609331
 21
82.03431155471319
 31
0.0
  0
LINE
  5
6128
330
624C
100
AcDbEntity
  8
6
 62
     0
100
AcDbLine
 10
530.9518219609331
 20
82.03431155471319
 30
0.0
 11
533.3518219609332
 21
82.03431155471319
 31
0.0
  0
SOLID
  5
6129
330
624C
100
AcDbEntity
  8
6
 62
     0
100
AcDbTrace
 10
530.5518219609333
 20
64.83431155471319
 30
0.0
 11
531.3518219609331
 21
64.83431155471319
 31
0.0
 12
530.9518219609331
 22
67.2343115547132
 32
0.0
 13
530.9518219609331
 23
67.2343115547132
 33
0.0
  0
SOLID
  5
612A
330
624C
100
AcDbEntity
  8
6
 62
     0
100
AcDbTrace
 10
530.5518219609333
 20
79.63431155471321
 30
0.0
 11
531.3518219609331
 21
79.63431155471321
 31
0.0
 12
530.9518219609331
 22
77.2343115547132
 32
0.0
 13
530.9518219609331
 23
77.2343115547132
 33
0.0
  0
TEXT
  5
612B
330
624C
100
AcDbEntity
  8
6
 62
     0
100
AcDbText
 10
533.9946791037903
 20
80.53431155471328
 30
0.0
 40
3.0
  1
10.00 BLK
  7
ROMANS
100
AcDbText
  0
POINT
  5
612C
330
624C
100
AcDbEntity
  8
DEFPOINTS
 62
     0
100
AcDbPoint
 10
513.3828514990072
 20
67.2343115547132
 30
0.0
  0
POINT
  5
612D
330
624C
100
AcDbEntity
  8
DEFPOINTS
 62
     0
100
AcDbPoint
 10
518.3828514990072
 20
77.2343115547132
 30
0.0
  0
POINT
  5
612E
330
624C
100
AcDbEntity
  8
DEFPOINTS
 62
     0
100
AcDbPoint
 10
530.9518219609331
 20
77.2343115547132
 30
0.0
  0
ENDBLK
  5
5D81
330
624C
100
AcDbEntity
  8
0
100
AcDbBlockEnd
  0
BLOCK
  5
624F
330
624E
100
AcDbEntity
  8
0
100
AcDbBlockBegin
  2
*D27
 70
     1
 10
0.0
 20
0.0
 30
0.0
  3
*D27
  1

  0
LINE
  5
612F
330
624E
100
AcDbEntity
  8
6
 62
     0
100
AcDbLine
 10
581.5792068662273
 20
88.54681155471322
 30
0.0
 11
569.7730691342041
 21
88.54681155471322
 31
0.0
  0
LINE
  5
6130
330
624E
100
AcDbEntity
  8
6
 62
     0
100
AcDbLine
 10
581.5792068662273
 20
77.2343115547132
 30
0.0
 11
569.7730691342041
 21
77.2343115547132
 31
0.0
  0
LINE
  5
6131
330
624E
100
AcDbEntity
  8
6
 62
     0
100
AcDbLine
 10
571.573069134204
 20
90.9468115547132
 30
0.0
 11
571.573069134204
 21
93.3468115547132
 31
0.0
  0
LINE
  5
6132
330
624E
100
AcDbEntity
  8
6
 62
     0
100
AcDbLine
 10
571.573069134204
 20
74.83431155471319
 30
0.0
 11
571.573069134204
 21
72.4343115547132
 31
0.0
  0
SOLID
  5
6133
330
624E
100
AcDbEntity
  8
6
 62
     0
100
AcDbTrace
 10
571.173069134204
 20
90.9468115547132
 30
0.0
 11
571.9730691342041
 21
90.9468115547132
 31
0.0
 12
571.573069134204
 22
88.54681155471322
 32
0.0
 13
571.573069134204
 23
88.54681155471322
 33
0.0
  0
SOLID
  5
6134
330
624E
100
AcDbEntity
  8
6
 62
     0
100
AcDbTrace
 10
571.173069134204
 20
74.83431155471319
 30
0.0
 11
571.9730691342041
 21
74.83431155471319
 31
0.0
 12
571.573069134204
 22
77.2343115547132
 32
0.0
 13
571.573069134204
 23
77.2343115547132
 33
0.0
  0
TEXT
  5
6135
330
624E
100
AcDbEntity
  8
6
 62
     0
100
AcDbText
 10
565.3587834199184
 20
81.3905615547133
 30
0.0
 40
3.0
  1
11.31
  7
ROMANS
100
AcDbText
  0
POINT
  5
6136
330
624E
100
AcDbEntity
  8
DEFPOINTS
 62
     0
100
AcDbPoint
 10
583.3792068662273
 20
88.54681155471322
 30
0.0
  0
POINT
  5
6137
330
624E
100
AcDbEntity
  8
DEFPOINTS
 62
     0
100
AcDbPoint
 10
583.3792068662273
 20
77.2343115547132
 30
0.0
  0
POINT
  5
6138
330
624E
100
AcDbEntity
  8
DEFPOINTS
 62
     0
100
AcDbPoint
 10
571.573069134204
 20
77.2343115547132
 30
0.0
  0
ENDBLK
  5
60EF
330
624E
100
AcDbEntity
  8
0
100
AcDbBlockEnd
  0
BLOCK
  5
6251
330
6250
100
AcDbEntity
  8
0
100
AcDbBlockBegin
  2
*X28
 70
     1
 10
0.0
 20
0.0
 30
0.0
  3
*X28
  1

  0
LINE
  5
613F
330
6250
100
AcDbEntity
  8
0
 62
     0
100
AcDbLine
 10
512.0376768310462
 20
-7.013188445285831
 30
0.0
 11
513.3828514990072
 21
-5.668013777324912
 31
0.0
  0
LINE
  5
6140
330
6250
100
AcDbEntity
  8
0
 62
     0
100
AcDbLine
 10
509.3860264015966
 20
-7.013188445285831
 30
0.0
 11
511.6360264015966
 21
-4.763188445285832
 31
0.0
  0
LINE
  5
6141
330
6250
100
AcDbEntity
  8
0
 62
     0
100
AcDbLine
 10
506.7343759721471
 20
-7.013188445285831
 30
0.0
 11
508.9843759721471
 21
-4.763188445285832
 31
0.0
  0
LINE
  5
6142
330
6250
100
AcDbEntity
  8
0
 62
     0
100
AcDbLine
 10
504.0827255426974
 20
-7.013188445285804
 30
0.0
 11
506.3327255426975
 21
-4.763188445285832
 31
0.0
  0
LINE
  5
6143
330
6250
100
AcDbEntity
  8
0
 62
     0
100
AcDbLine
 10
501.4310751132478
 20
-7.013188445285776
 30
0.0
 11
503.6810751132478
 21
-4.763188445285805
 31
0.0
  0
LINE
  5
6144
330
6250
100
AcDbEntity
  8
0
 62
     0
100
AcDbLine
 10
498.7794246837985
 20
-7.013188445285776
 30
0.0
 11
501.0294246837982
 21
-4.763188445285805
 31
0.0
  0
LINE
  5
6145
330
6250
100
AcDbEntity
  8
0
 62
     0
100
AcDbLine
 10
496.1277742543489
 20
-7.013188445285804
 30
0.0
 11
498.3777742543489
 21
-4.763188445285805
 31
0.0
  0
LINE
  5
6146
330
6250
100
AcDbEntity
  8
0
 62
     0
100
AcDbLine
 10
493.4761238248992
 20
-7.013188445285804
 30
0.0
 11
495.7261238248992
 21
-4.763188445285805
 31
0.0
  0
LINE
  5
6147
330
6250
100
AcDbEntity
  8
0
 62
     0
100
AcDbLine
 10
490.8244733954497
 20
-7.013188445285804
 30
0.0
 11
493.0744733954496
 21
-4.763188445285832
 31
0.0
  0
LINE
  5
6148
330
6250
100
AcDbEntity
  8
0
 62
     0
100
AcDbLine
 10
488.1728229660002
 20
-7.013188445285804
 30
0.0
 11
490.4228229660002
 21
-4.763188445285832
 31
0.0
  0
LINE
  5
6149
330
6250
100
AcDbEntity
  8
0
 62
     0
100
AcDbLine
 10
485.5211725365506
 20
-7.013188445285804
 30
0.0
 11
487.7711725365506
 21
-4.763188445285832
 31
0.0
  0
LINE
  5
614A
330
6250
100
AcDbEntity
  8
0
 62
     0
100
AcDbLine
 10
482.869522107101
 20
-7.013188445285804
 30
0.0
 11
485.119522107101
 21
-4.763188445285832
 31
0.0
  0
LINE
  5
614B
330
6250
100
AcDbEntity
  8
0
 62
     0
100
AcDbLine
 10
480.2178716776515
 20
-7.013188445285804
 30
0.0
 11
482.4678716776515
 21
-4.763188445285805
 31
0.0
  0
LINE
  5
614C
330
6250
100
AcDbEntity
  8
0
 62
     0
100
AcDbLine
 10
477.566221248202
 20
-7.013188445285776
 30
0.0
 11
479.816221248202
 21
-4.763188445285776
 31
0.0
  0
LINE
  5
614D
330
6250
100
AcDbEntity
  8
0
 62
     0
100
AcDbLine
 10
474.9145708187525
 20
-7.013188445285776
 30
0.0
 11
477.1645708187523
 21
-4.763188445285805
 31
0.0
  0
LINE
  5
614E
330
6250
100
AcDbEntity
  8
0
 62
     0
100
AcDbLine
 10
472.2629203893029
 20
-7.013188445285776
 30
0.0
 11
474.5129203893029
 21
-4.763188445285805
 31
0.0
  0
LINE
  5
614F
330
6250
100
AcDbEntity
  8
0
 62
     0
100
AcDbLine
 10
469.6112699598534
 20
-7.013188445285776
 30
0.0
 11
471.8612699598534
 21
-4.763188445285805
 31
0.0
  0
LINE
  5
6150
330
6250
100
AcDbEntity
  8
0
 62
     0
100
AcDbLine
 10
466.9596195304039
 20
-7.013188445285776
 30
0.0
 11
469.2096195304038
 21
-4.763188445285832
 31
0.0
  0
LINE
  5
6151
330
6250
100
AcDbEntity
  8
0
 62
     0
100
AcDbLine
 10
464.3079691009543
 20
-7.013188445285776
 30
0.0
 11
466.5579691009543
 21
-4.763188445285832
 31
0.0
  0
LINE
  5
6152
330
6250
100
AcDbEntity
  8
0
 62
     0
100
AcDbLine
 10
461.6563186715048
 20
-7.013188445285776
 30
0.0
 11
463.9063186715048
 21
-4.763188445285805
 31
0.0
  0
LINE
  5
6153
330
6250
100
AcDbEntity
  8
0
 62
     0
100
AcDbLine
 10
459.0046682420552
 20
-7.013188445285749
 30
0.0
 11
461.2546682420552
 21
-4.763188445285776
 31
0.0
  0
LINE
  5
6154
330
6250
100
AcDbEntity
  8
0
 62
     0
100
AcDbLine
 10
456.3530178126057
 20
-7.013188445285776
 30
0.0
 11
458.6030178126057
 21
-4.763188445285776
 31
0.0
  0
LINE
  5
6155
330
6250
100
AcDbEntity
  8
0
 62
     0
100
AcDbLine
 10
453.7013673831559
 20
-7.013188445285776
 30
0.0
 11
455.9513673831559
 21
-4.763188445285776
 31
0.0
  0
LINE
  5
6156
330
6250
100
AcDbEntity
  8
0
 62
     0
100
AcDbLine
 10
451.0497169537066
 20
-7.013188445285776
 30
0.0
 11
453.2997169537066
 21
-4.763188445285805
 31
0.0
  0
LINE
  5
6157
330
6250
100
AcDbEntity
  8
0
 62
     0
100
AcDbLine
 10
448.398066524257
 20
-7.013188445285776
 30
0.0
 11
450.648066524257
 21
-4.763188445285805
 31
0.0
  0
LINE
  5
6158
330
6250
100
AcDbEntity
  8
0
 62
     0
100
AcDbLine
 10
445.7464160948075
 20
-7.013188445285776
 30
0.0
 11
447.9964160948075
 21
-4.763188445285776
 31
0.0
  0
LINE
  5
6159
330
6250
100
AcDbEntity
  8
0
 62
     0
100
AcDbLine
 10
443.0947656653579
 20
-7.013188445285749
 30
0.0
 11
445.3447656653579
 21
-4.763188445285776
 31
0.0
  0
LINE
  5
615A
330
6250
100
AcDbEntity
  8
0
 62
     0
100
AcDbLine
 10
440.4431152359083
 20
-7.013188445285804
 30
0.0
 11
442.6931152359083
 21
-4.763188445285776
 31
0.0
  0
LINE
  5
615B
330
6250
100
AcDbEntity
  8
0
 62
     0
100
AcDbLine
 10
437.7914648064588
 20
-7.013188445285776
 30
0.0
 11
440.0414648064589
 21
-4.763188445285805
 31
0.0
  0
LINE
  5
615C
330
6250
100
AcDbEntity
  8
0
 62
     0
100
AcDbLine
 10
435.1398143770092
 20
-7.013188445285776
 30
0.0
 11
437.3898143770092
 21
-4.763188445285776
 31
0.0
  0
LINE
  5
615D
330
6250
100
AcDbEntity
  8
0
 62
     0
100
AcDbLine
 10
432.4881639475596
 20
-7.013188445285776
 30
0.0
 11
434.7381639475596
 21
-4.763188445285776
 31
0.0
  0
LINE
  5
615E
330
6250
100
AcDbEntity
  8
0
 62
     0
100
AcDbLine
 10
429.83651351811
 20
-7.013188445285776
 30
0.0
 11
432.0865135181103
 21
-4.763188445285749
 31
0.0
  0
LINE
  5
615F
330
6250
100
AcDbEntity
  8
0
 62
     0
100
AcDbLine
 10
427.1848630886607
 20
-7.013188445285776
 30
0.0
 11
429.4348630886607
 21
-4.763188445285749
 31
0.0
  0
LINE
  5
6160
330
6250
100
AcDbEntity
  8
0
 62
     0
100
AcDbLine
 10
424.5332126592109
 20
-7.013188445285776
 30
0.0
 11
426.7832126592109
 21
-4.763188445285749
 31
0.0
  0
LINE
  5
6161
330
6250
100
AcDbEntity
  8
0
 62
     0
100
AcDbLine
 10
421.8815622297615
 20
-7.013188445285749
 30
0.0
 11
424.1315622297615
 21
-4.763188445285776
 31
0.0
  0
LINE
  5
6162
330
6250
100
AcDbEntity
  8
0
 62
     0
100
AcDbLine
 10
419.2299118003118
 20
-7.013188445285776
 30
0.0
 11
421.4799118003118
 21
-4.763188445285776
 31
0.0
  0
LINE
  5
6163
330
6250
100
AcDbEntity
  8
0
 62
     0
100
AcDbLine
 10
416.5782613708623
 20
-7.013188445285776
 30
0.0
 11
418.8282613708623
 21
-4.763188445285749
 31
0.0
  0
LINE
  5
6164
330
6250
100
AcDbEntity
  8
0
 62
     0
100
AcDbLine
 10
413.9266109414128
 20
-7.013188445285776
 30
0.0
 11
416.1766109414128
 21
-4.763188445285718
 31
0.0
  0
LINE
  5
6165
330
6250
100
AcDbEntity
  8
0
 62
     0
100
AcDbLine
 10
413.382851499007
 20
-4.905297458241903
 30
0.0
 11
413.524960511963
 21
-4.763188445285718
 31
0.0
  0
ENDBLK
  5
6167
330
6250
100
AcDbEntity
  8
0
100
AcDbBlockEnd
  0
BLOCK
  5
6253
330
6252
100
AcDbEntity
  8
0
100
AcDbBlockBegin
  2
*X29
 70
     1
 10
0.0
 20
0.0
 30
0.0
  3
*X29
  1

  0
LINE
  5
6169
330
6252
100
AcDbEntity
  8
0
 62
     0
100
AcDbLine
 10
513.3828514990073
 20
66.65597365466449
 30
0.0
 11
512.8045135989586
 21
67.2343115547132
 31
0.0
  0
LINE
  5
616A
330
6252
100
AcDbEntity
  8
0
 62
     0
100
AcDbLine
 10
513.3828514990073
 20
64.00432322521493
 30
0.0
 11
511.3828514990071
 21
66.00432322521498
 31
0.0
  0
LINE
  5
616B
330
6252
100
AcDbEntity
  8
0
 62
     0
100
AcDbLine
 10
513.3828514990073
 20
61.35267279576538
 30
0.0
 11
511.3828514990071
 21
63.35267279576541
 31
0.0
  0
LINE
  5
616C
330
6252
100
AcDbEntity
  8
0
 62
     0
100
AcDbLine
 10
513.3828514990073
 20
58.70102236631584
 30
0.0
 11
511.3828514990071
 21
60.70102236631586
 31
0.0
  0
LINE
  5
616D
330
6252
100
AcDbEntity
  8
0
 62
     0
100
AcDbLine
 10
513.3828514990072
 20
56.04937193686629
 30
0.0
 11
511.3828514990071
 21
58.04937193686632
 31
0.0
  0
LINE
  5
616E
330
6252
100
AcDbEntity
  8
0
 62
     0
100
AcDbLine
 10
513.3828514990072
 20
53.39772150741675
 30
0.0
 11
511.3828514990071
 21
55.39772150741677
 31
0.0
  0
LINE
  5
616F
330
6252
100
AcDbEntity
  8
0
 62
     0
100
AcDbLine
 10
513.3828514990072
 20
50.74607107796722
 30
0.0
 11
511.3828514990071
 21
52.74607107796722
 31
0.0
  0
LINE
  5
6170
330
6252
100
AcDbEntity
  8
0
 62
     0
100
AcDbLine
 10
513.3828514990072
 20
48.09442064851765
 30
0.0
 11
511.3828514990071
 21
50.09442064851768
 31
0.0
  0
LINE
  5
6171
330
6252
100
AcDbEntity
  8
0
 62
     0
100
AcDbLine
 10
513.3828514990072
 20
45.44277021906809
 30
0.0
 11
511.3828514990071
 21
47.44277021906813
 31
0.0
  0
LINE
  5
6172
330
6252
100
AcDbEntity
  8
0
 62
     0
100
AcDbLine
 10
513.3828514990072
 20
42.79111978961853
 30
0.0
 11
511.3828514990071
 21
44.79111978961856
 31
0.0
  0
LINE
  5
6173
330
6252
100
AcDbEntity
  8
0
 62
     0
100
AcDbLine
 10
513.3828514990072
 20
40.13946936016899
 30
0.0
 11
511.3828514990071
 21
42.13946936016902
 31
0.0
  0
LINE
  5
6174
330
6252
100
AcDbEntity
  8
0
 62
     0
100
AcDbLine
 10
513.3828514990072
 20
37.48781893071944
 30
0.0
 11
511.3828514990071
 21
39.48781893071947
 31
0.0
  0
LINE
  5
6175
330
6252
100
AcDbEntity
  8
0
 62
     0
100
AcDbLine
 10
513.3828514990072
 20
34.83616850126989
 30
0.0
 11
511.3828514990071
 21
36.83616850126993
 31
0.0
  0
LINE
  5
6176
330
6252
100
AcDbEntity
  8
0
 62
     0
100
AcDbLine
 10
513.3828514990072
 20
32.18451807182034
 30
0.0
 11
511.3828514990071
 21
34.18451807182037
 31
0.0
  0
LINE
  5
6177
330
6252
100
AcDbEntity
  8
0
 62
     0
100
AcDbLine
 10
513.3828514990072
 20
29.53286764237083
 30
0.0
 11
511.3828514990071
 21
31.5328676423708
 31
0.0
  0
LINE
  5
6178
330
6252
100
AcDbEntity
  8
0
 62
     0
100
AcDbLine
 10
513.3828514990072
 20
26.88121721292128
 30
0.0
 11
511.3828514990071
 21
28.88121721292134
 31
0.0
  0
LINE
  5
6179
330
6252
100
AcDbEntity
  8
0
 62
     0
100
AcDbLine
 10
513.3828514990072
 20
24.22956678347173
 30
0.0
 11
511.3828514990071
 21
26.22956678347179
 31
0.0
  0
LINE
  5
617A
330
6252
100
AcDbEntity
  8
0
 62
     0
100
AcDbLine
 10
513.3828514990072
 20
21.57791635402216
 30
0.0
 11
511.3828514990071
 21
23.57791635402222
 31
0.0
  0
LINE
  5
617B
330
6252
100
AcDbEntity
  8
0
 62
     0
100
AcDbLine
 10
513.3828514990072
 20
18.92626592457259
 30
0.0
 11
511.3828514990071
 21
20.92626592457264
 31
0.0
  0
LINE
  5
617C
330
6252
100
AcDbEntity
  8
0
 62
     0
100
AcDbLine
 10
513.3828514990072
 20
16.27461549512303
 30
0.0
 11
511.3828514990071
 21
18.2746154951231
 31
0.0
  0
LINE
  5
617D
330
6252
100
AcDbEntity
  8
0
 62
     0
100
AcDbLine
 10
513.3828514990072
 20
13.62296506567349
 30
0.0
 11
511.3828514990071
 21
15.62296506567355
 31
0.0
  0
LINE
  5
617E
330
6252
100
AcDbEntity
  8
0
 62
     0
100
AcDbLine
 10
513.3828514990072
 20
10.97131463622395
 30
0.0
 11
511.3828514990071
 21
12.971314636224
 31
0.0
  0
LINE
  5
617F
330
6252
100
AcDbEntity
  8
0
 62
     0
100
AcDbLine
 10
513.3828514990072
 20
8.319664206774405
 30
0.0
 11
511.3828514990071
 21
10.31966420677446
 31
0.0
  0
LINE
  5
6180
330
6252
100
AcDbEntity
  8
0
 62
     0
100
AcDbLine
 10
513.3828514990072
 20
5.668013777324858
 30
0.0
 11
511.3828514990071
 21
7.668013777324913
 31
0.0
  0
LINE
  5
6181
330
6252
100
AcDbEntity
  8
0
 62
     0
100
AcDbLine
 10
513.3828514990072
 20
3.016363347875339
 30
0.0
 11
511.3828514990071
 21
5.016363347875367
 31
0.0
  0
LINE
  5
6182
330
6252
100
AcDbEntity
  8
0
 62
     0
100
AcDbLine
 10
513.3828514990072
 20
0.3647129184257949
 30
0.0
 11
511.3828514990071
 21
2.364712918425794
 31
0.0
  0
LINE
  5
6183
330
6252
100
AcDbEntity
  8
0
 62
     0
100
AcDbLine
 10
513.3828514990072
 20
-2.286937511023778
 30
0.0
 11
511.3828514990071
 21
-0.2869375110237797
 31
0.0
  0
LINE
  5
6184
330
6252
100
AcDbEntity
  8
0
 62
     0
100
AcDbLine
 10
513.2074520038196
 20
-4.763188445285832
 30
0.0
 11
511.3828514990071
 21
-2.938587940473323
 31
0.0
  0
LINE
  5
6185
330
6252
100
AcDbEntity
  8
0
 62
     0
100
AcDbLine
 10
415.3828514990069
 20
66.54490776503121
 30
0.0
 11
414.693447709325
 21
67.23431155471317
 31
0.0
  0
LINE
  5
6186
330
6252
100
AcDbEntity
  8
0
 62
     0
100
AcDbLine
 10
415.3828514990069
 20
63.89325733558166
 30
0.0
 11
413.3828514990071
 21
65.89325733558159
 31
0.0
  0
LINE
  5
6187
330
6252
100
AcDbEntity
  8
0
 62
     0
100
AcDbLine
 10
415.3828514990069
 20
61.2416069061321
 30
0.0
 11
413.3828514990071
 21
63.24160690613204
 31
0.0
  0
LINE
  5
6188
330
6252
100
AcDbEntity
  8
0
 62
     0
100
AcDbLine
 10
415.3828514990069
 20
58.58995647668255
 30
0.0
 11
413.3828514990071
 21
60.58995647668247
 31
0.0
  0
LINE
  5
6189
330
6252
100
AcDbEntity
  8
0
 62
     0
100
AcDbLine
 10
415.3828514990069
 20
55.93830604723297
 30
0.0
 11
413.3828514990072
 21
57.93830604723293
 31
0.0
  0
LINE
  5
618A
330
6252
100
AcDbEntity
  8
0
 62
     0
100
AcDbLine
 10
415.3828514990069
 20
53.28665561778343
 30
0.0
 11
413.3828514990072
 21
55.28665561778338
 31
0.0
  0
LINE
  5
618B
330
6252
100
AcDbEntity
  8
0
 62
     0
100
AcDbLine
 10
415.3828514990069
 20
50.63500518833386
 30
0.0
 11
413.3828514990072
 21
52.63500518833378
 31
0.0
  0
LINE
  5
618C
330
6252
100
AcDbEntity
  8
0
 62
     0
100
AcDbLine
 10
415.3828514990069
 20
47.98335475888431
 30
0.0
 11
413.3828514990072
 21
49.98335475888424
 31
0.0
  0
LINE
  5
618D
330
6252
100
AcDbEntity
  8
0
 62
     0
100
AcDbLine
 10
415.3828514990069
 20
45.33170432943474
 30
0.0
 11
413.3828514990072
 21
47.33170432943469
 31
0.0
  0
LINE
  5
618E
330
6252
100
AcDbEntity
  8
0
 62
     0
100
AcDbLine
 10
415.3828514990069
 20
42.68005389998521
 30
0.0
 11
413.3828514990072
 21
44.68005389998515
 31
0.0
  0
LINE
  5
618F
330
6252
100
AcDbEntity
  8
0
 62
     0
100
AcDbLine
 10
415.3828514990069
 20
40.02840347053566
 30
0.0
 11
413.3828514990072
 21
42.02840347053559
 31
0.0
  0
LINE
  5
6190
330
6252
100
AcDbEntity
  8
0
 62
     0
100
AcDbLine
 10
415.3828514990071
 20
37.37675304108609
 30
0.0
 11
413.3828514990072
 21
39.37675304108606
 31
0.0
  0
LINE
  5
6191
330
6252
100
AcDbEntity
  8
0
 62
     0
100
AcDbLine
 10
415.3828514990071
 20
34.72510261163654
 30
0.0
 11
413.3828514990072
 21
36.72510261163648
 31
0.0
  0
LINE
  5
6192
330
6252
100
AcDbEntity
  8
0
 62
     0
100
AcDbLine
 10
415.3828514990071
 20
32.073452182187
 30
0.0
 11
413.3828514990072
 21
34.07345218218694
 31
0.0
  0
LINE
  5
6193
330
6252
100
AcDbEntity
  8
0
 62
     0
100
AcDbLine
 10
415.3828514990071
 20
29.42180175273739
 30
0.0
 11
413.3828514990072
 21
31.42180175273739
 31
0.0
  0
LINE
  5
6194
330
6252
100
AcDbEntity
  8
0
 62
     0
100
AcDbLine
 10
415.3828514990071
 20
26.77015132328782
 30
0.0
 11
413.3828514990072
 21
28.77015132328779
 31
0.0
  0
LINE
  5
6195
330
6252
100
AcDbEntity
  8
0
 62
     0
100
AcDbLine
 10
415.3828514990071
 20
24.11850089383827
 30
0.0
 11
413.3828514990072
 21
26.11850089383824
 31
0.0
  0
LINE
  5
6196
330
6252
100
AcDbEntity
  8
0
 62
     0
100
AcDbLine
 10
415.3828514990071
 20
21.46685046438872
 30
0.0
 11
413.3828514990072
 21
23.46685046438867
 31
0.0
  0
LINE
  5
6197
330
6252
100
AcDbEntity
  8
0
 62
     0
100
AcDbLine
 10
415.3828514990071
 20
18.81520003493918
 30
0.0
 11
413.3828514990072
 21
20.81520003493912
 31
0.0
  0
LINE
  5
6198
330
6252
100
AcDbEntity
  8
0
 62
     0
100
AcDbLine
 10
415.3828514990071
 20
16.16354960548963
 30
0.0
 11
413.3828514990072
 21
18.16354960548957
 31
0.0
  0
LINE
  5
6199
330
6252
100
AcDbEntity
  8
0
 62
     0
100
AcDbLine
 10
415.3828514990071
 20
13.51189917604008
 30
0.0
 11
413.3828514990072
 21
15.51189917604003
 31
0.0
  0
LINE
  5
619A
330
6252
100
AcDbEntity
  8
0
 62
     0
100
AcDbLine
 10
415.3828514990071
 20
10.86024874659051
 30
0.0
 11
413.3828514990072
 21
12.86024874659048
 31
0.0
  0
LINE
  5
619B
330
6252
100
AcDbEntity
  8
0
 62
     0
100
AcDbLine
 10
415.3828514990071
 20
8.208598317140966
 30
0.0
 11
413.3828514990072
 21
10.20859831714094
 31
0.0
  0
LINE
  5
619C
330
6252
100
AcDbEntity
  8
0
 62
     0
100
AcDbLine
 10
415.3828514990071
 20
5.556947887691394
 30
0.0
 11
413.3828514990072
 21
7.556947887691362
 31
0.0
  0
LINE
  5
619D
330
6252
100
AcDbEntity
  8
0
 62
     0
100
AcDbLine
 10
415.3828514990071
 20
2.905297458241846
 30
0.0
 11
413.3828514990072
 21
4.90529745824179
 31
0.0
  0
LINE
  5
619E
330
6252
100
AcDbEntity
  8
0
 62
     0
100
AcDbLine
 10
415.3828514990071
 20
0.2536470287922725
 30
0.0
 11
413.3828514990072
 21
2.253647028792244
 31
0.0
  0
LINE
  5
619F
330
6252
100
AcDbEntity
  8
0
 62
     0
100
AcDbLine
 10
415.3828514990071
 20
-2.398003400657271
 30
0.0
 11
413.3828514990072
 21
-0.3980034006573021
 31
0.0
  0
LINE
  5
61A0
330
6252
100
AcDbEntity
  8
0
 62
     0
100
AcDbLine
 10
415.096386114186
 20
-4.763188445285805
 30
0.0
 11
413.3828514990072
 21
-3.049653830106874
 31
0.0
  0
ENDBLK
  5
61A2
330
6252
100
AcDbEntity
  8
0
100
AcDbBlockEnd
  0
BLOCK
  5
6255
330
6254
100
AcDbEntity
  8
0
100
AcDbBlockBegin
  2
*X30
 70
     1
 10
0.0
 20
0.0
 30
0.0
  3
*X30
  1

  0
LINE
  5
61A4
330
6254
100
AcDbEntity
  8
0
 62
     0
100
AcDbLine
 10
512.0389648064579
 20
67.23431155471323
 30
0.0
 11
513.3828514990068
 21
68.57819824726241
 31
0.0
  0
LINE
  5
61A5
330
6254
100
AcDbEntity
  8
0
 62
     0
100
AcDbLine
 10
509.3873143770083
 20
67.23431155471326
 30
0.0
 11
513.3828514990068
 21
71.22984867671199
 31
0.0
  0
LINE
  5
61A6
330
6254
100
AcDbEntity
  8
0
 62
     0
100
AcDbLine
 10
506.7356639475585
 20
67.23431155471326
 30
0.0
 11
513.3828514990072
 21
73.88149910616163
 31
0.0
  0
LINE
  5
61A7
330
6254
100
AcDbEntity
  8
0
 62
     0
100
AcDbLine
 10
504.0840135181092
 20
67.23431155471326
 30
0.0
 11
513.3828514990072
 21
76.5331495356112
 31
0.0
  0
LINE
  5
61A8
330
6254
100
AcDbEntity
  8
0
 62
     0
100
AcDbLine
 10
501.4323630886596
 20
67.23431155471326
 30
0.0
 11
511.4323630886596
 21
77.2343115547132
 31
0.0
  0
LINE
  5
61A9
330
6254
100
AcDbEntity
  8
0
 62
     0
100
AcDbLine
 10
498.78071265921
 20
67.23431155471326
 30
0.0
 11
508.78071265921
 21
77.2343115547132
 31
0.0
  0
LINE
  5
61AA
330
6254
100
AcDbEntity
  8
0
 62
     0
100
AcDbLine
 10
496.1290622297605
 20
67.23431155471323
 30
0.0
 11
506.1290622297605
 21
77.2343115547132
 31
0.0
  0
LINE
  5
61AB
330
6254
100
AcDbEntity
  8
0
 62
     0
100
AcDbLine
 10
493.4774118003111
 20
67.23431155471323
 30
0.0
 11
503.477411800311
 21
77.23431155471323
 31
0.0
  0
LINE
  5
61AC
330
6254
100
AcDbEntity
  8
0
 62
     0
100
AcDbLine
 10
490.8257613708613
 20
67.23431155471326
 30
0.0
 11
500.8257613708614
 21
77.23431155471323
 31
0.0
  0
LINE
  5
61AD
330
6254
100
AcDbEntity
  8
0
 62
     0
100
AcDbLine
 10
488.1741109414118
 20
67.23431155471326
 30
0.0
 11
498.1741109414119
 21
77.23431155471323
 31
0.0
  0
LINE
  5
61AE
330
6254
100
AcDbEntity
  8
0
 62
     0
100
AcDbLine
 10
485.5224605119622
 20
67.23431155471326
 30
0.0
 11
495.5224605119623
 21
77.23431155471323
 31
0.0
  0
LINE
  5
61AF
330
6254
100
AcDbEntity
  8
0
 62
     0
100
AcDbLine
 10
482.8708100825126
 20
67.23431155471326
 30
0.0
 11
492.8708100825126
 21
77.2343115547132
 31
0.0
  0
LINE
  5
61B0
330
6254
100
AcDbEntity
  8
0
 62
     0
100
AcDbLine
 10
480.2191596530632
 20
67.23431155471326
 30
0.0
 11
490.2191596530632
 21
77.2343115547132
 31
0.0
  0
LINE
  5
61B1
330
6254
100
AcDbEntity
  8
0
 62
     0
100
AcDbLine
 10
477.5675092236136
 20
67.23431155471326
 30
0.0
 11
487.5675092236135
 21
77.2343115547132
 31
0.0
  0
LINE
  5
61B2
330
6254
100
AcDbEntity
  8
0
 62
     0
100
AcDbLine
 10
474.9158587941639
 20
67.23431155471326
 30
0.0
 11
484.9158587941639
 21
77.2343115547132
 31
0.0
  0
LINE
  5
61B3
330
6254
100
AcDbEntity
  8
0
 62
     0
100
AcDbLine
 10
472.2642083647145
 20
67.23431155471323
 30
0.0
 11
482.2642083647145
 21
77.2343115547132
 31
0.0
  0
LINE
  5
61B4
330
6254
100
AcDbEntity
  8
0
 62
     0
100
AcDbLine
 10
469.6125579352647
 20
67.23431155471323
 30
0.0
 11
479.612557935265
 21
77.23431155471323
 31
0.0
  0
LINE
  5
61B5
330
6254
100
AcDbEntity
  8
0
 62
     0
100
AcDbLine
 10
466.9609075058152
 20
67.23431155471326
 30
0.0
 11
476.9609075058152
 21
77.23431155471323
 31
0.0
  0
LINE
  5
61B6
330
6254
100
AcDbEntity
  8
0
 62
     0
100
AcDbLine
 10
464.3092570763657
 20
67.23431155471326
 30
0.0
 11
474.3092570763659
 21
77.23431155471323
 31
0.0
  0
LINE
  5
61B7
330
6254
100
AcDbEntity
  8
0
 62
     0
100
AcDbLine
 10
461.6576066469161
 20
67.23431155471326
 30
0.0
 11
471.6576066469163
 21
77.23431155471323
 31
0.0
  0
LINE
  5
61B8
330
6254
100
AcDbEntity
  8
0
 62
     0
100
AcDbLine
 10
459.0059562174666
 20
67.23431155471326
 30
0.0
 11
469.0059562174666
 21
77.2343115547132
 31
0.0
  0
LINE
  5
61B9
330
6254
100
AcDbEntity
  8
0
 62
     0
100
AcDbLine
 10
456.3543057880171
 20
67.23431155471326
 30
0.0
 11
466.3543057880172
 21
77.23431155471323
 31
0.0
  0
LINE
  5
61BA
330
6254
100
AcDbEntity
  8
0
 62
     0
100
AcDbLine
 10
453.7026553585676
 20
67.23431155471326
 30
0.0
 11
463.7026553585676
 21
77.23431155471323
 31
0.0
  0
LINE
  5
61BB
330
6254
100
AcDbEntity
  8
0
 62
     0
100
AcDbLine
 10
451.051004929118
 20
67.23431155471323
 30
0.0
 11
461.0510049291179
 21
77.23431155471323
 31
0.0
  0
LINE
  5
61BC
330
6254
100
AcDbEntity
  8
0
 62
     0
100
AcDbLine
 10
448.3993544996685
 20
67.23431155471326
 30
0.0
 11
458.3993544996685
 21
77.23431155471323
 31
0.0
  0
LINE
  5
61BD
330
6254
100
AcDbEntity
  8
0
 62
     0
100
AcDbLine
 10
445.7477040702189
 20
67.23431155471326
 30
0.0
 11
455.7477040702189
 21
77.23431155471323
 31
0.0
  0
LINE
  5
61BE
330
6254
100
AcDbEntity
  8
0
 62
     0
100
AcDbLine
 10
443.0960536407694
 20
67.23431155471326
 30
0.0
 11
453.0960536407693
 21
77.23431155471323
 31
0.0
  0
LINE
  5
61BF
330
6254
100
AcDbEntity
  8
0
 62
     0
100
AcDbLine
 10
440.4444032113199
 20
67.23431155471326
 30
0.0
 11
450.4444032113198
 21
77.23431155471323
 31
0.0
  0
LINE
  5
61C0
330
6254
100
AcDbEntity
  8
0
 62
     0
100
AcDbLine
 10
437.7927527818703
 20
67.23431155471326
 30
0.0
 11
447.7927527818703
 21
77.23431155471323
 31
0.0
  0
LINE
  5
61C1
330
6254
100
AcDbEntity
  8
0
 62
     0
100
AcDbLine
 10
435.1411023524208
 20
67.2343115547132
 30
0.0
 11
445.1411023524208
 21
77.23431155471323
 31
0.0
  0
LINE
  5
61C2
330
6254
100
AcDbEntity
  8
0
 62
     0
100
AcDbLine
 10
432.4894519229713
 20
67.23431155471326
 30
0.0
 11
442.489451922971
 21
77.23431155471323
 31
0.0
  0
LINE
  5
61C3
330
6254
100
AcDbEntity
  8
0
 62
     0
100
AcDbLine
 10
429.8378014935216
 20
67.23431155471327
 30
0.0
 11
439.8378014935216
 21
77.23431155471327
 31
0.0
  0
LINE
  5
61C4
330
6254
100
AcDbEntity
  8
0
 62
     0
100
AcDbLine
 10
427.1861510640722
 20
67.23431155471324
 30
0.0
 11
437.1861510640719
 21
77.23431155471323
 31
0.0
  0
LINE
  5
61C5
330
6254
100
AcDbEntity
  8
0
 62
     0
100
AcDbLine
 10
424.5345006346226
 20
67.23431155471324
 30
0.0
 11
434.5345006346224
 21
77.23431155471323
 31
0.0
  0
LINE
  5
61C6
330
6254
100
AcDbEntity
  8
0
 62
     0
100
AcDbLine
 10
421.882850205173
 20
67.23431155471326
 30
0.0
 11
431.8828502051728
 21
77.23431155471323
 31
0.0
  0
LINE
  5
61C7
330
6254
100
AcDbEntity
  8
0
 62
     0
100
AcDbLine
 10
419.2311997757235
 20
67.23431155471326
 30
0.0
 11
429.2311997757233
 21
77.23431155471323
 31
0.0
  0
LINE
  5
61C8
330
6254
100
AcDbEntity
  8
0
 62
     0
100
AcDbLine
 10
416.5795493462736
 20
67.23431155471326
 30
0.0
 11
426.5795493462738
 21
77.23431155471323
 31
0.0
  0
LINE
  5
61C9
330
6254
100
AcDbEntity
  8
0
 62
     0
100
AcDbLine
 10
413.9278989168243
 20
67.23431155471326
 30
0.0
 11
423.9278989168242
 21
77.23431155471323
 31
0.0
  0
LINE
  5
61CA
330
6254
100
AcDbEntity
  8
0
 62
     0
100
AcDbLine
 10
413.3828514990072
 20
69.3409145663456
 30
0.0
 11
421.2762484873747
 21
77.23431155471323
 31
0.0
  0
LINE
  5
61CB
330
6254
100
AcDbEntity
  8
0
 62
     0
100
AcDbLine
 10
413.3828514990072
 20
71.99256499579515
 30
0.0
 11
418.6245980579252
 21
77.23431155471327
 31
0.0
  0
LINE
  5
61CC
330
6254
100
AcDbEntity
  8
0
 62
     0
100
AcDbLine
 10
413.3828514990072
 20
74.64421542524465
 30
0.0
 11
415.9729476284756
 21
77.23431155471323
 31
0.0
  0
ENDBLK
  5
61CE
330
6254
100
AcDbEntity
  8
0
100
AcDbBlockEnd
  0
BLOCK
  5
626A
330
625F
100
AcDbEntity
  8
0
100
AcDbBlockBegin
  2
*D31
 70
     1
 10
0.0
 20
0.0
 30
0.0
  3
*D31
  1

  0
LINE
  5
7201
330
625F
100
AcDbEntity
  8
6
 62
     0
370
    -2
100
AcDbLine
 10
563.1828514990071
 20
75.2343115547132
 30
0.0
 11
580.751821960933
 21
75.2343115547132
 31
0.0
  0
LINE
  5
7202
330
625F
100
AcDbEntity
  8
6
 62
     0
370
    -2
100
AcDbLine
 10
568.1828514990071
 20
77.2343115547132
 30
0.0
 11
580.751821960933
 21
77.2343115547132
 31
0.0
  0
LINE
  5
7203
330
625F
100
AcDbEntity
  8
6
 62
     0
370
    -2
100
AcDbLine
 10
578.951821960933
 20
72.83431155471319
 30
0.0
 11
578.951821960933
 21
70.43431155471321
 31
0.0
  0
LINE
  5
7204
330
625F
100
AcDbEntity
  8
6
 62
     0
370
    -2
100
AcDbLine
 10
578.951821960933
 20
79.63431155471321
 30
0.0
 11
578.951821960933
 21
82.03431155471319
 31
0.0
  0
MTEXT
  5
7205
330
625F
100
AcDbEntity
  8
6
 62
     0
100
AcDbMText
 10
581.98691620179
 20
85.21997976570105
 30
0.0
 40
3.0
 41
0.0
 71
     5
 72
     1
  1
\A1;2.00 BLK
  7
ROMANS
 73
     1
 44
1.0
1001
ACAD
1000
MTEXTBEGIN
1070
    73
1070
     1
1070
    44
1040
1.0
1070
    74
1070
     0
1000
MTEXTEND
  0
SOLID
  5
7206
330
625F
100
AcDbEntity
  8
6
 62
     0
100
AcDbTrace
 10
578.5518219609331
 20
72.83431155471319
 30
0.0
 11
579.3518219609331
 21
72.83431155471319
 31
0.0
 12
578.951821960933
 22
75.2343115547132
 32
0.0
 13
578.951821960933
 23
75.2343115547132
 33
0.0
  0
SOLID
  5
7207
330
625F
100
AcDbEntity
  8
6
 62
     0
100
AcDbTrace
 10
578.5518219609331
 20
79.63431155471321
 30
0.0
 11
579.3518219609331
 21
79.63431155471321
 31
0.0
 12
578.951821960933
 22
77.2343115547132
 32
0.0
 13
578.951821960933
 23
77.2343115547132
 33
0.0
  0
POINT
  5
7208
330
625F
100
AcDbEntity
  8
DEFPOINTS
 62
     0
100
AcDbPoint
 10
561.3828514990071
 20
75.2343115547132
 30
0.0
  0
POINT
  5
7209
330
625F
100
AcDbEntity
  8
DEFPOINTS
 62
     0
100
AcDbPoint
 10
566.3828514990071
 20
77.2343115547132
 30
0.0
  0
POINT
  5
720A
330
625F
100
AcDbEntity
  8
DEFPOINTS
 62
     0
100
AcDbPoint
 10
578.951821960933
 20
77.2343115547132
 30
0.0
  0
ENDBLK
  5
626B
330
625F
100
AcDbEntity
  8
0
100
AcDbBlockEnd
  0
BLOCK
  5
6277
330
626C
100
AcDbEntity
  8
0
100
AcDbBlockBegin
  2
*D32
 70
     1
 10
0.0
 20
0.0
 30
0.0
  3
*D32
  1

  0
LINE
  5
71BB
330
626C
100
AcDbEntity
  8
6
 62
     0
370
    -2
100
AcDbLine
 10
321.1328514990071
 20
-61.8131884452858
 30
0.0
 11
321.1328514990071
 21
-83.37606392269053
 31
0.0
  0
LINE
  5
71BC
330
626C
100
AcDbEntity
  8
6
 62
     0
370
    -2
100
AcDbLine
 10
561.6328514990071
 20
-61.8131884452858
 30
0.0
 11
561.6328514990071
 21
-83.37606392269053
 31
0.0
  0
LINE
  5
71BD
330
626C
100
AcDbEntity
  8
6
 62
     0
370
    -2
100
AcDbLine
 10
323.5328514990071
 20
-81.57606392269054
 30
0.0
 11
415.9542800704356
 21
-81.57606392269054
 31
0.0
  0
LINE
  5
71BE
330
626C
100
AcDbEntity
  8
6
 62
     0
370
    -2
100
AcDbLine
 10
559.2328514990071
 20
-81.57606392269054
 30
0.0
 11
466.8114229275785
 21
-81.57606392269054
 31
0.0
  0
SOLID
  5
71BF
330
626C
100
AcDbEntity
  8
6
 62
     0
100
AcDbTrace
 10
323.5328514990071
 20
-81.17606392269053
 30
0.0
 11
323.5328514990071
 21
-81.97606392269054
 31
0.0
 12
321.1328514990071
 22
-81.57606392269054
 32
0.0
 13
321.1328514990071
 23
-81.57606392269054
 33
0.0
  0
SOLID
  5
71C0
330
626C
100
AcDbEntity
  8
6
 62
     0
100
AcDbTrace
 10
559.2328514990071
 20
-81.17606392269053
 30
0.0
 11
559.2328514990071
 21
-81.97606392269054
 31
0.0
 12
561.6328514990071
 22
-81.57606392269054
 32
0.0
 13
561.6328514990071
 23
-81.57606392269054
 33
0.0
  0
MTEXT
  5
71C1
330
626C
100
AcDbEntity
  8
6
 62
     0
100
AcDbMText
 10
441.382851499007
 20
-81.57606392269054
 30
0.0
 40
3.0
 41
0.0
 71
     5
 72
     1
  1
\A1;240.50 (SLAT WIDTH)
  7
ROMANS
 73
     1
 44
1.0
1001
ACAD
1000
MTEXTBEGIN
1070
    73
1070
     1
1070
    44
1040
1.0
1070
    74
1070
     0
1000
MTEXTEND
  0
POINT
  5
71C2
330
626C
100
AcDbEntity
  8
DEFPOINTS
 62
     0
100
AcDbPoint
 10
321.1328514990071
 20
-60.0131884452858
 30
0.0
  0
POINT
  5
71C3
330
626C
100
AcDbEntity
  8
DEFPOINTS
 62
     0
100
AcDbPoint
 10
561.6328514990071
 20
-60.0131884452858
 30
0.0
  0
POINT
  5
71C4
330
626C
100
AcDbEntity
  8
DEFPOINTS
 62
     0
100
AcDbPoint
 10
561.6328514990071
 20
-81.57606392269054
 30
0.0
  0
ENDBLK
  5
6278
330
626C
100
AcDbEntity
  8
0
100
AcDbBlockEnd
  0
BLOCK
  5
6284
330
6279
100
AcDbEntity
  8
0
100
AcDbBlockBegin
  2
*D33
 70
     1
 10
0.0
 20
0.0
 30
0.0
  3
*D33
  1

  0
LINE
  5
720B
330
6279
100
AcDbEntity
  8
6
 62
     0
370
    -2
100
AcDbLine
 10
563.1828514990071
 20
-57.76318844528581
 30
0.0
 11
580.751821960933
 21
-57.76318844528581
 31
0.0
  0
LINE
  5
720C
330
6279
100
AcDbEntity
  8
6
 62
     0
370
    -2
100
AcDbLine
 10
563.1828514990071
 20
-60.0131884452858
 30
0.0
 11
580.751821960933
 21
-60.0131884452858
 31
0.0
  0
LINE
  5
720D
330
6279
100
AcDbEntity
  8
6
 62
     0
370
    -2
100
AcDbLine
 10
578.951821960933
 20
-55.3631884452858
 30
0.0
 11
578.951821960933
 21
-52.96318844528581
 31
0.0
  0
LINE
  5
720E
330
6279
100
AcDbEntity
  8
6
 62
     0
370
    -2
100
AcDbLine
 10
578.951821960933
 20
-62.4131884452858
 30
0.0
 11
578.951821960933
 21
-64.8131884452858
 31
0.0
  0
MTEXT
  5
720F
330
6279
100
AcDbEntity
  8
6
 62
     0
100
AcDbMText
 10
579.4154884203606
 20
-69.00193609993227
 30
0.0
 40
3.0
 41
0.0
 71
     5
 72
     1
  1
\A1;2.25
  7
ROMANS
 73
     1
 44
1.0
1001
ACAD
1000
MTEXTBEGIN
1070
    73
1070
     1
1070
    44
1040
1.0
1070
    74
1070
     0
1000
MTEXTEND
  0
SOLID
  5
7210
330
6279
100
AcDbEntity
  8
6
 62
     0
100
AcDbTrace
 10
578.5518219609331
 20
-55.3631884452858
 30
0.0
 11
579.3518219609331
 21
-55.3631884452858
 31
0.0
 12
578.951821960933
 22
-57.76318844528581
 32
0.0
 13
578.951821960933
 23
-57.76318844528581
 33
0.0
  0
SOLID
  5
7211
330
6279
100
AcDbEntity
  8
6
 62
     0
100
AcDbTrace
 10
578.5518219609331
 20
-62.4131884452858
 30
0.0
 11
579.3518219609331
 21
-62.4131884452858
 31
0.0
 12
578.951821960933
 22
-60.0131884452858
 32
0.0
 13
578.951821960933
 23
-60.0131884452858
 33
0.0
  0
POINT
  5
7212
330
6279
100
AcDbEntity
  8
DEFPOINTS
 62
     0
100
AcDbPoint
 10
561.3828514990071
 20
-57.76318844528581
 30
0.0
  0
POINT
  5
7213
330
6279
100
AcDbEntity
  8
DEFPOINTS
 62
     0
100
AcDbPoint
 10
561.3828514990071
 20
-60.0131884452858
 30
0.0
  0
POINT
  5
7214
330
6279
100
AcDbEntity
  8
DEFPOINTS
 62
     0
100
AcDbPoint
 10
578.951821960933
 20
-60.0131884452858
 30
0.0
  0
ENDBLK
  5
6285
330
6279
100
AcDbEntity
  8
0
100
AcDbBlockEnd
  0
BLOCK
  5
6291
330
6286
100
AcDbEntity
  8
0
100
AcDbBlockBegin
  2
*D34
 70
     1
 10
0.0
 20
0.0
 30
0.0
  3
*D34
  1

  0
LINE
  5
71CF
330
6286
100
AcDbEntity
  8
6
 62
     0
370
    -2
100
AcDbLine
 10
563.1828514990071
 20
-60.0131884452858
 30
0.0
 11
591.2843255722756
 21
-60.0131884452858
 31
0.0
  0
LINE
  5
71D0
330
6286
100
AcDbEntity
  8
6
 62
     0
370
    -2
100
AcDbLine
 10
568.1828514990071
 20
77.2343115547132
 30
0.0
 11
591.2843255722756
 21
77.2343115547132
 31
0.0
  0
LINE
  5
71D1
330
6286
100
AcDbEntity
  8
6
 62
     0
370
    -2
100
AcDbLine
 10
589.4843255722756
 20
-57.61318844528581
 30
0.0
 11
589.4843255722756
 21
50.39984842821394
 31
0.0
  0
LINE
  5
71D2
330
6286
100
AcDbEntity
  8
6
 62
     0
370
    -2
100
AcDbLine
 10
589.4843255722756
 20
74.83431155471319
 30
0.0
 11
589.4843255722756
 21
56.39984842821395
 31
0.0
  0
MTEXT
  5
71D3
330
6286
100
AcDbEntity
  8
6
 62
     0
100
AcDbMText
 10
589.4843255722756
 20
53.39984842821404
 30
0.0
 40
3.0
 41
0.0
 71
     5
 72
     1
  1
\A1;137.25
  7
ROMANS
 73
     1
 44
1.0
1001
ACAD
1000
MTEXTBEGIN
1070
    73
1070
     1
1070
    44
1040
1.0
1070
    74
1070
     0
1000
MTEXTEND
  0
SOLID
  5
71D4
330
6286
100
AcDbEntity
  8
6
 62
     0
100
AcDbTrace
 10
589.0843255722757
 20
-57.61318844528581
 30
0.0
 11
589.8843255722757
 21
-57.61318844528581
 31
0.0
 12
589.4843255722756
 22
-60.0131884452858
 32
0.0
 13
589.4843255722756
 23
-60.0131884452858
 33
0.0
  0
SOLID
  5
71D5
330
6286
100
AcDbEntity
  8
6
 62
     0
100
AcDbTrace
 10
589.0843255722757
 20
74.83431155471319
 30
0.0
 11
589.8843255722757
 21
74.83431155471319
 31
0.0
 12
589.4843255722756
 22
77.2343115547132
 32
0.0
 13
589.4843255722756
 23
77.2343115547132
 33
0.0
  0
POINT
  5
71D6
330
6286
100
AcDbEntity
  8
DEFPOINTS
 62
     0
100
AcDbPoint
 10
561.3828514990071
 20
-60.0131884452858
 30
0.0
  0
POINT
  5
71D7
330
6286
100
AcDbEntity
  8
DEFPOINTS
 62
     0
100
AcDbPoint
 10
566.3828514990071
 20
77.2343115547132
 30
0.0
  0
POINT
  5
71D8
330
6286
100
AcDbEntity
  8
DEFPOINTS
 62
     0
100
AcDbPoint
 10
589.4843255722756
 20
77.2343115547132
 30
0.0
  0
ENDBLK
  5
6292
330
6286
100
AcDbEntity
  8
0
100
AcDbBlockEnd
  0
BLOCK
  5
629E
330
6293
100
AcDbEntity
  8
0
100
AcDbBlockBegin
  2
*D35
 70
     1
 10
0.0
 20
0.0
 30
0.0
  3
*D35
  1

  0
LINE
  5
71D9
330
6293
100
AcDbEntity
  8
6
 62
     0
370
    -2
100
AcDbLine
 10
563.1828514990071
 20
-57.76318844528581
 30
0.0
 11
580.751821960933
 21
-57.76318844528581
 31
0.0
  0
LINE
  5
71DA
330
6293
100
AcDbEntity
  8
6
 62
     0
370
    -2
100
AcDbLine
 10
563.1828514990071
 20
75.2343115547132
 30
0.0
 11
580.751821960933
 21
75.2343115547132
 31
0.0
  0
LINE
  5
71DB
330
6293
100
AcDbEntity
  8
6
 62
     0
370
    -2
100
AcDbLine
 10
578.951821960933
 20
-55.3631884452858
 30
0.0
 11
578.951821960933
 21
3.235561554713693
 31
0.0
  0
LINE
  5
71DC
330
6293
100
AcDbEntity
  8
6
 62
     0
370
    -2
100
AcDbLine
 10
578.951821960933
 20
72.83431155471319
 30
0.0
 11
578.951821960933
 21
14.23556155471369
 31
0.0
  0
SOLID
  5
71DD
330
6293
100
AcDbEntity
  8
6
 62
     0
100
AcDbTrace
 10
578.5518219609331
 20
-55.3631884452858
 30
0.0
 11
579.3518219609331
 21
-55.3631884452858
 31
0.0
 12
578.951821960933
 22
-57.76318844528581
 32
0.0
 13
578.951821960933
 23
-57.76318844528581
 33
0.0
  0
SOLID
  5
71DE
330
6293
100
AcDbEntity
  8
6
 62
     0
100
AcDbTrace
 10
578.5518219609331
 20
72.83431155471319
 30
0.0
 11
579.3518219609331
 21
72.83431155471319
 31
0.0
 12
578.951821960933
 22
75.2343115547132
 32
0.0
 13
578.951821960933
 23
75.2343115547132
 33
0.0
  0
MTEXT
  5
71DF
330
6293
100
AcDbEntity
  8
6
 62
     0
100
AcDbMText
 10
578.951821960933
 20
8.735561554713786
 30
0.0
 40
3.0
 41
0.0
 71
     5
 72
     1
  1
\A1;133.00\PVAH
  7
ROMANS
 73
     1
 44
1.0
1001
ACAD
1000
MTEXTBEGIN
1070
    73
1070
     1
1070
    44
1040
1.0
1070
    74
1070
     0
1000
MTEXTEND
  0
POINT
  5
71E0
330
6293
100
AcDbEntity
  8
DEFPOINTS
 62
     0
100
AcDbPoint
 10
561.3828514990071
 20
-57.76318844528581
 30
0.0
  0
POINT
  5
71E1
330
6293
100
AcDbEntity
  8
DEFPOINTS
 62
     0
100
AcDbPoint
 10
561.3828514990071
 20
75.2343115547132
 30
0.0
  0
POINT
  5
71E2
330
6293
100
AcDbEntity
  8
DEFPOINTS
 62
     0
100
AcDbPoint
 10
578.951821960933
 20
75.2343115547132
 30
0.0
  0
ENDBLK
  5
629F
330
6293
100
AcDbEntity
  8
0
100
AcDbBlockEnd
  0
BLOCK
  5
62AB
330
62A0
100
AcDbEntity
  8
0
100
AcDbBlockBegin
  2
*D36
 70
     1
 10
0.0
 20
0.0
 30
0.0
  3
*D36
  1

  0
LINE
  5
71E3
330
62A0
100
AcDbEntity
  8
6
 62
     0
370
    -2
100
AcDbLine
 10
323.3828514990071
 20
-59.5631884452858
 30
0.0
 11
323.3828514990071
 21
-69.50986088749998
 31
0.0
  0
LINE
  5
71E4
330
62A0
100
AcDbEntity
  8
6
 62
     0
370
    -2
100
AcDbLine
 10
321.3828514990072
 20
-61.8131884452858
 30
0.0
 11
321.3828514990072
 21
-69.50986088749998
 31
0.0
  0
LINE
  5
71E5
330
62A0
100
AcDbEntity
  8
6
 62
     0
370
    -2
100
AcDbLine
 10
325.7828514990071
 20
-67.70986088749999
 30
0.0
 11
328.1828514990071
 21
-67.70986088749999
 31
0.0
  0
LINE
  5
71E6
330
62A0
100
AcDbEntity
  8
6
 62
     0
370
    -2
100
AcDbLine
 10
318.9828514990072
 20
-67.70986088749999
 30
0.0
 11
316.5828514990072
 21
-67.70986088749999
 31
0.0
  0
MTEXT
  5
71E7
330
62A0
100
AcDbEntity
  8
6
 62
     0
100
AcDbMText
 10
304.1995181656737
 20
-67.70986088749999
 30
0.0
 40
3.0
 41
0.0
 71
     5
 72
     1
  1
\A1;{2.00}\P{BORDER}\P{TYP.}
  7
ROMANS
 73
     1
 44
1.0
1001
ACAD
1000
MTEXTBEGIN
1070
    73
1070
     1
1070
    44
1040
1.0
1070
    74
1070
     0
1000
MTEXTEND
  0
SOLID
  5
71E8
330
62A0
100
AcDbEntity
  8
6
 62
     0
100
AcDbTrace
 10
325.7828514990071
 20
-67.30986088749998
 30
0.0
 11
325.7828514990071
 21
-68.10986088749999
 31
0.0
 12
323.3828514990071
 22
-67.70986088749999
 32
0.0
 13
323.3828514990071
 23
-67.70986088749999
 33
0.0
  0
SOLID
  5
71E9
330
62A0
100
AcDbEntity
  8
6
 62
     0
100
AcDbTrace
 10
318.9828514990072
 20
-67.30986088749998
 30
0.0
 11
318.9828514990072
 21
-68.10986088749999
 31
0.0
 12
321.3828514990072
 22
-67.70986088749999
 32
0.0
 13
321.3828514990072
 23
-67.70986088749999
 33
0.0
  0
POINT
  5
71EA
330
62A0
100
AcDbEntity
  8
DEFPOINTS
 62
     0
100
AcDbPoint
 10
323.3828514990071
 20
-57.76318844528581
 30
0.0
  0
POINT
  5
71EB
330
62A0
100
AcDbEntity
  8
DEFPOINTS
 62
     0
100
AcDbPoint
 10
321.3828514990072
 20
-60.0131884452858
 30
0.0
  0
POINT
  5
71EC
330
62A0
100
AcDbEntity
  8
DEFPOINTS
 62
     0
100
AcDbPoint
 10
321.3828514990072
 20
-67.70986088749999
 30
0.0
  0
ENDBLK
  5
62AC
330
62A0
100
AcDbEntity
  8
0
100
AcDbBlockEnd
  0
BLOCK
  5
62B8
330
62AD
100
AcDbEntity
  8
0
100
AcDbBlockBegin
  2
*D37
 70
     1
 10
0.0
 20
0.0
 30
0.0
  3
*D37
  1

  0
LINE
  5
71ED
330
62AD
100
AcDbEntity
  8
6
 62
     0
370
    -2
100
AcDbLine
 10
321.3828514990072
 20
-61.8131884452858
 30
0.0
 11
321.3828514990072
 21
-76.99307447535447
 31
0.0
  0
LINE
  5
71EE
330
62AD
100
AcDbEntity
  8
6
 62
     0
370
    -2
100
AcDbLine
 10
561.3828514990071
 20
-61.8131884452858
 30
0.0
 11
561.3828514990071
 21
-76.99307447535447
 31
0.0
  0
LINE
  5
71EF
330
62AD
100
AcDbEntity
  8
6
 62
     0
370
    -2
100
AcDbLine
 10
323.7828514990072
 20
-75.19307447535448
 30
0.0
 11
413.3828514990072
 21
-75.19307447535448
 31
0.0
  0
LINE
  5
71F0
330
62AD
100
AcDbEntity
  8
6
 62
     0
370
    -2
100
AcDbLine
 10
558.9828514990072
 20
-75.19307447535448
 30
0.0
 11
469.3828514990071
 21
-75.19307447535448
 31
0.0
  0
SOLID
  5
71F1
330
62AD
100
AcDbEntity
  8
6
 62
     0
100
AcDbTrace
 10
323.7828514990072
 20
-74.79307447535447
 30
0.0
 11
323.7828514990072
 21
-75.59307447535449
 31
0.0
 12
321.3828514990072
 22
-75.19307447535448
 32
0.0
 13
321.3828514990072
 23
-75.19307447535448
 33
0.0
  0
SOLID
  5
71F2
330
62AD
100
AcDbEntity
  8
6
 62
     0
100
AcDbTrace
 10
558.9828514990072
 20
-74.79307447535447
 30
0.0
 11
558.9828514990072
 21
-75.59307447535449
 31
0.0
 12
561.3828514990071
 22
-75.19307447535448
 32
0.0
 13
561.3828514990071
 23
-75.19307447535448
 33
0.0
  0
MTEXT
  5
71F3
330
62AD
100
AcDbEntity
  8
6
 62
     0
100
AcDbMText
 10
441.3828514990071
 20
-75.19307447535448
 30
0.0
 40
3.0
 41
0.0
 71
     5
 72
     1
  1
\A1;240.00 (FABRIC WIDTH)
  7
ROMANS
 73
     1
 44
1.0
1001
ACAD
1000
MTEXTBEGIN
1070
    73
1070
     1
1070
    44
1040
1.0
1070
    74
1070
     0
1000
MTEXTEND
  0
POINT
  5
71F4
330
62AD
100
AcDbEntity
  8
DEFPOINTS
 62
     0
100
AcDbPoint
 10
321.3828514990072
 20
-60.0131884452858
 30
0.0
  0
POINT
  5
71F5
330
62AD
100
AcDbEntity
  8
DEFPOINTS
 62
     0
100
AcDbPoint
 10
561.3828514990071
 20
-60.0131884452858
 30
0.0
  0
POINT
  5
71F6
330
62AD
100
AcDbEntity
  8
DEFPOINTS
 62
     0
100
AcDbPoint
 10
561.3828514990071
 20
-75.19307447535448
 30
0.0
  0
ENDBLK
  5
62B9
330
62AD
100
AcDbEntity
  8
0
100
AcDbBlockEnd
  0
BLOCK
  5
62C5
330
62BA
100
AcDbEntity
  8
0
100
AcDbBlockBegin
  2
*D38
 70
     1
 10
0.0
 20
0.0
 30
0.0
  3
*D38
  1

  0
LINE
  5
71F7
330
62BA
100
AcDbEntity
  8
6
 62
     0
370
    -2
100
AcDbLine
 10
323.3828514990071
 20
-59.5631884452858
 30
0.0
 11
323.3828514990071
 21
-69.50986088749998
 31
0.0
  0
LINE
  5
71F8
330
62BA
100
AcDbEntity
  8
6
 62
     0
370
    -2
100
AcDbLine
 10
559.3828514990071
 20
-59.5631884452858
 30
0.0
 11
559.3828514990071
 21
-69.50986088749998
 31
0.0
  0
LINE
  5
71F9
330
62BA
100
AcDbEntity
  8
6
 62
     0
370
    -2
100
AcDbLine
 10
325.7828514990071
 20
-67.70986088749999
 30
0.0
 11
426.5971372132928
 21
-67.70986088749999
 31
0.0
  0
LINE
  5
71FA
330
62BA
100
AcDbEntity
  8
6
 62
     0
370
    -2
100
AcDbLine
 10
556.9828514990071
 20
-67.70986088749999
 30
0.0
 11
456.1685657847213
 21
-67.70986088749999
 31
0.0
  0
SOLID
  5
71FB
330
62BA
100
AcDbEntity
  8
6
 62
     0
100
AcDbTrace
 10
325.7828514990071
 20
-67.30986088749998
 30
0.0
 11
325.7828514990071
 21
-68.10986088749999
 31
0.0
 12
323.3828514990071
 22
-67.70986088749999
 32
0.0
 13
323.3828514990071
 23
-67.70986088749999
 33
0.0
  0
SOLID
  5
71FC
330
62BA
100
AcDbEntity
  8
6
 62
     0
100
AcDbTrace
 10
556.9828514990071
 20
-67.30986088749998
 30
0.0
 11
556.9828514990071
 21
-68.10986088749999
 31
0.0
 12
559.3828514990071
 22
-67.70986088749999
 32
0.0
 13
559.3828514990071
 23
-67.70986088749999
 33
0.0
  0
MTEXT
  5
71FD
330
62BA
100
AcDbEntity
  8
6
 62
     0
100
AcDbMText
 10
441.382851499007
 20
-67.70986088749999
 30
0.0
 40
3.0
 41
0.0
 71
     5
 72
     1
  1
\A1;236.00 VAW
  7
ROMANS
 73
     1
 44
1.0
1001
ACAD
1000
MTEXTBEGIN
1070
    73
1070
     1
1070
    44
1040
1.0
1070
    74
1070
     0
1000
MTEXTEND
  0
POINT
  5
71FE
330
62BA
100
AcDbEntity
  8
DEFPOINTS
 62
     0
100
AcDbPoint
 10
323.3828514990071
 20
-57.76318844528581
 30
0.0
  0
POINT
  5
71FF
330
62BA
100
AcDbEntity
  8
DEFPOINTS
 62
     0
100
AcDbPoint
 10
559.3828514990071
 20
-57.76318844528581
 30
0.0
  0
POINT
  5
7200
330
62BA
100
AcDbEntity
  8
DEFPOINTS
 62
     0
100
AcDbPoint
 10
559.3828514990071
 20
-67.70986088749999
 30
0.0
  0
ENDBLK
  5
62C6
330
62BA
100
AcDbEntity
  8
0
100
AcDbBlockEnd
  0
BLOCK
  5
62FE
330
62FD
100
AcDbEntity
  8
0
100
AcDbBlockBegin
  2
*D39
 70
     1
 10
0.0
 20
0.0
 30
0.0
  3
*D39
  1

  0
LINE
  5
62FF
330
62FD
100
AcDbEntity
  8
7_DIM
  6
Continuous
 62
     0
370
    -2
100
AcDbLine
 10
367.5352536118932
 20
11.19670257783784
 30
0.0
 11
399.0361964431594
 21
11.19670257783783
 31
0.0
  0
LINE
  5
6300
330
62FD
100
AcDbEntity
  8
7_DIM
  6
Continuous
 62
     0
370
    -2
100
AcDbLine
 10
367.5352536118932
 20
173.1966915942378
 30
0.0
 11
399.0361964431595
 21
173.1966915942378
 31
0.0
  0
LINE
  5
6301
330
62FD
100
AcDbEntity
  8
7_DIM
  6
Continuous
 62
     0
370
    -2
100
AcDbLine
 10
396.8761964431593
 20
14.07670257783783
 30
0.0
 11
396.8761964431593
 21
84.15669708603783
 31
0.0
  0
LINE
  5
6302
330
62FD
100
AcDbEntity
  8
7_DIM
  6
Continuous
 62
     0
370
    -2
100
AcDbLine
 10
396.8761964431594
 20
170.3166915942378
 30
0.0
 11
396.8761964431593
 21
100.2366970860378
 31
0.0
  0
SOLID
  5
6303
330
62FD
100
AcDbEntity
  8
7_DIM
  6
Continuous
 62
     0
100
AcDbTrace
 10
396.3961964431593
 20
14.07670257783783
 30
0.0
 11
397.3561964431594
 21
14.07670257783783
 31
0.0
 12
396.8761964431593
 22
11.19670257783783
 32
0.0
 13
396.8761964431593
 23
11.19670257783783
 33
0.0
  0
SOLID
  5
6304
330
62FD
100
AcDbEntity
  8
7_DIM
  6
Continuous
 62
     0
100
AcDbTrace
 10
396.3961964431594
 20
170.3166915942378
 30
0.0
 11
397.3561964431594
 21
170.3166915942378
 31
0.0
 12
396.8761964431594
 22
173.1966915942378
 32
0.0
 13
396.8761964431594
 23
173.1966915942378
 33
0.0
  0
MTEXT
  5
6305
330
62FD
100
AcDbEntity
  8
7_DIM
  6
Continuous
 62
     0
100
AcDbMText
 10
396.8761964431593
 20
92.19669708603786
 30
0.0
 40
3.6
 41
0.0
 71
     5
 72
     1
  1
\A1;162.00\PVAH
  7
ROMANS
 73
     1
 44
1.0
1001
ACAD
1000
MTEXTBEGIN
1070
    73
1070
     1
1070
    44
1040
1.0
1070
    74
1070
     0
1000
MTEXTEND
  0
POINT
  5
6306
330
62FD
100
AcDbEntity
  8
DEFPOINTS
  6
Continuous
 62
     0
100
AcDbPoint
 10
365.3752536118932
 20
11.19670257783784
 30
0.0
  0
POINT
  5
6307
330
62FD
100
AcDbEntity
  8
DEFPOINTS
  6
Continuous
 62
     0
100
AcDbPoint
 10
365.3752536118932
 20
173.1966915942378
 30
0.0
  0
POINT
  5
6308
330
62FD
100
AcDbEntity
  8
DEFPOINTS
  6
Continuous
 62
     0
100
AcDbPoint
 10
396.8761964431594
 20
173.1966915942378
 30
0.0
  0
ENDBLK
  5
6309
330
62FD
100
AcDbEntity
  8
0
100
AcDbBlockEnd
  0
BLOCK
  5
630B
330
630A
100
AcDbEntity
  8
0
100
AcDbBlockBegin
  2
*D40
 70
     1
 10
0.0
 20
0.0
 30
0.0
  3
*D40
  1

  0
LINE
  5
630C
330
630A
100
AcDbEntity
  8
7_DIM
  6
Continuous
 62
     0
370
    -2
100
AcDbLine
 10
365.3752536118932
 20
9.036702577837839
 30
0.0
 11
365.3752536118932
 21
-0.9171222137621519
 31
0.0
  0
LINE
  5
630D
330
630A
100
AcDbEntity
  8
7_DIM
  6
Continuous
 62
     0
370
    -2
100
AcDbLine
 10
149.3752481182932
 20
9.036702577837839
 30
0.0
 11
149.3752481182932
 21
-0.9171222137621519
 31
0.0
  0
LINE
  5
630E
330
630A
100
AcDbEntity
  8
7_DIM
  6
Continuous
 62
     0
370
    -2
100
AcDbLine
 10
362.4952536118931
 20
1.242877786237847
 30
0.0
 11
276.5581080079503
 21
1.242877786237847
 31
0.0
  0
LINE
  5
630F
330
630A
100
AcDbEntity
  8
7_DIM
  6
Continuous
 62
     0
370
    -2
100
AcDbLine
 10
152.2552481182932
 20
1.242877786237847
 30
0.0
 11
238.1923937222361
 21
1.242877786237847
 31
0.0
  0
SOLID
  5
6310
330
630A
100
AcDbEntity
  8
7_DIM
  6
Continuous
 62
     0
100
AcDbTrace
 10
362.4952536118931
 20
1.722877786237848
 30
0.0
 11
362.4952536118931
 21
0.7628777862378482
 31
0.0
 12
365.3752536118932
 22
1.242877786237847
 32
0.0
 13
365.3752536118932
 23
1.242877786237847
 33
0.0
  0
SOLID
  5
6311
330
630A
100
AcDbEntity
  8
7_DIM
  6
Continuous
 62
     0
100
AcDbTrace
 10
152.2552481182932
 20
1.722877786237848
 30
0.0
 11
152.2552481182932
 21
0.7628777862378482
 31
0.0
 12
149.3752481182932
 22
1.242877786237847
 32
0.0
 13
149.3752481182932
 23
1.242877786237847
 33
0.0
  0
MTEXT
  5
6312
330
630A
100
AcDbEntity
  8
7_DIM
  6
Continuous
 62
     0
100
AcDbMText
 10
257.3752508650932
 20
1.242877786237847
 30
0.0
 40
3.6
 41
0.0
 71
     5
 72
     1
  1
\A1;216.00 VAW
  7
ROMANS
 73
     1
 44
1.0
1001
ACAD
1000
MTEXTBEGIN
1070
    73
1070
     1
1070
    44
1040
1.0
1070
    74
1070
     0
1000
MTEXTEND
  0
POINT
  5
6313
330
630A
100
AcDbEntity
  8
DEFPOINTS
  6
Continuous
 62
     0
100
AcDbPoint
 10
365.3752536118932
 20
11.19670257783784
 30
0.0
  0
POINT
  5
6314
330
630A
100
AcDbEntity
  8
DEFPOINTS
  6
Continuous
 62
     0
100
AcDbPoint
 10
149.3752481182932
 20
11.19670257783784
 30
0.0
  0
POINT
  5
6315
330
630A
100
AcDbEntity
  8
DEFPOINTS
  6
Continuous
 62
     0
100
AcDbPoint
 10
149.3752481182932
 20
1.242877786237847
 30
0.0
  0
ENDBLK
  5
6316
330
630A
100
AcDbEntity
  8
0
100
AcDbBlockEnd
  0
BLOCK
  5
6318
330
6317
100
AcDbEntity
  8
0
100
AcDbBlockBegin
  2
*D41
 70
     1
 10
0.0
 20
0.0
 30
0.0
  3
*D41
  1

  0
LINE
  5
6319
330
6317
100
AcDbEntity
  8
7_DIM
  6
Continuous
 62
     0
370
    -2
100
AcDbLine
 10
140.6256972742932
 20
4.78970233743784
 30
0.0
 11
140.6256972742932
 21
-9.12658167536215
 31
0.0
  0
LINE
  5
631A
330
6317
100
AcDbEntity
  8
7_DIM
  6
Continuous
 62
     0
370
    -2
100
AcDbLine
 10
374.1248016874932
 20
4.78970233743784
 30
0.0
 11
374.1248016874932
 21
-9.12658167536215
 31
0.0
  0
LINE
  5
631B
330
6317
100
AcDbEntity
  8
7_DIM
  6
Continuous
 62
     0
370
    -2
100
AcDbLine
 10
143.5056972742932
 20
-6.966581675362148
 30
0.0
 11
222.3352494808932
 21
-6.966581675362148
 31
0.0
  0
LINE
  5
631C
330
6317
100
AcDbEntity
  8
7_DIM
  6
Continuous
 62
     0
370
    -2
100
AcDbLine
 10
371.2448016874932
 20
-6.966581675362148
 30
0.0
 11
292.4152494808932
 21
-6.966581675362148
 31
0.0
  0
SOLID
  5
631D
330
6317
100
AcDbEntity
  8
7_DIM
  6
Continuous
 62
     0
100
AcDbTrace
 10
143.5056972742932
 20
-6.486581675362148
 30
0.0
 11
143.5056972742932
 21
-7.44658167536215
 31
0.0
 12
140.6256972742932
 22
-6.966581675362148
 32
0.0
 13
140.6256972742932
 23
-6.966581675362148
 33
0.0
  0
SOLID
  5
631E
330
6317
100
AcDbEntity
  8
7_DIM
  6
Continuous
 62
     0
100
AcDbTrace
 10
371.2448016874932
 20
-6.486581675362148
 30
0.0
 11
371.2448016874932
 21
-7.44658167536215
 31
0.0
 12
374.1248016874932
 22
-6.966581675362148
 32
0.0
 13
374.1248016874932
 23
-6.966581675362148
 33
0.0
  0
MTEXT
  5
631F
330
6317
100
AcDbEntity
  8
7_DIM
  6
Continuous
 62
     0
100
AcDbMText
 10
257.3752494808932
 20
-6.966581675362148
 30
0.0
 40
3.6
 41
0.0
 71
     5
 72
     1
  1
\A1;233.50 (FABRIC WIDTH)
  7
ROMANS
 73
     1
 44
1.0
1001
ACAD
1000
MTEXTBEGIN
1070
    73
1070
     1
1070
    44
1040
1.0
1070
    74
1070
     0
1000
MTEXTEND
  0
POINT
  5
6320
330
6317
100
AcDbEntity
  8
DEFPOINTS
  6
Continuous
 62
     0
100
AcDbPoint
 10
140.6256972742932
 20
6.94970233743784
 30
0.0
  0
POINT
  5
6321
330
6317
100
AcDbEntity
  8
DEFPOINTS
  6
Continuous
 62
     0
100
AcDbPoint
 10
374.1248016874932
 20
6.94970233743784
 30
0.0
  0
POINT
  5
6322
330
6317
100
AcDbEntity
  8
DEFPOINTS
  6
Continuous
 62
     0
100
AcDbPoint
 10
374.1248016874932
 20
-6.966581675362148
 30
0.0
  0
ENDBLK
  5
6323
330
6317
100
AcDbEntity
  8
0
100
AcDbBlockEnd
  0
BLOCK
  5
6325
330
6324
100
AcDbEntity
  8
0
100
AcDbBlockBegin
  2
*D42
 70
     1
 10
0.0
 20
0.0
 30
0.0
  3
*D42
  1

  0
LINE
  5
6326
330
6324
100
AcDbEntity
  8
7_DIM
  6
Continuous
 62
     0
370
    -2
100
AcDbLine
 10
139.8752508650932
 20
4.539702335437846
 30
0.0
 11
139.8752508650932
 21
-17.33604113336216
 31
0.0
  0
LINE
  5
6327
330
6324
100
AcDbEntity
  8
7_DIM
  6
Continuous
 62
     0
370
    -2
100
AcDbLine
 10
374.8752508650932
 20
4.539702335437846
 30
0.0
 11
374.8752508650932
 21
-17.33604113336216
 31
0.0
  0
LINE
  5
6328
330
6324
100
AcDbEntity
  8
7_DIM
  6
Continuous
 62
     0
370
    -2
100
AcDbLine
 10
142.7552508650932
 20
-15.17604113336215
 30
0.0
 11
197.9066794365218
 21
-15.17604113336215
 31
0.0
  0
LINE
  5
6329
330
6324
100
AcDbEntity
  8
7_DIM
  6
Continuous
 62
     0
370
    -2
100
AcDbLine
 10
371.9952508650932
 20
-15.17604113336215
 30
0.0
 11
316.8438222936647
 21
-15.17604113336215
 31
0.0
  0
SOLID
  5
632A
330
6324
100
AcDbEntity
  8
7_DIM
  6
Continuous
 62
     0
100
AcDbTrace
 10
142.7552508650932
 20
-14.69604113336215
 30
0.0
 11
142.7552508650932
 21
-15.65604113336215
 31
0.0
 12
139.8752508650932
 22
-15.17604113336215
 32
0.0
 13
139.8752508650932
 23
-15.17604113336215
 33
0.0
  0
SOLID
  5
632B
330
6324
100
AcDbEntity
  8
7_DIM
  6
Continuous
 62
     0
100
AcDbTrace
 10
371.9952508650932
 20
-14.69604113336215
 30
0.0
 11
371.9952508650932
 21
-15.65604113336215
 31
0.0
 12
374.8752508650932
 22
-15.17604113336215
 32
0.0
 13
374.8752508650932
 23
-15.17604113336215
 33
0.0
  0
MTEXT
  5
632C
330
6324
100
AcDbEntity
  8
7_DIM
  6
Continuous
 62
     0
100
AcDbMText
 10
257.3752508650932
 20
-15.17604113336215
 30
0.0
 40
3.6
 41
0.0
 71
     5
 72
     1
  1
\A1;235.00 (OVERALL LENGTH OF SLAT BAR)
  7
ROMANS
 73
     1
 44
1.0
1001
ACAD
1000
MTEXTBEGIN
1070
    73
1070
     1
1070
    44
1040
1.0
1070
    74
1070
     0
1000
MTEXTEND
  0
POINT
  5
632D
330
6324
100
AcDbEntity
  8
DEFPOINTS
  6
Continuous
 62
     0
100
AcDbPoint
 10
139.8752508650932
 20
6.699702335437845
 30
0.0
  0
POINT
  5
632E
330
6324
100
AcDbEntity
  8
DEFPOINTS
  6
Continuous
 62
     0
100
AcDbPoint
 10
374.8752508650932
 20
6.699702335437845
 30
0.0
  0
POINT
  5
632F
330
6324
100
AcDbEntity
  8
DEFPOINTS
  6
Continuous
 62
     0
100
AcDbPoint
 10
374.8752508650932
 20
-15.17604113336215
 30
0.0
  0
ENDBLK
  5
6330
330
6324
100
AcDbEntity
  8
0
100
AcDbBlockEnd
  0
BLOCK
  5
6332
330
6331
100
AcDbEntity
  8
0
100
AcDbBlockBegin
  2
*D43
 70
     1
 10
0.0
 20
0.0
 30
0.0
  3
*D43
  1

  0
LINE
  5
6333
330
6331
100
AcDbEntity
  8
7_DIM
  6
Continuous
 62
     0
370
    -2
100
AcDbLine
 10
149.3752481182932
 20
9.036702577837839
 30
0.0
 11
149.3752481182932
 21
-0.9171222137621519
 31
0.0
  0
LINE
  5
6334
330
6331
100
AcDbEntity
  8
7_DIM
  6
Continuous
 62
     0
370
    -2
100
AcDbLine
 10
140.6256972742932
 20
4.78970233743784
 30
0.0
 11
140.6256972742932
 21
-0.9171222137621519
 31
0.0
  0
LINE
  5
6335
330
6331
100
AcDbEntity
  8
7_DIM
  6
Continuous
 62
     0
370
    -2
100
AcDbLine
 10
152.2552481182932
 20
1.242877786237847
 30
0.0
 11
155.1352481182932
 21
1.242877786237847
 31
0.0
  0
LINE
  5
6336
330
6331
100
AcDbEntity
  8
7_DIM
  6
Continuous
 62
     0
370
    -2
100
AcDbLine
 10
137.7456972742932
 20
1.242877786237847
 30
0.0
 11
134.8656972742932
 21
1.242877786237847
 31
0.0
  0
SOLID
  5
6337
330
6331
100
AcDbEntity
  8
7_DIM
  6
Continuous
 62
     0
100
AcDbTrace
 10
152.2552481182932
 20
1.722877786237848
 30
0.0
 11
152.2552481182932
 21
0.7628777862378482
 31
0.0
 12
149.3752481182932
 22
1.242877786237847
 32
0.0
 13
149.3752481182932
 23
1.242877786237847
 33
0.0
  0
SOLID
  5
6338
330
6331
100
AcDbEntity
  8
7_DIM
  6
Continuous
 62
     0
100
AcDbTrace
 10
137.7456972742932
 20
1.722877786237848
 30
0.0
 11
137.7456972742932
 21
0.7628777862378482
 31
0.0
 12
140.6256972742932
 22
1.242877786237847
 32
0.0
 13
140.6256972742932
 23
1.242877786237847
 33
0.0
  0
MTEXT
  5
6339
330
6331
100
AcDbEntity
  8
7_DIM
  6
Continuous
 62
     0
100
AcDbMText
 10
119.7971258457217
 20
1.242877786237847
 30
0.0
 40
3.6
 41
0.0
 71
     5
 72
     1
  1
\A1;8.75\PBORDERS\PTYP.
  7
ROMANS
 73
     1
 44
1.0
1001
ACAD
1000
MTEXTBEGIN
1070
    73
1070
     1
1070
    44
1040
1.0
1070
    74
1070
     0
1000
MTEXTEND
  0
POINT
  5
633A
330
6331
100
AcDbEntity
  8
DEFPOINTS
  6
Continuous
 62
     0
100
AcDbPoint
 10
149.3752481182932
 20
11.19670257783784
 30
0.0
  0
POINT
  5
633B
330
6331
100
AcDbEntity
  8
DEFPOINTS
  6
Continuous
 62
     0
100
AcDbPoint
 10
140.6256972742932
 20
6.94970233743784
 30
0.0
  0
POINT
  5
633C
330
6331
100
AcDbEntity
  8
DEFPOINTS
  6
Continuous
 62
     0
100
AcDbPoint
 10
140.6256972742932
 20
1.242877786237847
 30
0.0
  0
ENDBLK
  5
633D
330
6331
100
AcDbEntity
  8
0
100
AcDbBlockEnd
  0
BLOCK
  5
633F
330
633E
100
AcDbEntity
  8
0
100
AcDbBlockBegin
  2
*D44
 70
     1
 10
0.0
 20
0.0
 30
0.0
  3
*D44
  1

  0
LINE
  5
6340
330
633E
100
AcDbEntity
  8
7_DIM
  6
Continuous
 62
     0
370
    -2
100
AcDbLine
 10
374.9719198768986
 20
9.199702337437839
 30
0.0
 11
407.3687760233046
 21
9.199702337437832
 31
0.0
  0
LINE
  5
6341
330
633E
100
AcDbEntity
  8
7_DIM
  6
Continuous
 62
     0
370
    -2
100
AcDbLine
 10
375.3473764143634
 20
6.699702335437847
 30
0.0
 11
407.3687760233046
 21
6.699702335437837
 31
0.0
  0
LINE
  5
6342
330
633E
100
AcDbEntity
  8
7_DIM
  6
Continuous
 62
     0
370
    -2
100
AcDbLine
 10
405.2087760233048
 20
12.07970233743783
 30
0.0
 11
405.2087760233048
 21
14.95970233743783
 31
0.0
  0
LINE
  5
6343
330
633E
100
AcDbEntity
  8
7_DIM
  6
Continuous
 62
     0
370
    -2
100
AcDbLine
 10
405.2087760233048
 20
3.819702335437839
 30
0.0
 11
405.2087760233048
 21
-17.58642729680748
 31
0.0
  0
LINE
  5
6344
330
633E
100
AcDbEntity
  8
7_DIM
  6
Continuous
 62
     0
370
    -2
100
AcDbLine
 10
405.2087760233048
 20
-17.58642729680748
 30
0.0
 11
402.3287760233048
 21
-17.58642729680748
 31
0.0
  0
SOLID
  5
6345
330
633E
100
AcDbEntity
  8
7_DIM
  6
Continuous
 62
     0
100
AcDbTrace
 10
404.7287760233046
 20
12.07970233743783
 30
0.0
 11
405.6887760233047
 21
12.07970233743783
 31
0.0
 12
405.2087760233048
 22
9.199702337437832
 32
0.0
 13
405.2087760233048
 23
9.199702337437832
 33
0.0
  0
SOLID
  5
6346
330
633E
100
AcDbEntity
  8
7_DIM
  6
Continuous
 62
     0
100
AcDbTrace
 10
404.7287760233046
 20
3.819702335437839
 30
0.0
 11
405.6887760233047
 21
3.819702335437839
 31
0.0
 12
405.2087760233048
 22
6.699702335437838
 32
0.0
 13
405.2087760233048
 23
6.699702335437838
 33
0.0
  0
MTEXT
  5
6347
330
633E
100
AcDbEntity
  8
7_DIM
  6
Continuous
 62
     0
100
AcDbMText
 10
393.3459188804477
 20
-17.58642729680741
 30
0.0
 40
3.6
 41
0.0
 71
     5
 72
     1
  1
\A1;2.50\PSLAT
  7
ROMANS
 73
     1
 44
1.0
1001
ACAD
1000
MTEXTBEGIN
1070
    73
1070
     1
1070
    44
1040
1.0
1070
    74
1070
     0
1000
MTEXTEND
  0
POINT
  5
6348
330
633E
100
AcDbEntity
  8
DEFPOINTS
  6
Continuous
 62
     0
100
AcDbPoint
 10
372.8119198768987
 20
9.199702337437839
 30
0.0
  0
POINT
  5
6349
330
633E
100
AcDbEntity
  8
DEFPOINTS
  6
Continuous
 62
     0
100
AcDbPoint
 10
373.1873764143634
 20
6.699702335437847
 30
0.0
  0
POINT
  5
634A
330
633E
100
AcDbEntity
  8
DEFPOINTS
  6
Continuous
 62
     0
100
AcDbPoint
 10
405.2087760233048
 20
6.699702335437838
 30
0.0
  0
ENDBLK
  5
634B
330
633E
100
AcDbEntity
  8
0
100
AcDbBlockEnd
  0
BLOCK
  5
634D
330
634C
100
AcDbEntity
  8
0
100
AcDbBlockBegin
  2
*D45
 70
     1
 10
0.0
 20
0.0
 30
0.0
  3
*D45
  1

  0
LINE
  5
634E
330
634C
100
AcDbEntity
  8
7_DIM
  6
Continuous
 62
     0
370
    -2
100
AcDbLine
 10
374.9719198768986
 20
9.199702337437839
 30
0.0
 11
399.0361964431595
 21
9.199702337437834
 31
0.0
  0
LINE
  5
634F
330
634C
100
AcDbEntity
  8
7_DIM
  6
Continuous
 62
     0
370
    -2
100
AcDbLine
 10
367.5352536118932
 20
11.19670257783784
 30
0.0
 11
399.0361964431594
 21
11.19670257783783
 31
0.0
  0
LINE
  5
6350
330
634C
100
AcDbEntity
  8
7_DIM
  6
Continuous
 62
     0
370
    -2
100
AcDbLine
 10
396.8761964431594
 20
14.07670257783783
 30
0.0
 11
396.8761964431594
 21
16.95670257783783
 31
0.0
  0
LINE
  5
6351
330
634C
100
AcDbEntity
  8
7_DIM
  6
Continuous
 62
     0
370
    -2
100
AcDbLine
 10
396.8761964431594
 20
6.319702337437834
 30
0.0
 11
396.8761964431594
 21
-3.47115220004589
 31
0.0
  0
LINE
  5
6352
330
634C
100
AcDbEntity
  8
7_DIM
  6
Continuous
 62
     0
370
    -2
100
AcDbLine
 10
396.8761964431594
 20
-3.47115220004589
 30
0.0
 11
393.9961964431594
 21
-3.471152200045888
 31
0.0
  0
SOLID
  5
6353
330
634C
100
AcDbEntity
  8
7_DIM
  6
Continuous
 62
     0
100
AcDbTrace
 10
396.3961964431594
 20
14.07670257783783
 30
0.0
 11
397.3561964431594
 21
14.07670257783783
 31
0.0
 12
396.8761964431594
 22
11.19670257783783
 32
0.0
 13
396.8761964431594
 23
11.19670257783783
 33
0.0
  0
SOLID
  5
6354
330
634C
100
AcDbEntity
  8
7_DIM
  6
Continuous
 62
     0
100
AcDbTrace
 10
396.3961964431594
 20
6.319702337437834
 30
0.0
 11
397.3561964431594
 21
6.319702337437834
 31
0.0
 12
396.8761964431594
 22
9.199702337437834
 32
0.0
 13
396.8761964431594
 23
9.199702337437834
 33
0.0
  0
MTEXT
  5
6355
330
634C
100
AcDbEntity
  8
7_DIM
  6
Continuous
 62
     0
100
AcDbMText
 10
385.2704821574452
 20
-3.471152200045826
 30
0.0
 40
3.6
 41
0.0
 71
     5
 72
     1
  1
\A1;2.00\PBLK.
  7
ROMANS
 73
     1
 44
1.0
1001
ACAD
1000
MTEXTBEGIN
1070
    73
1070
     1
1070
    44
1040
1.0
1070
    74
1070
     0
1000
MTEXTEND
  0
POINT
  5
6356
330
634C
100
AcDbEntity
  8
DEFPOINTS
  6
Continuous
 62
     0
100
AcDbPoint
 10
372.8119198768987
 20
9.199702337437839
 30
0.0
  0
POINT
  5
6357
330
634C
100
AcDbEntity
  8
DEFPOINTS
  6
Continuous
 62
     0
100
AcDbPoint
 10
365.3752536118932
 20
11.19670257783784
 30
0.0
  0
POINT
  5
6358
330
634C
100
AcDbEntity
  8
DEFPOINTS
  6
Continuous
 62
     0
100
AcDbPoint
 10
396.8761964431594
 20
11.19670257783783
 30
0.0
  0
ENDBLK
  5
6359
330
634C
100
AcDbEntity
  8
0
100
AcDbBlockEnd
  0
BLOCK
  5
635B
330
635A
100
AcDbEntity
  8
0
100
AcDbBlockBegin
  2
*D46
 70
     1
 10
0.0
 20
0.0
 30
0.0
  3
*D46
  1

  0
LINE
  5
635C
330
635A
100
AcDbEntity
  8
7_DIM
  6
Continuous
 62
     0
370
    -2
100
AcDbLine
 10
367.5352536118932
 20
173.1966915942378
 30
0.0
 11
399.0361964431595
 21
173.1966915942378
 31
0.0
  0
LINE
  5
635D
330
635A
100
AcDbEntity
  8
7_DIM
  6
Continuous
 62
     0
370
    -2
100
AcDbLine
 10
390.8929851226933
 20
175.1962023378378
 30
0.0
 11
399.0361964431595
 21
175.1962023378378
 31
0.0
  0
LINE
  5
635E
330
635A
100
AcDbEntity
  8
7_DIM
  6
Continuous
 62
     0
370
    -2
100
AcDbLine
 10
396.8761964431594
 20
170.3166915942378
 30
0.0
 11
396.8761964431594
 21
167.4366915942378
 31
0.0
  0
LINE
  5
635F
330
635A
100
AcDbEntity
  8
7_DIM
  6
Continuous
 62
     0
370
    -2
100
AcDbLine
 10
396.8761964431594
 20
178.0762023378378
 30
0.0
 11
396.8761964431594
 21
180.9562023378378
 31
0.0
  0
LINE
  5
6360
330
635A
100
AcDbEntity
  8
7_DIM
  6
Continuous
 62
     0
370
    -2
100
AcDbLine
 10
396.8761964431594
 20
180.9562023378378
 30
0.0
 11
399.7561964431594
 21
180.9562023378378
 31
0.0
  0
SOLID
  5
6361
330
635A
100
AcDbEntity
  8
7_DIM
  6
Continuous
 62
     0
100
AcDbTrace
 10
396.3961964431594
 20
170.3166915942378
 30
0.0
 11
397.3561964431594
 21
170.3166915942378
 31
0.0
 12
396.8761964431594
 22
173.1966915942378
 32
0.0
 13
396.8761964431594
 23
173.1966915942378
 33
0.0
  0
SOLID
  5
6362
330
635A
100
AcDbEntity
  8
7_DIM
  6
Continuous
 62
     0
100
AcDbTrace
 10
396.3961964431594
 20
178.0762023378378
 30
0.0
 11
397.3561964431594
 21
178.0762023378378
 31
0.0
 12
396.8761964431594
 22
175.1962023378378
 32
0.0
 13
396.8761964431594
 23
175.1962023378378
 33
0.0
  0
MTEXT
  5
6363
330
635A
100
AcDbEntity
  8
7_DIM
  6
Continuous
 62
     0
100
AcDbMText
 10
408.4819107288735
 20
180.9562023378378
 30
0.0
 40
3.6
 41
0.0
 71
     5
 72
     1
  1
\A1;2.00\PBLK.
  7
ROMANS
 73
     1
 44
1.0
1001
ACAD
1000
MTEXTBEGIN
1070
    73
1070
     1
1070
    44
1040
1.0
1070
    74
1070
     0
1000
MTEXTEND
  0
POINT
  5
6364
330
635A
100
AcDbEntity
  8
DEFPOINTS
  6
Continuous
 62
     0
100
AcDbPoint
 10
365.3752536118932
 20
173.1966915942378
 30
0.0
  0
POINT
  5
6365
330
635A
100
AcDbEntity
  8
DEFPOINTS
  6
Continuous
 62
     0
100
AcDbPoint
 10
388.7329851226931
 20
175.1962023378378
 30
0.0
  0
POINT
  5
6366
330
635A
100
AcDbEntity
  8
DEFPOINTS
  6
Continuous
 62
     0
100
AcDbPoint
 10
396.8761964431594
 20
175.1962023378378
 30
0.0
  0
ENDBLK
  5
6367
330
635A
100
AcDbEntity
  8
0
100
AcDbBlockEnd
  0
BLOCK
  5
6369
330
6368
100
AcDbEntity
  8
0
100
AcDbBlockBegin
  2
*D47
 70
     1
 10
0.0
 20
0.0
 30
0.0
  3
*D47
  1

  0
LINE
  5
636A
330
6368
100
AcDbEntity
  8
7_DIM
  6
Continuous
 62
     0
370
    -2
100
AcDbLine
 10
159.5002403230932
 20
191.4112023354379
 30
0.0
 11
159.5002403230932
 21
196.5156958746378
 31
0.0
  0
LINE
  5
636B
330
6368
100
AcDbEntity
  8
7_DIM
  6
Continuous
 62
     0
370
    -2
100
AcDbLine
 10
355.2502453150931
 20
191.4112023354379
 30
0.0
 11
355.2502453150931
 21
196.5156958746378
 31
0.0
  0
LINE
  5
636C
330
6368
100
AcDbEntity
  8
7_DIM
  6
Continuous
 62
     0
370
    -2
100
AcDbLine
 10
162.3802403230931
 20
194.3556958746378
 30
0.0
 11
224.3066713905218
 21
194.3556958746378
 31
0.0
  0
LINE
  5
636D
330
6368
100
AcDbEntity
  8
7_DIM
  6
Continuous
 62
     0
370
    -2
100
AcDbLine
 10
352.3702453150932
 20
194.3556958746378
 30
0.0
 11
290.4438142476646
 21
194.3556958746378
 31
0.0
  0
SOLID
  5
636E
330
6368
100
AcDbEntity
  8
7_DIM
  6
Continuous
 62
     0
100
AcDbTrace
 10
162.3802403230931
 20
194.8356958746378
 30
0.0
 11
162.3802403230931
 21
193.8756958746378
 31
0.0
 12
159.5002403230932
 22
194.3556958746378
 32
0.0
 13
159.5002403230932
 23
194.3556958746378
 33
0.0
  0
SOLID
  5
636F
330
6368
100
AcDbEntity
  8
7_DIM
  6
Continuous
 62
     0
100
AcDbTrace
 10
352.3702453150932
 20
194.8356958746378
 30
0.0
 11
352.3702453150932
 21
193.8756958746378
 31
0.0
 12
355.2502453150931
 22
194.3556958746378
 32
0.0
 13
355.2502453150931
 23
194.3556958746378
 33
0.0
  0
MTEXT
  5
6370
330
6368
100
AcDbEntity
  8
7_DIM
  6
Continuous
 62
     0
100
AcDbMText
 10
257.3752428190932
 20
194.3556958746378
 30
0.0
 40
3.6
 41
0.0
 71
     5
 72
     1
  1
\A1;ADJUSTABLE HANGERS
  7
ROMANS
 73
     1
 44
1.0
1001
ACAD
1000
MTEXTBEGIN
1070
    73
1070
     1
1070
    44
1040
1.0
1070
    74
1070
     0
1000
MTEXTEND
  0
POINT
  5
6371
330
6368
100
AcDbEntity
  8
DEFPOINTS
  6
Continuous
 62
     0
100
AcDbPoint
 10
159.5002403230932
 20
189.2512023354379
 30
0.0
  0
POINT
  5
6372
330
6368
100
AcDbEntity
  8
DEFPOINTS
  6
Continuous
 62
     0
100
AcDbPoint
 10
355.2502453150931
 20
189.2512023354379
 30
0.0
  0
POINT
  5
6373
330
6368
100
AcDbEntity
  8
DEFPOINTS
  6
Continuous
 62
     0
100
AcDbPoint
 10
355.2502453150931
 20
194.3556958746378
 30
0.0
  0
ENDBLK
  5
6374
330
6368
100
AcDbEntity
  8
0
100
AcDbBlockEnd
  0
BLOCK
  5
6376
330
6375
100
AcDbEntity
  8
0
100
AcDbBlockBegin
  2
*D48
 70
     1
 10
0.0
 20
0.0
 30
0.0
  3
*D48
  1

  0
LINE
  5
6377
330
6375
100
AcDbEntity
  8
7_DIM
  6
Continuous
 62
     0
370
    -2
100
AcDbLine
 10
138.5002494802932
 20
186.3912023370378
 30
0.0
 11
138.5002494802932
 21
204.8652153702378
 31
0.0
  0
LINE
  5
6378
330
6375
100
AcDbEntity
  8
7_DIM
  6
Continuous
 62
     0
370
    -2
100
AcDbLine
 10
376.2502494814932
 20
186.3912023370378
 30
0.0
 11
376.2502494814932
 21
204.8652153702378
 31
0.0
  0
LINE
  5
6379
330
6375
100
AcDbEntity
  8
7_DIM
  6
Continuous
 62
     0
370
    -2
100
AcDbLine
 10
141.3802494802931
 20
202.7052153702378
 30
0.0
 11
212.3923923380361
 21
202.7052153702378
 31
0.0
  0
LINE
  5
637A
330
6375
100
AcDbEntity
  8
7_DIM
  6
Continuous
 62
     0
370
    -2
100
AcDbLine
 10
373.3702494814932
 20
202.7052153702378
 30
0.0
 11
302.3581066237504
 21
202.7052153702378
 31
0.0
  0
SOLID
  5
637B
330
6375
100
AcDbEntity
  8
7_DIM
  6
Continuous
 62
     0
100
AcDbTrace
 10
141.3802494802931
 20
203.1852153702378
 30
0.0
 11
141.3802494802931
 21
202.2252153702378
 31
0.0
 12
138.5002494802932
 22
202.7052153702378
 32
0.0
 13
138.5002494802932
 23
202.7052153702378
 33
0.0
  0
SOLID
  5
637C
330
6375
100
AcDbEntity
  8
7_DIM
  6
Continuous
 62
     0
100
AcDbTrace
 10
373.3702494814932
 20
203.1852153702378
 30
0.0
 11
373.3702494814932
 21
202.2252153702378
 31
0.0
 12
376.2502494814932
 22
202.7052153702378
 32
0.0
 13
376.2502494814932
 23
202.7052153702378
 33
0.0
  0
MTEXT
  5
637D
330
6375
100
AcDbEntity
  8
7_DIM
  6
Continuous
 62
     0
100
AcDbMText
 10
257.3752494808932
 20
202.7052153702378
 30
0.0
 40
3.6
 41
0.0
 71
     5
 72
     1
  1
\A1;237.75 (ROLLER CUT LENGTH)
  7
ROMANS
 73
     1
 44
1.0
1001
ACAD
1000
MTEXTBEGIN
1070
    73
1070
     1
1070
    44
1040
1.0
1070
    74
1070
     0
1000
MTEXTEND
  0
POINT
  5
637E
330
6375
100
AcDbEntity
  8
DEFPOINTS
  6
Continuous
 62
     0
100
AcDbPoint
 10
138.5002494802932
 20
184.2312023370378
 30
0.0
  0
POINT
  5
637F
330
6375
100
AcDbEntity
  8
DEFPOINTS
  6
Continuous
 62
     0
100
AcDbPoint
 10
376.2502494814932
 20
184.2312023370378
 30
0.0
  0
POINT
  5
6380
330
6375
100
AcDbEntity
  8
DEFPOINTS
  6
Continuous
 62
     0
100
AcDbPoint
 10
376.2502494814932
 20
202.7052153702378
 30
0.0
  0
ENDBLK
  5
6381
330
6375
100
AcDbEntity
  8
0
100
AcDbBlockEnd
  0
BLOCK
  5
6383
330
6382
100
AcDbEntity
  8
0
100
AcDbBlockBegin
  2
*D49
 70
     1
 10
0.0
 20
0.0
 30
0.0
  3
*D49
  1

  0
LINE
  5
6384
330
6382
100
AcDbEntity
  8
7_DIM
  6
Continuous
 62
     0
370
    -2
100
AcDbLine
 10
380.2502494810933
 20
188.6062023378378
 30
0.0
 11
380.2502494810933
 21
213.2147348658378
 31
0.0
  0
LINE
  5
6385
330
6382
100
AcDbEntity
  8
7_DIM
  6
Continuous
 62
     0
370
    -2
100
AcDbLine
 10
134.5002494806932
 20
188.6062023378378
 30
0.0
 11
134.5002494806932
 21
213.2147348658378
 31
0.0
  0
LINE
  5
6386
330
6382
100
AcDbEntity
  8
7_DIM
  6
Continuous
 62
     0
370
    -2
100
AcDbLine
 10
377.3702494810933
 20
211.0547348658378
 30
0.0
 11
310.5009637666075
 21
211.0547348658378
 31
0.0
  0
LINE
  5
6387
330
6382
100
AcDbEntity
  8
7_DIM
  6
Continuous
 62
     0
370
    -2
100
AcDbLine
 10
137.3802494806932
 20
211.0547348658378
 30
0.0
 11
204.249535195179
 21
211.0547348658378
 31
0.0
  0
SOLID
  5
6388
330
6382
100
AcDbEntity
  8
7_DIM
  6
Continuous
 62
     0
100
AcDbTrace
 10
377.3702494810933
 20
211.5347348658378
 30
0.0
 11
377.3702494810933
 21
210.5747348658378
 31
0.0
 12
380.2502494810933
 22
211.0547348658378
 32
0.0
 13
380.2502494810933
 23
211.0547348658378
 33
0.0
  0
SOLID
  5
6389
330
6382
100
AcDbEntity
  8
7_DIM
  6
Continuous
 62
     0
100
AcDbTrace
 10
137.3802494806932
 20
211.5347348658378
 30
0.0
 11
137.3802494806932
 21
210.5747348658378
 31
0.0
 12
134.5002494806932
 22
211.0547348658378
 32
0.0
 13
134.5002494806932
 23
211.0547348658378
 33
0.0
  0
MTEXT
  5
638A
330
6382
100
AcDbEntity
  8
7_DIM
  6
Continuous
 62
     0
100
AcDbMText
 10
257.3752494808932
 20
211.0547348658378
 30
0.0
 40
3.6
 41
0.0
 71
     5
 72
     1
  1
\A1;245.75 (OVERALL LENGTH OF CASE)
  7
ROMANS
 73
     1
 44
1.0
1001
ACAD
1000
MTEXTBEGIN
1070
    73
1070
     1
1070
    44
1040
1.0
1070
    74
1070
     0
1000
MTEXTEND
  0
POINT
  5
638B
330
6382
100
AcDbEntity
  8
DEFPOINTS
  6
Continuous
 62
     0
100
AcDbPoint
 10
380.2502494810933
 20
186.4462023378378
 30
0.0
  0
POINT
  5
638C
330
6382
100
AcDbEntity
  8
DEFPOINTS
  6
Continuous
 62
     0
100
AcDbPoint
 10
134.5002494806932
 20
186.4462023378378
 30
0.0
  0
POINT
  5
638D
330
6382
100
AcDbEntity
  8
DEFPOINTS
  6
Continuous
 62
     0
100
AcDbPoint
 10
134.5002494806932
 20
211.0547348658378
 30
0.0
  0
ENDBLK
  5
638E
330
6382
100
AcDbEntity
  8
0
100
AcDbBlockEnd
  0
BLOCK
  5
6390
330
638F
100
AcDbEntity
  8
0
100
AcDbBlockBegin
  2
*D50
 70
     1
 10
0.0
 20
0.0
 30
0.0
  3
*D50
  1

  0
LINE
  5
6391
330
638F
100
AcDbEntity
  8
7_DIM
  6
Continuous
 62
     0
370
    -2
100
AcDbLine
 10
382.4102453122932
 20
175.1961967182378
 30
0.0
 11
411.5882914099127
 21
175.1961967182378
 31
0.0
  0
LINE
  5
6392
330
638F
100
AcDbEntity
  8
7_DIM
  6
Continuous
 62
     0
370
    -2
100
AcDbLine
 10
375.3473764143634
 20
6.699702335437847
 30
0.0
 11
411.5882914099126
 21
6.699702335437835
 31
0.0
  0
LINE
  5
6393
330
638F
100
AcDbEntity
  8
7_DIM
  6
Continuous
 62
     0
370
    -2
100
AcDbLine
 10
409.4282914099125
 20
172.3161967182378
 30
0.0
 11
409.4282914099125
 21
117.6277744023417
 31
0.0
  0
LINE
  5
6394
330
638F
100
AcDbEntity
  8
7_DIM
  6
Continuous
 62
     0
370
    -2
100
AcDbLine
 10
409.4282914099125
 20
9.579702335437838
 30
0.0
 11
409.4282914099125
 21
107.5477744023417
 31
0.0
  0
SOLID
  5
6395
330
638F
100
AcDbEntity
  8
7_DIM
  6
Continuous
 62
     0
100
AcDbTrace
 10
408.9482914099126
 20
172.3161967182378
 30
0.0
 11
409.9082914099127
 21
172.3161967182378
 31
0.0
 12
409.4282914099125
 22
175.1961967182378
 32
0.0
 13
409.4282914099125
 23
175.1961967182378
 33
0.0
  0
SOLID
  5
6396
330
638F
100
AcDbEntity
  8
7_DIM
  6
Continuous
 62
     0
100
AcDbTrace
 10
408.9482914099126
 20
9.579702335437838
 30
0.0
 11
409.9082914099126
 21
9.579702335437838
 31
0.0
 12
409.4282914099125
 22
6.699702335437837
 32
0.0
 13
409.4282914099125
 23
6.699702335437837
 33
0.0
  0
MTEXT
  5
6397
330
638F
100
AcDbEntity
  8
7_DIM
  6
Continuous
 62
     0
100
AcDbMText
 10
409.4282914099125
 20
112.5877744023418
 30
0.0
 40
3.6
 41
0.0
 71
     5
 72
     1
  1
\A1;168.50
  7
ROMANS
 73
     1
 44
1.0
1001
ACAD
1000
MTEXTBEGIN
1070
    73
1070
     1
1070
    44
1040
1.0
1070
    74
1070
     0
1000
MTEXTEND
  0
POINT
  5
6398
330
638F
100
AcDbEntity
  8
DEFPOINTS
  6
Continuous
 62
     0
100
AcDbPoint
 10
380.2502453122932
 20
175.1961967182378
 30
0.0
  0
POINT
  5
6399
330
638F
100
AcDbEntity
  8
DEFPOINTS
  6
Continuous
 62
     0
100
AcDbPoint
 10
373.1873764143634
 20
6.699702335437847
 30
0.0
  0
POINT
  5
639A
330
638F
100
AcDbEntity
  8
DEFPOINTS
  6
Continuous
 62
     0
100
AcDbPoint
 10
409.4282914099125
 20
6.699702335437837
 30
0.0
  0
ENDBLK
  5
639B
330
638F
100
AcDbEntity
  8
0
100
AcDbBlockEnd
  0
BLOCK
  5
639D
330
639C
100
AcDbEntity
  8
0
100
AcDbBlockBegin
  2
*D51
 70
     1
 10
0.0
 20
0.0
 30
0.0
  3
*D51
  1

  0
LINE
  5
639E
330
639C
100
AcDbEntity
  8
7_DIM
  6
Continuous
 62
     0
370
    -2
100
AcDbLine
 10
107.3846096751975
 20
175.1962023378378
 30
0.0
 11
119.8935926622756
 21
175.1962023378378
 31
0.0
  0
LINE
  5
639F
330
639C
100
AcDbEntity
  8
7_DIM
  6
Continuous
 62
     0
370
    -2
100
AcDbLine
 10
107.3846096751975
 20
186.4462023378378
 30
0.0
 11
119.8935926622756
 21
186.4462023378378
 31
0.0
  0
LINE
  5
63A0
330
639C
100
AcDbEntity
  8
7_DIM
  6
Continuous
 62
     0
370
    -2
100
AcDbLine
 10
117.7335926622756
 20
172.3162023378378
 30
0.0
 11
117.7335926622756
 21
169.4362023378378
 31
0.0
  0
LINE
  5
63A1
330
639C
100
AcDbEntity
  8
7_DIM
  6
Continuous
 62
     0
370
    -2
100
AcDbLine
 10
117.7335926622756
 20
189.3262023378378
 30
0.0
 11
117.7335926622756
 21
192.2062023378378
 31
0.0
  0
SOLID
  5
63A2
330
639C
100
AcDbEntity
  8
7_DIM
  6
Continuous
 62
     0
100
AcDbTrace
 10
117.2535926622756
 20
172.3162023378378
 30
0.0
 11
118.2135926622756
 21
172.3162023378378
 31
0.0
 12
117.7335926622756
 22
175.1962023378378
 32
0.0
 13
117.7335926622756
 23
175.1962023378378
 33
0.0
  0
SOLID
  5
63A3
330
639C
100
AcDbEntity
  8
7_DIM
  6
Continuous
 62
     0
100
AcDbTrace
 10
117.2535926622756
 20
189.3262023378378
 30
0.0
 11
118.2135926622756
 21
189.3262023378378
 31
0.0
 12
117.7335926622756
 22
186.4462023378378
 32
0.0
 13
117.7335926622756
 23
186.4462023378378
 33
0.0
  0
MTEXT
  5
63A4
330
639C
100
AcDbEntity
  8
7_DIM
  6
Continuous
 62
     0
100
AcDbMText
 10
117.7335926622756
 20
180.8212023378378
 30
0.0
 40
3.6
 41
0.0
 71
     5
 72
     1
  1
\A1;11.25
  7
ROMANS
 73
     1
 44
1.0
1001
ACAD
1000
MTEXTBEGIN
1070
    73
1070
     1
1070
    44
1040
1.0
1070
    74
1070
     0
1000
MTEXTEND
  0
POINT
  5
63A5
330
639C
100
AcDbEntity
  8
DEFPOINTS
  6
Continuous
 62
     0
100
AcDbPoint
 10
105.2246096751975
 20
175.1962023378378
 30
0.0
  0
POINT
  5
63A6
330
639C
100
AcDbEntity
  8
DEFPOINTS
  6
Continuous
 62
     0
100
AcDbPoint
 10
105.2246096751975
 20
186.4462023378378
 30
0.0
  0
POINT
  5
63A7
330
639C
100
AcDbEntity
  8
DEFPOINTS
  6
Continuous
 62
     0
100
AcDbPoint
 10
117.7335926622756
 20
186.4462023378378
 30
0.0
  0
ENDBLK
  5
63A8
330
639C
100
AcDbEntity
  8
0
100
AcDbBlockEnd
  0
BLOCK
  5
63AA
330
63A9
100
AcDbEntity
  8
0
100
AcDbBlockBegin
  2
*D52
 70
     1
 10
0.0
 20
0.0
 30
0.0
  3
*D52
  1

  0
LINE
  5
63AB
330
63A9
100
AcDbEntity
  8
7_DIM
  6
Continuous
 62
     0
370
    -2
100
AcDbLine
 10
95.72460967479752
 20
188.6062023378378
 30
0.0
 11
95.72460967479752
 21
200.401550090357
 31
0.0
  0
LINE
  5
63AC
330
63A9
100
AcDbEntity
  8
7_DIM
  6
Continuous
 62
     0
370
    -2
100
AcDbLine
 10
105.2246096751975
 20
188.6062023378378
 30
0.0
 11
105.2246096751975
 21
200.401550090357
 31
0.0
  0
LINE
  5
63AD
330
63A9
100
AcDbEntity
  8
7_DIM
  6
Continuous
 62
     0
370
    -2
100
AcDbLine
 10
92.8446096747975
 20
198.241550090357
 30
0.0
 11
89.96460967479752
 21
198.241550090357
 31
0.0
  0
LINE
  5
63AE
330
63A9
100
AcDbEntity
  8
7_DIM
  6
Continuous
 62
     0
370
    -2
100
AcDbLine
 10
108.1046096751975
 20
198.241550090357
 30
0.0
 11
110.9846096751975
 21
198.241550090357
 31
0.0
  0
SOLID
  5
63AF
330
63A9
100
AcDbEntity
  8
7_DIM
  6
Continuous
 62
     0
100
AcDbTrace
 10
92.8446096747975
 20
198.721550090357
 30
0.0
 11
92.8446096747975
 21
197.761550090357
 31
0.0
 12
95.72460967479752
 22
198.241550090357
 32
0.0
 13
95.72460967479752
 23
198.241550090357
 33
0.0
  0
SOLID
  5
63B0
330
63A9
100
AcDbEntity
  8
7_DIM
  6
Continuous
 62
     0
100
AcDbTrace
 10
108.1046096751975
 20
198.721550090357
 30
0.0
 11
108.1046096751975
 21
197.761550090357
 31
0.0
 12
105.2246096751975
 22
198.241550090357
 32
0.0
 13
105.2246096751975
 23
198.241550090357
 33
0.0
  0
MTEXT
  5
63B1
330
63A9
100
AcDbEntity
  8
7_DIM
  6
Continuous
 62
     0
100
AcDbMText
 10
119.7103239609118
 20
198.241550090357
 30
0.0
 40
3.6
 41
0.0
 71
     5
 72
     1
  1
\A1;9.50
  7
ROMANS
 73
     1
 44
1.0
1001
ACAD
1000
MTEXTBEGIN
1070
    73
1070
     1
1070
    44
1040
1.0
1070
    74
1070
     0
1000
MTEXTEND
  0
POINT
  5
63B2
330
63A9
100
AcDbEntity
  8
DEFPOINTS
  6
Continuous
 62
     0
100
AcDbPoint
 10
95.72460967479752
 20
186.4462023378378
 30
0.0
  0
POINT
  5
63B3
330
63A9
100
AcDbEntity
  8
DEFPOINTS
  6
Continuous
 62
     0
100
AcDbPoint
 10
105.2246096751975
 20
186.4462023378378
 30
0.0
  0
POINT
  5
63B4
330
63A9
100
AcDbEntity
  8
DEFPOINTS
  6
Continuous
 62
     0
100
AcDbPoint
 10
105.2246096751975
 20
198.241550090357
 30
0.0
  0
ENDBLK
  5
63B5
330
63A9
100
AcDbEntity
  8
0
100
AcDbBlockEnd
  0
BLOCK
  5
63B7
330
63B6
100
AcDbEntity
  8
0
100
AcDbBlockBegin
  2
*D53
 70
     1
 10
0.0
 20
0.0
 30
0.0
  3
*D53
  1

  0
LINE
  5
63B8
330
63B6
100
AcDbEntity
  8
7_DIM
  6
Continuous
 62
     0
370
    -2
100
AcDbLine
 10
151.6792481956247
 20
12.92470247472921
 30
0.0
 11
246.6552498656318
 21
84.15669708603779
 31
0.0
  0
LINE
  5
63B9
330
63B6
100
AcDbEntity
  8
7_DIM
  6
Continuous
 62
     0
370
    -2
100
AcDbLine
 10
363.0712535345617
 20
171.4686916973464
 30
0.0
 11
268.0952518645546
 21
100.2366970860378
 31
0.0
  0
SOLID
  5
63BA
330
63B6
100
AcDbEntity
  8
7_DIM
  6
Continuous
 62
     0
100
AcDbTrace
 10
151.3912482128094
 20
13.30870248761779
 30
0.0
 11
151.9672481784399
 21
12.54070246184064
 31
0.0
 12
149.3752481182932
 22
11.19670257783782
 32
0.0
 13
149.3752481182932
 23
11.19670257783782
 33
0.0
  0
SOLID
  5
63BB
330
63B6
100
AcDbEntity
  8
7_DIM
  6
Continuous
 62
     0
100
AcDbTrace
 10
362.7832535517464
 20
171.852691710235
 30
0.0
 11
363.3592535173769
 21
171.0846916844578
 31
0.0
 12
365.3752536118932
 22
173.1966915942378
 32
0.0
 13
365.3752536118932
 23
173.1966915942378
 33
0.0
  0
MTEXT
  5
63BC
330
63B6
100
AcDbEntity
  8
7_DIM
  6
Continuous
 62
     0
100
AcDbMText
 10
257.3752508650932
 20
92.19669708603779
 30
0.0
 40
3.6
 41
0.0
 71
     5
 72
     1
  1
\A1;270.00\PDIAG.
  7
ROMANS
 73
     1
 44
1.0
1001
ACAD
1000
MTEXTBEGIN
1070
    73
1070
     1
1070
    44
1040
1.0
1070
    74
1070
     0
1000
MTEXTEND
  0
POINT
  5
63BD
330
63B6
100
AcDbEntity
  8
DEFPOINTS
  6
Continuous
 62
     0
100
AcDbPoint
 10
149.3752481182932
 20
11.19670257783784
 30
0.0
  0
POINT
  5
63BE
330
63B6
100
AcDbEntity
  8
DEFPOINTS
  6
Continuous
 62
     0
100
AcDbPoint
 10
365.3752536118932
 20
173.1966915942378
 30
0.0
  0
POINT
  5
63BF
330
63B6
100
AcDbEntity
  8
DEFPOINTS
  6
Continuous
 62
     0
100
AcDbPoint
 10
365.3752536118932
 20
173.1966915942378
 30
0.0
  0
ENDBLK
  5
63C0
330
63B6
100
AcDbEntity
  8
0
100
AcDbBlockEnd
  0
BLOCK
  5
6DBA
330
6DAF
100
AcDbEntity
  8
0
100
AcDbBlockBegin
  2
*D55
 70
     1
 10
0.0
 20
0.0
 30
0.0
  3
*D55
  1

  0
LINE
  5
6E73
330
6DAF
100
AcDbEntity
  8
7_DIM
  6
Continuous
 62
     0
370
    -2
100
AcDbLine
 10
921.8147606011221
 20
347.4249225959245
 30
0.0
 11
921.8147606011221
 21
372.0334551239245
 31
0.0
  0
LINE
  5
6E74
330
6DAF
100
AcDbEntity
  8
7_DIM
  6
Continuous
 62
     0
370
    -2
100
AcDbLine
 10
676.064760600722
 20
347.4249225959245
 30
0.0
 11
676.064760600722
 21
372.0334551239245
 31
0.0
  0
LINE
  5
6E75
330
6DAF
100
AcDbEntity
  8
7_DIM
  6
Continuous
 62
     0
370
    -2
100
AcDbLine
 10
918.9347606011221
 20
369.8734551239244
 30
0.0
 11
852.0654748866363
 21
369.8734551239244
 31
0.0
  0
LINE
  5
6E76
330
6DAF
100
AcDbEntity
  8
7_DIM
  6
Continuous
 62
     0
370
    -2
100
AcDbLine
 10
678.944760600722
 20
369.8734551239244
 30
0.0
 11
745.8140463152077
 21
369.8734551239244
 31
0.0
  0
SOLID
  5
6E77
330
6DAF
100
AcDbEntity
  8
7_DIM
  6
Continuous
 62
     0
100
AcDbTrace
 10
918.9347606011221
 20
370.3534551239244
 30
0.0
 11
918.9347606011221
 21
369.3934551239244
 31
0.0
 12
921.8147606011221
 22
369.8734551239244
 32
0.0
 13
921.8147606011221
 23
369.8734551239244
 33
0.0
  0
SOLID
  5
6E78
330
6DAF
100
AcDbEntity
  8
7_DIM
  6
Continuous
 62
     0
100
AcDbTrace
 10
678.944760600722
 20
370.3534551239244
 30
0.0
 11
678.944760600722
 21
369.3934551239244
 31
0.0
 12
676.064760600722
 22
369.8734551239244
 32
0.0
 13
676.064760600722
 23
369.8734551239244
 33
0.0
  0
MTEXT
  5
6E79
330
6DAF
100
AcDbEntity
  8
7_DIM
  6
Continuous
 62
     0
100
AcDbMText
 10
798.9397606009219
 20
369.8734551239244
 30
0.0
 40
3.6
 41
0.0
 71
     5
 72
     1
  1
\A1;245.75 (OVERALL LENGTH OF CASE)
  7
ROMANS
 73
     1
 44
1.0
1001
ACAD
1000
MTEXTBEGIN
1070
    73
1070
     1
1070
    44
1040
1.0
1070
    74
1070
     0
1000
MTEXTEND
  0
POINT
  5
6E7A
330
6DAF
100
AcDbEntity
  8
DEFPOINTS
  6
Continuous
 62
     0
100
AcDbPoint
 10
921.8147606011221
 20
345.2649225959244
 30
0.0
  0
POINT
  5
6E7B
330
6DAF
100
AcDbEntity
  8
DEFPOINTS
  6
Continuous
 62
     0
100
AcDbPoint
 10
676.064760600722
 20
345.2649225959244
 30
0.0
  0
POINT
  5
6E7C
330
6DAF
100
AcDbEntity
  8
DEFPOINTS
  6
Continuous
 62
     0
100
AcDbPoint
 10
676.064760600722
 20
369.8734551239244
 30
0.0
  0
ENDBLK
  5
6DBB
330
6DAF
100
AcDbEntity
  8
0
100
AcDbBlockEnd
  0
BLOCK
  5
6DC7
330
6DBC
100
AcDbEntity
  8
0
100
AcDbBlockBegin
  2
*D56
 70
     1
 10
0.0
 20
0.0
 30
0.0
  3
*D56
  1

  0
LINE
  5
6E7D
330
6DBC
100
AcDbEntity
  8
7_DIM
  6
Continuous
 62
     0
370
    -2
100
AcDbLine
 10
701.0647514431219
 20
350.2299225935245
 30
0.0
 11
701.0647514431219
 21
355.3344161327245
 31
0.0
  0
LINE
  5
6E7E
330
6DBC
100
AcDbEntity
  8
7_DIM
  6
Continuous
 62
     0
370
    -2
100
AcDbLine
 10
896.814756435122
 20
350.2299225935245
 30
0.0
 11
896.814756435122
 21
355.3344161327245
 31
0.0
  0
LINE
  5
6E7F
330
6DBC
100
AcDbEntity
  8
7_DIM
  6
Continuous
 62
     0
370
    -2
100
AcDbLine
 10
703.9447514431219
 20
353.1744161327245
 30
0.0
 11
765.8711825105505
 21
353.1744161327245
 31
0.0
  0
LINE
  5
6E80
330
6DBC
100
AcDbEntity
  8
7_DIM
  6
Continuous
 62
     0
370
    -2
100
AcDbLine
 10
893.9347564351219
 20
353.1744161327245
 30
0.0
 11
832.0083253676934
 21
353.1744161327245
 31
0.0
  0
SOLID
  5
6E81
330
6DBC
100
AcDbEntity
  8
7_DIM
  6
Continuous
 62
     0
100
AcDbTrace
 10
703.9447514431219
 20
353.6544161327245
 30
0.0
 11
703.9447514431219
 21
352.6944161327244
 31
0.0
 12
701.0647514431219
 22
353.1744161327245
 32
0.0
 13
701.0647514431219
 23
353.1744161327245
 33
0.0
  0
SOLID
  5
6E82
330
6DBC
100
AcDbEntity
  8
7_DIM
  6
Continuous
 62
     0
100
AcDbTrace
 10
893.9347564351219
 20
353.6544161327245
 30
0.0
 11
893.9347564351219
 21
352.6944161327244
 31
0.0
 12
896.814756435122
 22
353.1744161327245
 32
0.0
 13
896.814756435122
 23
353.1744161327245
 33
0.0
  0
MTEXT
  5
6E83
330
6DBC
100
AcDbEntity
  8
7_DIM
  6
Continuous
 62
     0
100
AcDbMText
 10
798.9397539391219
 20
353.1744161327245
 30
0.0
 40
3.6
 41
0.0
 71
     5
 72
     1
  1
\A1;ADJUSTABLE HANGERS
  7
ROMANS
 73
     1
 44
1.0
1001
ACAD
1000
MTEXTBEGIN
1070
    73
1070
     1
1070
    44
1040
1.0
1070
    74
1070
     0
1000
MTEXTEND
  0
POINT
  5
6E84
330
6DBC
100
AcDbEntity
  8
DEFPOINTS
  6
Continuous
 62
     0
100
AcDbPoint
 10
701.0647514431219
 20
348.0699225935245
 30
0.0
  0
POINT
  5
6E85
330
6DBC
100
AcDbEntity
  8
DEFPOINTS
  6
Continuous
 62
     0
100
AcDbPoint
 10
896.814756435122
 20
348.0699225935245
 30
0.0
  0
POINT
  5
6E86
330
6DBC
100
AcDbEntity
  8
DEFPOINTS
  6
Continuous
 62
     0
100
AcDbPoint
 10
896.814756435122
 20
353.1744161327245
 30
0.0
  0
ENDBLK
  5
6DC8
330
6DBC
100
AcDbEntity
  8
0
100
AcDbBlockEnd
  0
BLOCK
  5
6DD4
330
6DC9
100
AcDbEntity
  8
0
100
AcDbBlockBegin
  2
*D57
 70
     1
 10
0.0
 20
0.0
 30
0.0
  3
*D57
  1

  0
LINE
  5
6E87
330
6DC9
100
AcDbEntity
  8
7_DIM
  6
Continuous
 62
     0
370
    -2
100
AcDbLine
 10
680.0647606003219
 20
345.2099225951244
 30
0.0
 11
680.0647606003219
 21
363.6839356283244
 31
0.0
  0
LINE
  5
6E88
330
6DC9
100
AcDbEntity
  8
7_DIM
  6
Continuous
 62
     0
370
    -2
100
AcDbLine
 10
917.8147606015221
 20
345.2099225951244
 30
0.0
 11
917.8147606015221
 21
363.6839356283244
 31
0.0
  0
LINE
  5
6E89
330
6DC9
100
AcDbEntity
  8
7_DIM
  6
Continuous
 62
     0
370
    -2
100
AcDbLine
 10
682.944760600322
 20
361.5239356283244
 30
0.0
 11
753.9569034580648
 21
361.5239356283244
 31
0.0
  0
LINE
  5
6E8A
330
6DC9
100
AcDbEntity
  8
7_DIM
  6
Continuous
 62
     0
370
    -2
100
AcDbLine
 10
914.934760601522
 20
361.5239356283244
 30
0.0
 11
843.9226177437792
 21
361.5239356283244
 31
0.0
  0
SOLID
  5
6E8B
330
6DC9
100
AcDbEntity
  8
7_DIM
  6
Continuous
 62
     0
100
AcDbTrace
 10
682.944760600322
 20
362.0039356283244
 30
0.0
 11
682.944760600322
 21
361.0439356283244
 31
0.0
 12
680.0647606003219
 22
361.5239356283244
 32
0.0
 13
680.0647606003219
 23
361.5239356283244
 33
0.0
  0
SOLID
  5
6E8C
330
6DC9
100
AcDbEntity
  8
7_DIM
  6
Continuous
 62
     0
100
AcDbTrace
 10
914.934760601522
 20
362.0039356283244
 30
0.0
 11
914.934760601522
 21
361.0439356283244
 31
0.0
 12
917.8147606015221
 22
361.5239356283244
 32
0.0
 13
917.8147606015221
 23
361.5239356283244
 33
0.0
  0
MTEXT
  5
6E8D
330
6DC9
100
AcDbEntity
  8
7_DIM
  6
Continuous
 62
     0
100
AcDbMText
 10
798.9397606009219
 20
361.5239356283244
 30
0.0
 40
3.6
 41
0.0
 71
     5
 72
     1
  1
\A1;237.75 (ROLLER CUT LENGTH)
  7
ROMANS
 73
     1
 44
1.0
1001
ACAD
1000
MTEXTBEGIN
1070
    73
1070
     1
1070
    44
1040
1.0
1070
    74
1070
     0
1000
MTEXTEND
  0
POINT
  5
6E8E
330
6DC9
100
AcDbEntity
  8
DEFPOINTS
  6
Continuous
 62
     0
100
AcDbPoint
 10
680.0647606003219
 20
343.0499225951245
 30
0.0
  0
POINT
  5
6E8F
330
6DC9
100
AcDbEntity
  8
DEFPOINTS
  6
Continuous
 62
     0
100
AcDbPoint
 10
917.8147606015221
 20
343.0499225951245
 30
0.0
  0
POINT
  5
6E90
330
6DC9
100
AcDbEntity
  8
DEFPOINTS
  6
Continuous
 62
     0
100
AcDbPoint
 10
917.8147606015221
 20
361.5239356283244
 30
0.0
  0
ENDBLK
  5
6DD5
330
6DC9
100
AcDbEntity
  8
0
100
AcDbBlockEnd
  0
BLOCK
  5
6DE2
330
6DD6
100
AcDbEntity
  8
0
100
AcDbBlockBegin
  2
*D58
 70
     1
 10
0.0
 20
0.0
 30
0.0
  3
*D58
  1

  0
LINE
  5
6E91
330
6DD6
100
AcDbEntity
  8
7_DIM
  6
Continuous
 62
     0
370
    -2
100
AcDbLine
 10
909.099764731922
 20
332.0154118523244
 30
0.0
 11
940.6007075631881
 21
332.0154118523244
 31
0.0
  0
LINE
  5
6E92
330
6DD6
100
AcDbEntity
  8
7_DIM
  6
Continuous
 62
     0
370
    -2
100
AcDbLine
 10
932.4574962427218
 20
334.0149225959244
 30
0.0
 11
940.6007075631881
 21
334.0149225959244
 31
0.0
  0
LINE
  5
6E93
330
6DD6
100
AcDbEntity
  8
7_DIM
  6
Continuous
 62
     0
370
    -2
100
AcDbLine
 10
938.4407075631882
 20
329.1354118523244
 30
0.0
 11
938.4407075631882
 21
326.2554118523244
 31
0.0
  0
LINE
  5
6E94
330
6DD6
100
AcDbEntity
  8
7_DIM
  6
Continuous
 62
     0
370
    -2
100
AcDbLine
 10
938.4407075631882
 20
336.8949225959244
 30
0.0
 11
938.4407075631882
 21
339.7749225959244
 31
0.0
  0
LINE
  5
6E95
330
6DD6
100
AcDbEntity
  8
7_DIM
  6
Continuous
 62
     0
370
    -2
100
AcDbLine
 10
938.4407075631882
 20
339.7749225959244
 30
0.0
 11
941.3207075631882
 21
339.7749225959244
 31
0.0
  0
SOLID
  5
6E96
330
6DD6
100
AcDbEntity
  8
7_DIM
  6
Continuous
 62
     0
100
AcDbTrace
 10
937.9607075631881
 20
329.1354118523244
 30
0.0
 11
938.9207075631881
 21
329.1354118523244
 31
0.0
 12
938.4407075631882
 22
332.0154118523244
 32
0.0
 13
938.4407075631882
 23
332.0154118523244
 33
0.0
  0
SOLID
  5
6E97
330
6DD6
100
AcDbEntity
  8
7_DIM
  6
Continuous
 62
     0
100
AcDbTrace
 10
937.9607075631881
 20
336.8949225959244
 30
0.0
 11
938.9207075631881
 21
336.8949225959244
 31
0.0
 12
938.4407075631882
 22
334.0149225959244
 32
0.0
 13
938.4407075631882
 23
334.0149225959244
 33
0.0
  0
MTEXT
  5
6E98
330
6DD6
100
AcDbEntity
  8
7_DIM
  6
Continuous
 62
     0
100
AcDbMText
 10
950.0464218489023
 20
339.7749225959246
 30
0.0
 40
3.6
 41
0.0
 71
     5
 72
     1
  1
\A1;2.00\PBLK.
  7
ROMANS
 73
     1
 44
1.0
1001
ACAD
1000
MTEXTBEGIN
1070
    73
1070
     1
1070
    44
1040
1.0
1070
    74
1070
     0
1000
MTEXTEND
  0
POINT
  5
6E99
330
6DD6
100
AcDbEntity
  8
DEFPOINTS
  6
Continuous
 62
     0
100
AcDbPoint
 10
906.9397647319219
 20
332.0154118523244
 30
0.0
  0
POINT
  5
6E9A
330
6DD6
100
AcDbEntity
  8
DEFPOINTS
  6
Continuous
 62
     0
100
AcDbPoint
 10
930.2974962427219
 20
334.0149225959244
 30
0.0
  0
POINT
  5
6E9B
330
6DD6
100
AcDbEntity
  8
DEFPOINTS
  6
Continuous
 62
     0
100
AcDbPoint
 10
938.4407075631882
 20
334.0149225959244
 30
0.0
  0
ENDBLK
  5
6DE3
330
6DD6
100
AcDbEntity
  8
0
100
AcDbBlockEnd
  0
BLOCK
  5
6DEF
330
6DE4
100
AcDbEntity
  8
0
100
AcDbBlockBegin
  2
*D59
 70
     1
 10
0.0
 20
0.0
 30
0.0
  3
*D59
  1

  0
LINE
  5
6E9C
330
6DE4
100
AcDbEntity
  8
7_DIM
  6
Continuous
 62
     0
370
    -2
100
AcDbLine
 10
909.099764731922
 20
170.0154228359244
 30
0.0
 11
940.600707563188
 21
170.0154228359244
 31
0.0
  0
LINE
  5
6E9D
330
6DE4
100
AcDbEntity
  8
7_DIM
  6
Continuous
 62
     0
370
    -2
100
AcDbLine
 10
909.099764731922
 20
332.0154118523244
 30
0.0
 11
940.6007075631881
 21
332.0154118523244
 31
0.0
  0
LINE
  5
6E9E
330
6DE4
100
AcDbEntity
  8
7_DIM
  6
Continuous
 62
     0
370
    -2
100
AcDbLine
 10
938.440707563188
 20
172.8954228359244
 30
0.0
 11
938.440707563188
 21
242.9754173441245
 31
0.0
  0
LINE
  5
6E9F
330
6DE4
100
AcDbEntity
  8
7_DIM
  6
Continuous
 62
     0
370
    -2
100
AcDbLine
 10
938.4407075631882
 20
329.1354118523244
 30
0.0
 11
938.4407075631882
 21
259.0554173441244
 31
0.0
  0
SOLID
  5
6EA0
330
6DE4
100
AcDbEntity
  8
7_DIM
  6
Continuous
 62
     0
100
AcDbTrace
 10
937.9607075631881
 20
172.8954228359244
 30
0.0
 11
938.9207075631881
 21
172.8954228359244
 31
0.0
 12
938.440707563188
 22
170.0154228359244
 32
0.0
 13
938.440707563188
 23
170.0154228359244
 33
0.0
  0
SOLID
  5
6EA1
330
6DE4
100
AcDbEntity
  8
7_DIM
  6
Continuous
 62
     0
100
AcDbTrace
 10
937.9607075631881
 20
329.1354118523244
 30
0.0
 11
938.9207075631881
 21
329.1354118523244
 31
0.0
 12
938.4407075631882
 22
332.0154118523244
 32
0.0
 13
938.4407075631882
 23
332.0154118523244
 33
0.0
  0
MTEXT
  5
6EA2
330
6DE4
100
AcDbEntity
  8
7_DIM
  6
Continuous
 62
     0
100
AcDbMText
 10
938.440707563188
 20
251.0154173441246
 30
0.0
 40
3.6
 41
0.0
 71
     5
 72
     1
  1
\A1;162.00\PVAH
  7
ROMANS
 73
     1
 44
1.0
1001
ACAD
1000
MTEXTBEGIN
1070
    73
1070
     1
1070
    44
1040
1.0
1070
    74
1070
     0
1000
MTEXTEND
  0
POINT
  5
6EA3
330
6DE4
100
AcDbEntity
  8
DEFPOINTS
  6
Continuous
 62
     0
100
AcDbPoint
 10
906.9397647319219
 20
170.0154228359244
 30
0.0
  0
POINT
  5
6EA4
330
6DE4
100
AcDbEntity
  8
DEFPOINTS
  6
Continuous
 62
     0
100
AcDbPoint
 10
906.9397647319219
 20
332.0154118523244
 30
0.0
  0
POINT
  5
6EA5
330
6DE4
100
AcDbEntity
  8
DEFPOINTS
  6
Continuous
 62
     0
100
AcDbPoint
 10
938.4407075631882
 20
332.0154118523244
 30
0.0
  0
ENDBLK
  5
6DF0
330
6DE4
100
AcDbEntity
  8
0
100
AcDbBlockEnd
  0
BLOCK
  5
6DFD
330
6DF1
100
AcDbEntity
  8
0
100
AcDbBlockBegin
  2
*D60
 70
     1
 10
0.0
 20
0.0
 30
0.0
  3
*D60
  1

  0
LINE
  5
6EA6
330
6DF1
100
AcDbEntity
  8
7_DIM
  6
Continuous
 62
     0
370
    -2
100
AcDbLine
 10
916.5364309969273
 20
168.0184225955244
 30
0.0
 11
940.6007075631883
 21
168.0184225955244
 31
0.0
  0
LINE
  5
6EA7
330
6DF1
100
AcDbEntity
  8
7_DIM
  6
Continuous
 62
     0
370
    -2
100
AcDbLine
 10
909.099764731922
 20
170.0154228359244
 30
0.0
 11
940.6007075631883
 21
170.0154228359244
 31
0.0
  0
LINE
  5
6EA8
330
6DF1
100
AcDbEntity
  8
7_DIM
  6
Continuous
 62
     0
370
    -2
100
AcDbLine
 10
938.4407075631882
 20
172.8954228359244
 30
0.0
 11
938.4407075631882
 21
175.7754228359244
 31
0.0
  0
LINE
  5
6EA9
330
6DF1
100
AcDbEntity
  8
7_DIM
  6
Continuous
 62
     0
370
    -2
100
AcDbLine
 10
938.4407075631882
 20
165.1384225955244
 30
0.0
 11
938.4407075631882
 21
155.3475680580406
 31
0.0
  0
LINE
  5
6EAA
330
6DF1
100
AcDbEntity
  8
7_DIM
  6
Continuous
 62
     0
370
    -2
100
AcDbLine
 10
938.4407075631882
 20
155.3475680580406
 30
0.0
 11
935.5607075631883
 21
155.3475680580406
 31
0.0
  0
SOLID
  5
6EAB
330
6DF1
100
AcDbEntity
  8
7_DIM
  6
Continuous
 62
     0
100
AcDbTrace
 10
937.9607075631883
 20
172.8954228359244
 30
0.0
 11
938.9207075631883
 21
172.8954228359244
 31
0.0
 12
938.4407075631882
 22
170.0154228359244
 32
0.0
 13
938.4407075631882
 23
170.0154228359244
 33
0.0
  0
SOLID
  5
6EAC
330
6DF1
100
AcDbEntity
  8
7_DIM
  6
Continuous
 62
     0
100
AcDbTrace
 10
937.9607075631883
 20
165.1384225955244
 30
0.0
 11
938.9207075631883
 21
165.1384225955244
 31
0.0
 12
938.4407075631882
 22
168.0184225955244
 32
0.0
 13
938.4407075631882
 23
168.0184225955244
 33
0.0
  0
MTEXT
  5
6EAD
330
6DF1
100
AcDbEntity
  8
7_DIM
  6
Continuous
 62
     0
100
AcDbMText
 10
926.8349932774739
 20
155.3475680580408
 30
0.0
 40
3.6
 41
0.0
 71
     5
 72
     1
  1
\A1;2.00\PBLK.
  7
ROMANS
 73
     1
 44
1.0
1001
ACAD
1000
MTEXTBEGIN
1070
    73
1070
     1
1070
    44
1040
1.0
1070
    74
1070
     0
1000
MTEXTEND
  0
POINT
  5
6EAE
330
6DF1
100
AcDbEntity
  8
DEFPOINTS
  6
Continuous
 62
     0
100
AcDbPoint
 10
914.3764309969274
 20
168.0184225955244
 30
0.0
  0
POINT
  5
6EAF
330
6DF1
100
AcDbEntity
  8
DEFPOINTS
  6
Continuous
 62
     0
100
AcDbPoint
 10
906.9397647319219
 20
170.0154228359244
 30
0.0
  0
POINT
  5
6EB0
330
6DF1
100
AcDbEntity
  8
DEFPOINTS
  6
Continuous
 62
     0
100
AcDbPoint
 10
938.4407075631882
 20
170.0154228359244
 30
0.0
  0
ENDBLK
  5
6DFE
330
6DF1
100
AcDbEntity
  8
0
100
AcDbBlockEnd
  0
BLOCK
  5
6E0B
330
6DFF
100
AcDbEntity
  8
0
100
AcDbBlockBegin
  2
*D61
 70
     1
 10
0.0
 20
0.0
 30
0.0
  3
*D61
  1

  0
LINE
  5
6EB1
330
6DFF
100
AcDbEntity
  8
7_DIM
  6
Continuous
 62
     0
370
    -2
100
AcDbLine
 10
916.5364309969273
 20
168.0184225955244
 30
0.0
 11
948.9332871433335
 21
168.0184225955244
 31
0.0
  0
LINE
  5
6EB2
330
6DFF
100
AcDbEntity
  8
7_DIM
  6
Continuous
 62
     0
370
    -2
100
AcDbLine
 10
916.9118875343921
 20
165.5184225935244
 30
0.0
 11
948.9332871433335
 21
165.5184225935244
 31
0.0
  0
LINE
  5
6EB3
330
6DFF
100
AcDbEntity
  8
7_DIM
  6
Continuous
 62
     0
370
    -2
100
AcDbLine
 10
946.7732871433335
 20
170.8984225955244
 30
0.0
 11
946.7732871433335
 21
173.7784225955244
 31
0.0
  0
LINE
  5
6EB4
330
6DFF
100
AcDbEntity
  8
7_DIM
  6
Continuous
 62
     0
370
    -2
100
AcDbLine
 10
946.7732871433335
 20
162.6384225935245
 30
0.0
 11
946.7732871433335
 21
141.232292961279
 31
0.0
  0
LINE
  5
6EB5
330
6DFF
100
AcDbEntity
  8
7_DIM
  6
Continuous
 62
     0
370
    -2
100
AcDbLine
 10
946.7732871433335
 20
141.232292961279
 30
0.0
 11
943.8932871433335
 21
141.232292961279
 31
0.0
  0
SOLID
  5
6EB6
330
6DFF
100
AcDbEntity
  8
7_DIM
  6
Continuous
 62
     0
100
AcDbTrace
 10
946.2932871433336
 20
170.8984225955244
 30
0.0
 11
947.2532871433337
 21
170.8984225955244
 31
0.0
 12
946.7732871433335
 22
168.0184225955244
 32
0.0
 13
946.7732871433335
 23
168.0184225955244
 33
0.0
  0
SOLID
  5
6EB7
330
6DFF
100
AcDbEntity
  8
7_DIM
  6
Continuous
 62
     0
100
AcDbTrace
 10
946.2932871433336
 20
162.6384225935245
 30
0.0
 11
947.2532871433337
 21
162.6384225935245
 31
0.0
 12
946.7732871433335
 22
165.5184225935244
 32
0.0
 13
946.7732871433335
 23
165.5184225935244
 33
0.0
  0
MTEXT
  5
6EB8
330
6DFF
100
AcDbEntity
  8
7_DIM
  6
Continuous
 62
     0
100
AcDbMText
 10
934.9104300004764
 20
141.2322929612792
 30
0.0
 40
3.6
 41
0.0
 71
     5
 72
     1
  1
\A1;2.50\PSLAT
  7
ROMANS
 73
     1
 44
1.0
1001
ACAD
1000
MTEXTBEGIN
1070
    73
1070
     1
1070
    44
1040
1.0
1070
    74
1070
     0
1000
MTEXTEND
  0
POINT
  5
6EB9
330
6DFF
100
AcDbEntity
  8
DEFPOINTS
  6
Continuous
 62
     0
100
AcDbPoint
 10
914.3764309969274
 20
168.0184225955244
 30
0.0
  0
POINT
  5
6EBA
330
6DFF
100
AcDbEntity
  8
DEFPOINTS
  6
Continuous
 62
     0
100
AcDbPoint
 10
914.7518875343921
 20
165.5184225935244
 30
0.0
  0
POINT
  5
6EBB
330
6DFF
100
AcDbEntity
  8
DEFPOINTS
  6
Continuous
 62
     0
100
AcDbPoint
 10
946.7732871433335
 20
165.5184225935244
 30
0.0
  0
ENDBLK
  5
6E0C
330
6DFF
100
AcDbEntity
  8
0
100
AcDbBlockEnd
  0
BLOCK
  5
6E18
330
6E0D
100
AcDbEntity
  8
0
100
AcDbBlockBegin
  2
*D62
 70
     1
 10
0.0
 20
0.0
 30
0.0
  3
*D62
  1

  0
LINE
  5
6EBC
330
6E0D
100
AcDbEntity
  8
7_DIM
  6
Continuous
 62
     0
370
    -2
100
AcDbLine
 10
923.9747564323218
 20
334.0149169763245
 30
0.0
 11
953.1528025299413
 21
334.0149169763245
 31
0.0
  0
LINE
  5
6EBD
330
6E0D
100
AcDbEntity
  8
7_DIM
  6
Continuous
 62
     0
370
    -2
100
AcDbLine
 10
916.9118875343921
 20
165.5184225935244
 30
0.0
 11
953.1528025299412
 21
165.5184225935244
 31
0.0
  0
LINE
  5
6EBE
330
6E0D
100
AcDbEntity
  8
7_DIM
  6
Continuous
 62
     0
370
    -2
100
AcDbLine
 10
950.9928025299414
 20
331.1349169763245
 30
0.0
 11
950.9928025299414
 21
276.4464946604282
 31
0.0
  0
LINE
  5
6EBF
330
6E0D
100
AcDbEntity
  8
7_DIM
  6
Continuous
 62
     0
370
    -2
100
AcDbLine
 10
950.9928025299412
 20
168.3984225935244
 30
0.0
 11
950.9928025299414
 21
266.3664946604282
 31
0.0
  0
SOLID
  5
6EC0
330
6E0D
100
AcDbEntity
  8
7_DIM
  6
Continuous
 62
     0
100
AcDbTrace
 10
950.5128025299413
 20
331.1349169763245
 30
0.0
 11
951.4728025299413
 21
331.1349169763245
 31
0.0
 12
950.9928025299414
 22
334.0149169763245
 32
0.0
 13
950.9928025299414
 23
334.0149169763245
 33
0.0
  0
SOLID
  5
6EC1
330
6E0D
100
AcDbEntity
  8
7_DIM
  6
Continuous
 62
     0
100
AcDbTrace
 10
950.5128025299413
 20
168.3984225935244
 30
0.0
 11
951.4728025299413
 21
168.3984225935244
 31
0.0
 12
950.9928025299412
 22
165.5184225935244
 32
0.0
 13
950.9928025299412
 23
165.5184225935244
 33
0.0
  0
MTEXT
  5
6EC2
330
6E0D
100
AcDbEntity
  8
7_DIM
  6
Continuous
 62
     0
100
AcDbMText
 10
950.9928025299412
 20
271.4064946604284
 30
0.0
 40
3.6
 41
0.0
 71
     5
 72
     1
  1
\A1;168.50
  7
ROMANS
 73
     1
 44
1.0
1001
ACAD
1000
MTEXTBEGIN
1070
    73
1070
     1
1070
    44
1040
1.0
1070
    74
1070
     0
1000
MTEXTEND
  0
POINT
  5
6EC3
330
6E0D
100
AcDbEntity
  8
DEFPOINTS
  6
Continuous
 62
     0
100
AcDbPoint
 10
921.8147564323219
 20
334.0149169763245
 30
0.0
  0
POINT
  5
6EC4
330
6E0D
100
AcDbEntity
  8
DEFPOINTS
  6
Continuous
 62
     0
100
AcDbPoint
 10
914.7518875343921
 20
165.5184225935244
 30
0.0
  0
POINT
  5
6EC5
330
6E0D
100
AcDbEntity
  8
DEFPOINTS
  6
Continuous
 62
     0
100
AcDbPoint
 10
950.9928025299412
 20
165.5184225935244
 30
0.0
  0
ENDBLK
  5
6E19
330
6E0D
100
AcDbEntity
  8
0
100
AcDbBlockEnd
  0
BLOCK
  5
6E25
330
6E1A
100
AcDbEntity
  8
0
100
AcDbBlockBegin
  2
*D63
 70
     1
 10
0.0
 20
0.0
 30
0.0
  3
*D63
  1

  0
LINE
  5
6EC6
330
6E1A
100
AcDbEntity
  8
7_DIM
  6
Continuous
 62
     0
370
    -2
100
AcDbLine
 10
906.9397647319219
 20
167.8554228359244
 30
0.0
 11
906.9397647319219
 21
157.9015980443244
 31
0.0
  0
LINE
  5
6EC7
330
6E1A
100
AcDbEntity
  8
7_DIM
  6
Continuous
 62
     0
370
    -2
100
AcDbLine
 10
690.939759238322
 20
167.8554228359244
 30
0.0
 11
690.939759238322
 21
157.9015980443244
 31
0.0
  0
LINE
  5
6EC8
330
6E1A
100
AcDbEntity
  8
7_DIM
  6
Continuous
 62
     0
370
    -2
100
AcDbLine
 10
904.059764731922
 20
160.0615980443244
 30
0.0
 11
818.1226191279792
 21
160.0615980443244
 31
0.0
  0
LINE
  5
6EC9
330
6E1A
100
AcDbEntity
  8
7_DIM
  6
Continuous
 62
     0
370
    -2
100
AcDbLine
 10
693.819759238322
 20
160.0615980443244
 30
0.0
 11
779.7569048422648
 21
160.0615980443244
 31
0.0
  0
SOLID
  5
6ECA
330
6E1A
100
AcDbEntity
  8
7_DIM
  6
Continuous
 62
     0
100
AcDbTrace
 10
904.059764731922
 20
160.5415980443244
 30
0.0
 11
904.059764731922
 21
159.5815980443244
 31
0.0
 12
906.9397647319219
 22
160.0615980443244
 32
0.0
 13
906.9397647319219
 23
160.0615980443244
 33
0.0
  0
SOLID
  5
6ECB
330
6E1A
100
AcDbEntity
  8
7_DIM
  6
Continuous
 62
     0
100
AcDbTrace
 10
693.819759238322
 20
160.5415980443244
 30
0.0
 11
693.819759238322
 21
159.5815980443244
 31
0.0
 12
690.939759238322
 22
160.0615980443244
 32
0.0
 13
690.939759238322
 23
160.0615980443244
 33
0.0
  0
MTEXT
  5
6ECC
330
6E1A
100
AcDbEntity
  8
7_DIM
  6
Continuous
 62
     0
100
AcDbMText
 10
798.939761985122
 20
160.0615980443244
 30
0.0
 40
3.6
 41
0.0
 71
     5
 72
     1
  1
\A1;216.00 VAW
  7
ROMANS
 73
     1
 44
1.0
1001
ACAD
1000
MTEXTBEGIN
1070
    73
1070
     1
1070
    44
1040
1.0
1070
    74
1070
     0
1000
MTEXTEND
  0
POINT
  5
6ECD
330
6E1A
100
AcDbEntity
  8
DEFPOINTS
  6
Continuous
 62
     0
100
AcDbPoint
 10
906.9397647319219
 20
170.0154228359244
 30
0.0
  0
POINT
  5
6ECE
330
6E1A
100
AcDbEntity
  8
DEFPOINTS
  6
Continuous
 62
     0
100
AcDbPoint
 10
690.939759238322
 20
170.0154228359244
 30
0.0
  0
POINT
  5
6ECF
330
6E1A
100
AcDbEntity
  8
DEFPOINTS
  6
Continuous
 62
     0
100
AcDbPoint
 10
690.939759238322
 20
160.0615980443244
 30
0.0
  0
ENDBLK
  5
6E26
330
6E1A
100
AcDbEntity
  8
0
100
AcDbBlockEnd
  0
BLOCK
  5
6E32
330
6E27
100
AcDbEntity
  8
0
100
AcDbBlockBegin
  2
*D64
 70
     1
 10
0.0
 20
0.0
 30
0.0
  3
*D64
  1

  0
LINE
  5
6ED0
330
6E27
100
AcDbEntity
  8
7_DIM
  6
Continuous
 62
     0
370
    -2
100
AcDbLine
 10
690.939759238322
 20
167.8554228359244
 30
0.0
 11
690.939759238322
 21
157.9015980443244
 31
0.0
  0
LINE
  5
6ED1
330
6E27
100
AcDbEntity
  8
7_DIM
  6
Continuous
 62
     0
370
    -2
100
AcDbLine
 10
682.190208394322
 20
163.6084225955244
 30
0.0
 11
682.190208394322
 21
157.9015980443244
 31
0.0
  0
LINE
  5
6ED2
330
6E27
100
AcDbEntity
  8
7_DIM
  6
Continuous
 62
     0
370
    -2
100
AcDbLine
 10
693.819759238322
 20
160.0615980443244
 30
0.0
 11
696.699759238322
 21
160.0615980443244
 31
0.0
  0
LINE
  5
6ED3
330
6E27
100
AcDbEntity
  8
7_DIM
  6
Continuous
 62
     0
370
    -2
100
AcDbLine
 10
679.3102083943219
 20
160.0615980443244
 30
0.0
 11
676.430208394322
 21
160.0615980443244
 31
0.0
  0
SOLID
  5
6ED4
330
6E27
100
AcDbEntity
  8
7_DIM
  6
Continuous
 62
     0
100
AcDbTrace
 10
693.819759238322
 20
160.5415980443244
 30
0.0
 11
693.819759238322
 21
159.5815980443244
 31
0.0
 12
690.939759238322
 22
160.0615980443244
 32
0.0
 13
690.939759238322
 23
160.0615980443244
 33
0.0
  0
SOLID
  5
6ED5
330
6E27
100
AcDbEntity
  8
7_DIM
  6
Continuous
 62
     0
100
AcDbTrace
 10
679.3102083943219
 20
160.5415980443244
 30
0.0
 11
679.3102083943219
 21
159.5815980443244
 31
0.0
 12
682.190208394322
 22
160.0615980443244
 32
0.0
 13
682.190208394322
 23
160.0615980443244
 33
0.0
  0
MTEXT
  5
6ED6
330
6E27
100
AcDbEntity
  8
7_DIM
  6
Continuous
 62
     0
100
AcDbMText
 10
661.3616369657505
 20
160.0615980443244
 30
0.0
 40
3.6
 41
0.0
 71
     5
 72
     1
  1
\A1;8.75\PBORDERS\PTYP.
  7
ROMANS
 73
     1
 44
1.0
1001
ACAD
1000
MTEXTBEGIN
1070
    73
1070
     1
1070
    44
1040
1.0
1070
    74
1070
     0
1000
MTEXTEND
  0
POINT
  5
6ED7
330
6E27
100
AcDbEntity
  8
DEFPOINTS
  6
Continuous
 62
     0
100
AcDbPoint
 10
690.939759238322
 20
170.0154228359244
 30
0.0
  0
POINT
  5
6ED8
330
6E27
100
AcDbEntity
  8
DEFPOINTS
  6
Continuous
 62
     0
100
AcDbPoint
 10
682.190208394322
 20
165.7684225955244
 30
0.0
  0
POINT
  5
6ED9
330
6E27
100
AcDbEntity
  8
DEFPOINTS
  6
Continuous
 62
     0
100
AcDbPoint
 10
682.190208394322
 20
160.0615980443244
 30
0.0
  0
ENDBLK
  5
6E33
330
6E27
100
AcDbEntity
  8
0
100
AcDbBlockEnd
  0
BLOCK
  5
6E3F
330
6E34
100
AcDbEntity
  8
0
100
AcDbBlockBegin
  2
*D65
 70
     1
 10
0.0
 20
0.0
 30
0.0
  3
*D65
  1

  0
LINE
  5
6EDA
330
6E34
100
AcDbEntity
  8
7_DIM
  6
Continuous
 62
     0
370
    -2
100
AcDbLine
 10
682.190208394322
 20
163.6084225955244
 30
0.0
 11
682.190208394322
 21
149.6921385827245
 31
0.0
  0
LINE
  5
6EDB
330
6E34
100
AcDbEntity
  8
7_DIM
  6
Continuous
 62
     0
370
    -2
100
AcDbLine
 10
915.6893128075219
 20
163.6084225955244
 30
0.0
 11
915.6893128075219
 21
149.6921385827245
 31
0.0
  0
LINE
  5
6EDC
330
6E34
100
AcDbEntity
  8
7_DIM
  6
Continuous
 62
     0
370
    -2
100
AcDbLine
 10
685.0702083943219
 20
151.8521385827245
 30
0.0
 11
763.899760600922
 21
151.8521385827245
 31
0.0
  0
LINE
  5
6EDD
330
6E34
100
AcDbEntity
  8
7_DIM
  6
Continuous
 62
     0
370
    -2
100
AcDbLine
 10
912.8093128075219
 20
151.8521385827245
 30
0.0
 11
833.979760600922
 21
151.8521385827245
 31
0.0
  0
SOLID
  5
6EDE
330
6E34
100
AcDbEntity
  8
7_DIM
  6
Continuous
 62
     0
100
AcDbTrace
 10
685.0702083943219
 20
152.3321385827244
 30
0.0
 11
685.0702083943219
 21
151.3721385827245
 31
0.0
 12
682.190208394322
 22
151.8521385827245
 32
0.0
 13
682.190208394322
 23
151.8521385827245
 33
0.0
  0
SOLID
  5
6EDF
330
6E34
100
AcDbEntity
  8
7_DIM
  6
Continuous
 62
     0
100
AcDbTrace
 10
912.8093128075219
 20
152.3321385827244
 30
0.0
 11
912.8093128075219
 21
151.3721385827245
 31
0.0
 12
915.6893128075219
 22
151.8521385827245
 32
0.0
 13
915.6893128075219
 23
151.8521385827245
 33
0.0
  0
MTEXT
  5
6EE0
330
6E34
100
AcDbEntity
  8
7_DIM
  6
Continuous
 62
     0
100
AcDbMText
 10
798.9397606009219
 20
151.8521385827245
 30
0.0
 40
3.6
 41
0.0
 71
     5
 72
     1
  1
\A1;233.50 (FABRIC WIDTH)
  7
ROMANS
 73
     1
 44
1.0
1001
ACAD
1000
MTEXTBEGIN
1070
    73
1070
     1
1070
    44
1040
1.0
1070
    74
1070
     0
1000
MTEXTEND
  0
POINT
  5
6EE1
330
6E34
100
AcDbEntity
  8
DEFPOINTS
  6
Continuous
 62
     0
100
AcDbPoint
 10
682.190208394322
 20
165.7684225955244
 30
0.0
  0
POINT
  5
6EE2
330
6E34
100
AcDbEntity
  8
DEFPOINTS
  6
Continuous
 62
     0
100
AcDbPoint
 10
915.6893128075219
 20
165.7684225955244
 30
0.0
  0
POINT
  5
6EE3
330
6E34
100
AcDbEntity
  8
DEFPOINTS
  6
Continuous
 62
     0
100
AcDbPoint
 10
915.6893128075219
 20
151.8521385827245
 30
0.0
  0
ENDBLK
  5
6E40
330
6E34
100
AcDbEntity
  8
0
100
AcDbBlockEnd
  0
BLOCK
  5
6E4C
330
6E41
100
AcDbEntity
  8
0
100
AcDbBlockBegin
  2
*D66
 70
     1
 10
0.0
 20
0.0
 30
0.0
  3
*D66
  1

  0
LINE
  5
6EE4
330
6E41
100
AcDbEntity
  8
7_DIM
  6
Continuous
 62
     0
370
    -2
100
AcDbLine
 10
681.439761985122
 20
163.3584225935244
 30
0.0
 11
681.439761985122
 21
141.4826791247244
 31
0.0
  0
LINE
  5
6EE5
330
6E41
100
AcDbEntity
  8
7_DIM
  6
Continuous
 62
     0
370
    -2
100
AcDbLine
 10
916.439761985122
 20
163.3584225935244
 30
0.0
 11
916.439761985122
 21
141.4826791247244
 31
0.0
  0
LINE
  5
6EE6
330
6E41
100
AcDbEntity
  8
7_DIM
  6
Continuous
 62
     0
370
    -2
100
AcDbLine
 10
684.319761985122
 20
143.6426791247244
 30
0.0
 11
739.4711905565506
 21
143.6426791247244
 31
0.0
  0
LINE
  5
6EE7
330
6E41
100
AcDbEntity
  8
7_DIM
  6
Continuous
 62
     0
370
    -2
100
AcDbLine
 10
913.5597619851219
 20
143.6426791247244
 30
0.0
 11
858.4083334136934
 21
143.6426791247244
 31
0.0
  0
SOLID
  5
6EE8
330
6E41
100
AcDbEntity
  8
7_DIM
  6
Continuous
 62
     0
100
AcDbTrace
 10
684.319761985122
 20
144.1226791247244
 30
0.0
 11
684.319761985122
 21
143.1626791247244
 31
0.0
 12
681.439761985122
 22
143.6426791247244
 32
0.0
 13
681.439761985122
 23
143.6426791247244
 33
0.0
  0
SOLID
  5
6EE9
330
6E41
100
AcDbEntity
  8
7_DIM
  6
Continuous
 62
     0
100
AcDbTrace
 10
913.5597619851219
 20
144.1226791247244
 30
0.0
 11
913.5597619851219
 21
143.1626791247244
 31
0.0
 12
916.439761985122
 22
143.6426791247244
 32
0.0
 13
916.439761985122
 23
143.6426791247244
 33
0.0
  0
MTEXT
  5
6EEA
330
6E41
100
AcDbEntity
  8
7_DIM
  6
Continuous
 62
     0
100
AcDbMText
 10
798.939761985122
 20
143.6426791247244
 30
0.0
 40
3.6
 41
0.0
 71
     5
 72
     1
  1
\A1;235.00 (OVERALL LENGTH OF SLAT BAR)
  7
ROMANS
 73
     1
 44
1.0
1001
ACAD
1000
MTEXTBEGIN
1070
    73
1070
     1
1070
    44
1040
1.0
1070
    74
1070
     0
1000
MTEXTEND
  0
POINT
  5
6EEB
330
6E41
100
AcDbEntity
  8
DEFPOINTS
  6
Continuous
 62
     0
100
AcDbPoint
 10
681.439761985122
 20
165.5184225935244
 30
0.0
  0
POINT
  5
6EEC
330
6E41
100
AcDbEntity
  8
DEFPOINTS
  6
Continuous
 62
     0
100
AcDbPoint
 10
916.439761985122
 20
165.5184225935244
 30
0.0
  0
POINT
  5
6EED
330
6E41
100
AcDbEntity
  8
DEFPOINTS
  6
Continuous
 62
     0
100
AcDbPoint
 10
916.439761985122
 20
143.6426791247244
 30
0.0
  0
ENDBLK
  5
6E4D
330
6E41
100
AcDbEntity
  8
0
100
AcDbBlockEnd
  0
BLOCK
  5
6E59
330
6E4E
100
AcDbEntity
  8
0
100
AcDbBlockBegin
  2
*D67
 70
     1
 10
0.0
 20
0.0
 30
0.0
  3
*D67
  1

  0
LINE
  5
6EEE
330
6E4E
100
AcDbEntity
  8
7_DIM
  6
Continuous
 62
     0
370
    -2
100
AcDbLine
 10
648.9491207952262
 20
334.0149225959244
 30
0.0
 11
661.4581037823043
 21
334.0149225959244
 31
0.0
  0
LINE
  5
6EEF
330
6E4E
100
AcDbEntity
  8
7_DIM
  6
Continuous
 62
     0
370
    -2
100
AcDbLine
 10
648.9491207952262
 20
345.2649225959244
 30
0.0
 11
661.4581037823043
 21
345.2649225959244
 31
0.0
  0
LINE
  5
6EF0
330
6E4E
100
AcDbEntity
  8
7_DIM
  6
Continuous
 62
     0
370
    -2
100
AcDbLine
 10
659.2981037823043
 20
331.1349225959244
 30
0.0
 11
659.2981037823043
 21
328.2549225959244
 31
0.0
  0
LINE
  5
6EF1
330
6E4E
100
AcDbEntity
  8
7_DIM
  6
Continuous
 62
     0
370
    -2
100
AcDbLine
 10
659.2981037823043
 20
348.1449225959244
 30
0.0
 11
659.2981037823043
 21
351.0249225959244
 31
0.0
  0
SOLID
  5
6EF2
330
6E4E
100
AcDbEntity
  8
7_DIM
  6
Continuous
 62
     0
100
AcDbTrace
 10
658.8181037823042
 20
331.1349225959244
 30
0.0
 11
659.7781037823043
 21
331.1349225959244
 31
0.0
 12
659.2981037823043
 22
334.0149225959244
 32
0.0
 13
659.2981037823043
 23
334.0149225959244
 33
0.0
  0
SOLID
  5
6EF3
330
6E4E
100
AcDbEntity
  8
7_DIM
  6
Continuous
 62
     0
100
AcDbTrace
 10
658.8181037823042
 20
348.1449225959244
 30
0.0
 11
659.7781037823043
 21
348.1449225959244
 31
0.0
 12
659.2981037823043
 22
345.2649225959244
 32
0.0
 13
659.2981037823043
 23
345.2649225959244
 33
0.0
  0
MTEXT
  5
6EF4
330
6E4E
100
AcDbEntity
  8
7_DIM
  6
Continuous
 62
     0
100
AcDbMText
 10
659.2981037823042
 20
339.6399225959245
 30
0.0
 40
3.6
 41
0.0
 71
     5
 72
     1
  1
\A1;11.25
  7
ROMANS
 73
     1
 44
1.0
1001
ACAD
1000
MTEXTBEGIN
1070
    73
1070
     1
1070
    44
1040
1.0
1070
    74
1070
     0
1000
MTEXTEND
  0
POINT
  5
6EF5
330
6E4E
100
AcDbEntity
  8
DEFPOINTS
  6
Continuous
 62
     0
100
AcDbPoint
 10
646.7891207952263
 20
334.0149225959244
 30
0.0
  0
POINT
  5
6EF6
330
6E4E
100
AcDbEntity
  8
DEFPOINTS
  6
Continuous
 62
     0
100
AcDbPoint
 10
646.7891207952263
 20
345.2649225959244
 30
0.0
  0
POINT
  5
6EF7
330
6E4E
100
AcDbEntity
  8
DEFPOINTS
  6
Continuous
 62
     0
100
AcDbPoint
 10
659.2981037823043
 20
345.2649225959244
 30
0.0
  0
ENDBLK
  5
6E5A
330
6E4E
100
AcDbEntity
  8
0
100
AcDbBlockEnd
  0
BLOCK
  5
6E66
330
6E5B
100
AcDbEntity
  8
0
100
AcDbBlockBegin
  2
*D68
 70
     1
 10
0.0
 20
0.0
 30
0.0
  3
*D68
  1

  0
LINE
  5
6EF8
330
6E5B
100
AcDbEntity
  8
7_DIM
  6
Continuous
 62
     0
370
    -2
100
AcDbLine
 10
637.2891207948263
 20
347.4249225959245
 30
0.0
 11
637.2891207948263
 21
359.2202703484436
 31
0.0
  0
LINE
  5
6EF9
330
6E5B
100
AcDbEntity
  8
7_DIM
  6
Continuous
 62
     0
370
    -2
100
AcDbLine
 10
646.7891207952263
 20
347.4249225959245
 30
0.0
 11
646.7891207952263
 21
359.2202703484436
 31
0.0
  0
LINE
  5
6EFA
330
6E5B
100
AcDbEntity
  8
7_DIM
  6
Continuous
 62
     0
370
    -2
100
AcDbLine
 10
634.4091207948263
 20
357.0602703484436
 30
0.0
 11
631.5291207948263
 21
357.0602703484436
 31
0.0
  0
LINE
  5
6EFB
330
6E5B
100
AcDbEntity
  8
7_DIM
  6
Continuous
 62
     0
370
    -2
100
AcDbLine
 10
649.6691207952262
 20
357.0602703484436
 30
0.0
 11
652.5491207952263
 21
357.0602703484436
 31
0.0
  0
SOLID
  5
6EFC
330
6E5B
100
AcDbEntity
  8
7_DIM
  6
Continuous
 62
     0
100
AcDbTrace
 10
634.4091207948263
 20
357.5402703484436
 30
0.0
 11
634.4091207948263
 21
356.5802703484436
 31
0.0
 12
637.2891207948263
 22
357.0602703484436
 32
0.0
 13
637.2891207948263
 23
357.0602703484436
 33
0.0
  0
SOLID
  5
6EFD
330
6E5B
100
AcDbEntity
  8
7_DIM
  6
Continuous
 62
     0
100
AcDbTrace
 10
649.6691207952262
 20
357.5402703484436
 30
0.0
 11
649.6691207952262
 21
356.5802703484436
 31
0.0
 12
646.7891207952263
 22
357.0602703484436
 32
0.0
 13
646.7891207952263
 23
357.0602703484436
 33
0.0
  0
MTEXT
  5
6EFE
330
6E5B
100
AcDbEntity
  8
7_DIM
  6
Continuous
 62
     0
100
AcDbMText
 10
661.2748350809405
 20
357.0602703484436
 30
0.0
 40
3.6
 41
0.0
 71
     5
 72
     1
  1
\A1;9.50
  7
ROMANS
 73
     1
 44
1.0
1001
ACAD
1000
MTEXTBEGIN
1070
    73
1070
     1
1070
    44
1040
1.0
1070
    74
1070
     0
1000
MTEXTEND
  0
POINT
  5
6EFF
330
6E5B
100
AcDbEntity
  8
DEFPOINTS
  6
Continuous
 62
     0
100
AcDbPoint
 10
637.2891207948263
 20
345.2649225959244
 30
0.0
  0
POINT
  5
6F00
330
6E5B
100
AcDbEntity
  8
DEFPOINTS
  6
Continuous
 62
     0
100
AcDbPoint
 10
646.7891207952263
 20
345.2649225959244
 30
0.0
  0
POINT
  5
6F01
330
6E5B
100
AcDbEntity
  8
DEFPOINTS
  6
Continuous
 62
     0
100
AcDbPoint
 10
646.7891207952263
 20
357.0602703484436
 30
0.0
  0
ENDBLK
  5
6E67
330
6E5B
100
AcDbEntity
  8
0
100
AcDbBlockEnd
  0
BLOCK
  5
6E71
330
6E68
100
AcDbEntity
  8
0
100
AcDbBlockBegin
  2
*D69
 70
     1
 10
0.0
 20
0.0
 30
0.0
  3
*D69
  1

  0
LINE
  5
6F02
330
6E68
100
AcDbEntity
  8
7_DIM
  6
Continuous
 62
     0
370
    -2
100
AcDbLine
 10
693.2437593156535
 20
171.7434227328159
 30
0.0
 11
788.2197609856606
 21
242.9754173441244
 31
0.0
  0
LINE
  5
6F03
330
6E68
100
AcDbEntity
  8
7_DIM
  6
Continuous
 62
     0
370
    -2
100
AcDbLine
 10
904.6357646545907
 20
330.2874119554332
 30
0.0
 11
809.6597629845835
 21
259.0554173441245
 31
0.0
  0
SOLID
  5
6F04
330
6E68
100
AcDbEntity
  8
7_DIM
  6
Continuous
 62
     0
100
AcDbTrace
 10
692.9557593328382
 20
172.1274227457044
 30
0.0
 11
693.5317592984687
 21
171.3594227199273
 31
0.0
 12
690.9397592383221
 22
170.0154228359245
 32
0.0
 13
690.9397592383221
 23
170.0154228359245
 33
0.0
  0
SOLID
  5
6F05
330
6E68
100
AcDbEntity
  8
7_DIM
  6
Continuous
 62
     0
100
AcDbTrace
 10
904.3477646717754
 20
330.6714119683217
 30
0.0
 11
904.9237646374058
 21
329.9034119425446
 31
0.0
 12
906.939764731922
 22
332.0154118523245
 32
0.0
 13
906.939764731922
 23
332.0154118523245
 33
0.0
  0
MTEXT
  5
6F06
330
6E68
100
AcDbEntity
  8
7_DIM
  6
Continuous
 62
     0
100
AcDbMText
 10
798.939761985122
 20
251.0154173441245
 30
0.0
 40
3.6
 41
0.0
 71
     5
 72
     1
  1
\A1;270.00\PDIAG.
  7
ROMANS
 73
     1
 44
1.0
1001
ACAD
1000
MTEXTBEGIN
1070
    73
1070
     1
1070
    44
1040
1.0
1070
    74
1070
     0
1000
MTEXTEND
  0
POINT
  5
6F07
330
6E68
100
AcDbEntity
  8
DEFPOINTS
  6
Continuous
 62
     0
100
AcDbPoint
 10
690.9397592383221
 20
170.0154228359244
 30
0.0
  0
POINT
  5
6F08
330
6E68
100
AcDbEntity
  8
DEFPOINTS
  6
Continuous
 62
     0
100
AcDbPoint
 10
906.939764731922
 20
332.0154118523245
 30
0.0
  0
POINT
  5
6F09
330
6E68
100
AcDbEntity
  8
DEFPOINTS
  6
Continuous
 62
     0
100
AcDbPoint
 10
906.939764731922
 20
332.0154118523245
 30
0.0
  0
ENDBLK
  5
6E72
330
6E68
100
AcDbEntity
  8
0
100
AcDbBlockEnd
  0
BLOCK
  5
6F65
330
6F5A
100
AcDbEntity
  8
0
100
AcDbBlockBegin
  2
*D70
 70
     1
 10
0.0
 20
0.0
 30
0.0
  3
*D70
  1

  0
LINE
  5
7286
330
6F5A
100
AcDbEntity
  8
6
 62
     0
370
    -2
100
AcDbLine
 10
316.3828514990072
 20
90.86260016520686
 30
0.0
 11
316.3828514990072
 21
107.5185997292299
 31
0.0
  0
LINE
  5
7287
330
6F5A
100
AcDbEntity
  8
6
 62
     0
370
    -2
100
AcDbLine
 10
566.3828514990071
 20
90.86260016520686
 30
0.0
 11
566.3828514990071
 21
107.5185997292299
 31
0.0
  0
LINE
  5
7288
330
6F5A
100
AcDbEntity
  8
6
 62
     0
370
    -2
100
AcDbLine
 10
318.7828514990072
 20
105.7185997292299
 30
0.0
 11
398.3114229275786
 21
105.7185997292299
 31
0.0
  0
LINE
  5
7289
330
6F5A
100
AcDbEntity
  8
6
 62
     0
370
    -2
100
AcDbLine
 10
563.9828514990072
 20
105.7185997292299
 30
0.0
 11
484.4542800704357
 21
105.7185997292299
 31
0.0
  0
SOLID
  5
728A
330
6F5A
100
AcDbEntity
  8
6
 62
     0
100
AcDbTrace
 10
318.7828514990072
 20
106.1185997292299
 30
0.0
 11
318.7828514990072
 21
105.3185997292299
 31
0.0
 12
316.3828514990072
 22
105.7185997292299
 32
0.0
 13
316.3828514990072
 23
105.7185997292299
 33
0.0
  0
SOLID
  5
728B
330
6F5A
100
AcDbEntity
  8
6
 62
     0
100
AcDbTrace
 10
563.9828514990072
 20
106.1185997292299
 30
0.0
 11
563.9828514990072
 21
105.3185997292299
 31
0.0
 12
566.3828514990071
 22
105.7185997292299
 32
0.0
 13
566.3828514990071
 23
105.7185997292299
 33
0.0
  0
MTEXT
  5
728C
330
6F5A
100
AcDbEntity
  8
6
 62
     0
100
AcDbMText
 10
441.3828514990071
 20
105.7185997292299
 30
0.0
 40
3.0
 41
0.0
 71
     5
 72
     1
  1
\A1;250.00 (OVERALL LENGTH OF CASE)
  7
ROMANS
 73
     1
 44
1.0
1001
ACAD
1000
MTEXTBEGIN
1070
    73
1070
     1
1070
    44
1040
1.0
1070
    74
1070
     0
1000
MTEXTEND
  0
POINT
  5
728D
330
6F5A
100
AcDbEntity
  8
DEFPOINTS
 62
     0
100
AcDbPoint
 10
316.3828514990072
 20
89.06260016520686
 30
0.0
  0
POINT
  5
728E
330
6F5A
100
AcDbEntity
  8
DEFPOINTS
 62
     0
100
AcDbPoint
 10
566.3828514990071
 20
89.06260016520686
 30
0.0
  0
POINT
  5
728F
330
6F5A
100
AcDbEntity
  8
DEFPOINTS
 62
     0
100
AcDbPoint
 10
566.3828514990071
 20
105.7185997292299
 30
0.0
  0
ENDBLK
  5
6F66
330
6F5A
100
AcDbEntity
  8
0
100
AcDbBlockEnd
  0
BLOCK
  5
6FE2
330
6FD8
100
AcDbEntity
  8
0
100
AcDbBlockBegin
  2
*D71
 70
     1
 10
0.0
 20
0.0
 30
0.0
  3
*D71
  1

  0
LINE
  5
7050
330
6FD8
100
AcDbEntity
  8
6
 62
     0
370
    -2
100
AcDbLine
 10
253.1864961317871
 20
88.48431155471322
 30
0.0
 11
264.9926338638104
 21
88.48431155471322
 31
0.0
  0
LINE
  5
7051
330
6FD8
100
AcDbEntity
  8
6
 62
     0
370
    -2
100
AcDbLine
 10
253.1864961317871
 20
77.2343115547132
 30
0.0
 11
264.9926338638104
 21
77.2343115547132
 31
0.0
  0
LINE
  5
7052
330
6FD8
100
AcDbEntity
  8
6
 62
     0
370
    -2
100
AcDbLine
 10
263.1926338638103
 20
86.0843115547132
 30
0.0
 11
263.1926338638103
 21
85.85931155471319
 31
0.0
  0
LINE
  5
7053
330
6FD8
100
AcDbEntity
  8
6
 62
     0
370
    -2
100
AcDbLine
 10
263.1926338638103
 20
79.63431155471321
 30
0.0
 11
263.1926338638103
 21
79.8593115547132
 31
0.0
  0
MTEXT
  5
7054
330
6FD8
100
AcDbEntity
  8
6
 62
     0
100
AcDbMText
 10
263.2851247599209
 20
82.85931155471324
 30
0.0
 40
3.0
 41
0.0
 71
     5
 72
     1
  1
\A1;11.25
  7
ROMANS
 73
     1
 44
1.0
1001
ACAD
1000
MTEXTBEGIN
1070
    73
1070
     1
1070
    44
1040
1.0
1070
    74
1070
     0
1000
MTEXTEND
  0
SOLID
  5
7055
330
6FD8
100
AcDbEntity
  8
6
 62
     0
100
AcDbTrace
 10
262.7926338638104
 20
86.0843115547132
 30
0.0
 11
263.5926338638103
 21
86.0843115547132
 31
0.0
 12
263.1926338638103
 22
88.48431155471322
 32
0.0
 13
263.1926338638103
 23
88.48431155471322
 33
0.0
  0
SOLID
  5
7056
330
6FD8
100
AcDbEntity
  8
6
 62
     0
100
AcDbTrace
 10
262.7926338638104
 20
79.63431155471321
 30
0.0
 11
263.5926338638103
 21
79.63431155471321
 31
0.0
 12
263.1926338638103
 22
77.2343115547132
 32
0.0
 13
263.1926338638103
 23
77.2343115547132
 33
0.0
  0
POINT
  5
7057
330
6FD8
100
AcDbEntity
  8
DEFPOINTS
 62
     0
100
AcDbPoint
 10
251.3864961317871
 20
88.48431155471322
 30
0.0
  0
POINT
  5
7058
330
6FD8
100
AcDbEntity
  8
DEFPOINTS
 62
     0
100
AcDbPoint
 10
251.3864961317871
 20
77.2343115547132
 30
0.0
  0
POINT
  5
7059
330
6FD8
100
AcDbEntity
  8
DEFPOINTS
 62
     0
100
AcDbPoint
 10
263.1926338638103
 20
77.2343115547132
 30
0.0
  0
ENDBLK
  5
6FE3
330
6FD8
100
AcDbEntity
  8
0
100
AcDbBlockEnd
  0
BLOCK
  5
7006
330
6FFB
100
AcDbEntity
  8
0
100
AcDbBlockBegin
  2
*D72
 70
     1
 10
0.0
 20
0.0
 30
0.0
  3
*D72
  1

  0
LINE
  5
727C
330
6FFB
100
AcDbEntity
  8
6
 62
     0
370
    -2
100
AcDbLine
 10
341.3828474894071
 20
93.66759479520691
 30
0.0
 11
341.3828474894071
 21
98.77208833440686
 31
0.0
  0
LINE
  5
727D
330
6FFB
100
AcDbEntity
  8
6
 62
     0
370
    -2
100
AcDbLine
 10
541.3828473330069
 20
93.56010016320697
 30
0.0
 11
541.3828473330069
 21
98.77208833440686
 31
0.0
  0
LINE
  5
727E
330
6FFB
100
AcDbEntity
  8
6
 62
     0
370
    -2
100
AcDbLine
 10
343.7828474894071
 20
96.97208833440686
 30
0.0
 11
415.0257045540642
 21
96.97208833440686
 31
0.0
  0
LINE
  5
727F
330
6FFB
100
AcDbEntity
  8
6
 62
     0
370
    -2
100
AcDbLine
 10
538.982847333007
 20
96.97208833440686
 30
0.0
 11
467.7399902683498
 21
96.97208833440686
 31
0.0
  0
SOLID
  5
7280
330
6FFB
100
AcDbEntity
  8
6
 62
     0
100
AcDbTrace
 10
343.7828474894071
 20
97.37208833440687
 30
0.0
 11
343.7828474894071
 21
96.57208833440686
 31
0.0
 12
341.3828474894071
 22
96.97208833440686
 32
0.0
 13
341.3828474894071
 23
96.97208833440686
 33
0.0
  0
SOLID
  5
7281
330
6FFB
100
AcDbEntity
  8
6
 62
     0
100
AcDbTrace
 10
538.982847333007
 20
97.37208833440687
 30
0.0
 11
538.982847333007
 21
96.57208833440686
 31
0.0
 12
541.3828473330069
 22
96.97208833440686
 32
0.0
 13
541.3828473330069
 23
96.97208833440686
 33
0.0
  0
MTEXT
  5
7282
330
6FFB
100
AcDbEntity
  8
6
 62
     0
100
AcDbMText
 10
441.3828474112071
 20
96.97208833440686
 30
0.0
 40
3.0
 41
0.0
 71
     5
 72
     1
  1
\A1;ADJUSTABLE HANGERS
  7
ROMANS
 73
     1
 44
1.0
1001
ACAD
1000
MTEXTBEGIN
1070
    73
1070
     1
1070
    44
1040
1.0
1070
    74
1070
     0
1000
MTEXTEND
  0
POINT
  5
7283
330
6FFB
100
AcDbEntity
  8
DEFPOINTS
 62
     0
100
AcDbPoint
 10
341.3828474894071
 20
91.86759479520691
 30
0.0
  0
POINT
  5
7284
330
6FFB
100
AcDbEntity
  8
DEFPOINTS
 62
     0
100
AcDbPoint
 10
541.3828473330069
 20
91.76010016320697
 30
0.0
  0
POINT
  5
7285
330
6FFB
100
AcDbEntity
  8
DEFPOINTS
 62
     0
100
AcDbPoint
 10
541.3828473330069
 20
96.97208833440686
 30
0.0
  0
ENDBLK
  5
7007
330
6FFB
100
AcDbEntity
  8
0
100
AcDbBlockEnd
  0
BLOCK
  5
709A
330
708F
100
AcDbEntity
  8
0
100
AcDbBlockBegin
  2
*D73
 70
     1
 10
0.0
 20
0.0
 30
0.0
  3
*D73
  1

  0
LINE
  5
725D
330
708F
100
AcDbEntity
  8
7_DIM
  6
Continuous
 62
     0
370
    -2
100
AcDbLine
 10
277.4666598266517
 20
76.5001001652069
 30
0.0
 11
289.9756428137298
 21
76.50010016520688
 31
0.0
  0
LINE
  5
725E
330
708F
100
AcDbEntity
  8
7_DIM
  6
Continuous
 62
     0
370
    -2
100
AcDbLine
 10
277.4666598266517
 20
89.0626001652069
 30
0.0
 11
289.9756428137298
 21
89.06260016520688
 31
0.0
  0
LINE
  5
725F
330
708F
100
AcDbEntity
  8
7_DIM
  6
Continuous
 62
     0
370
    -2
100
AcDbLine
 10
287.8156428137297
 20
79.38010016520689
 30
0.0
 11
287.8156428137297
 21
86.18260016520691
 31
0.0
  0
LINE
  5
7260
330
708F
100
AcDbEntity
  8
7_DIM
  6
Continuous
 62
     0
370
    -2
100
AcDbLine
 10
287.8156428137297
 20
89.0626001652069
 30
0.0
 11
287.8156428137297
 21
91.9426001652069
 31
0.0
  0
LINE
  5
7261
330
708F
100
AcDbEntity
  8
7_DIM
  6
Continuous
 62
     0
370
    -2
100
AcDbLine
 10
287.8156428137297
 20
91.9426001652069
 30
0.0
 11
290.6956428137297
 21
91.94260016520688
 31
0.0
  0
SOLID
  5
7262
330
708F
100
AcDbEntity
  8
7_DIM
  6
Continuous
 62
     0
100
AcDbTrace
 10
287.3356428137297
 20
79.38010016520689
 30
0.0
 11
288.2956428137297
 21
79.38010016520689
 31
0.0
 12
287.8156428137297
 22
76.5001001652069
 32
0.0
 13
287.8156428137297
 23
76.5001001652069
 33
0.0
  0
SOLID
  5
7263
330
708F
100
AcDbEntity
  8
7_DIM
  6
Continuous
 62
     0
100
AcDbTrace
 10
287.3356428137297
 20
86.18260016520691
 30
0.0
 11
288.2956428137297
 21
86.18260016520689
 31
0.0
 12
287.8156428137297
 22
89.0626001652069
 32
0.0
 13
287.8156428137297
 23
89.0626001652069
 33
0.0
  0
MTEXT
  5
7264
330
708F
100
AcDbEntity
  8
7_DIM
  6
Continuous
 62
     0
100
AcDbMText
 10
300.8784999565869
 20
91.94260016520694
 30
0.0
 40
3.6
 41
0.0
 71
     5
 72
     1
  1
\A1;12.56
  7
ROMANS
 73
     1
 44
1.0
1001
ACAD
1000
MTEXTBEGIN
1070
    73
1070
     1
1070
    44
1040
1.0
1070
    74
1070
     0
1000
MTEXTEND
  0
POINT
  5
7265
330
708F
100
AcDbEntity
  8
DEFPOINTS
  6
Continuous
 62
     0
100
AcDbPoint
 10
275.3066598266516
 20
76.5001001652069
 30
0.0
  0
POINT
  5
7266
330
708F
100
AcDbEntity
  8
DEFPOINTS
  6
Continuous
 62
     0
100
AcDbPoint
 10
275.3066598266516
 20
89.0626001652069
 30
0.0
  0
POINT
  5
7267
330
708F
100
AcDbEntity
  8
DEFPOINTS
  6
Continuous
 62
     0
100
AcDbPoint
 10
287.8156428137297
 20
89.0626001652069
 30
0.0
  0
ENDBLK
  5
709B
330
708F
100
AcDbEntity
  8
0
100
AcDbBlockEnd
  0
BLOCK
  5
70A7
330
709C
100
AcDbEntity
  8
0
100
AcDbBlockBegin
  2
*D74
 70
     1
 10
0.0
 20
0.0
 30
0.0
  3
*D74
  1

  0
LINE
  5
7253
330
709C
100
AcDbEntity
  8
7_DIM
  6
Continuous
 62
     0
370
    -2
100
AcDbLine
 10
264.5566598262517
 20
91.22260016520689
 30
0.0
 11
264.5566598262517
 21
103.0179479177261
 31
0.0
  0
LINE
  5
7254
330
709C
100
AcDbEntity
  8
7_DIM
  6
Continuous
 62
     0
370
    -2
100
AcDbLine
 10
275.3066598266516
 20
91.22260016520689
 30
0.0
 11
275.3066598266516
 21
103.0179479177261
 31
0.0
  0
LINE
  5
7255
330
709C
100
AcDbEntity
  8
7_DIM
  6
Continuous
 62
     0
370
    -2
100
AcDbLine
 10
261.6766598262517
 20
100.8579479177261
 30
0.0
 11
258.7966598262517
 21
100.8579479177261
 31
0.0
  0
LINE
  5
7256
330
709C
100
AcDbEntity
  8
7_DIM
  6
Continuous
 62
     0
370
    -2
100
AcDbLine
 10
278.1866598266516
 20
100.8579479177261
 30
0.0
 11
281.0666598266516
 21
100.8579479177261
 31
0.0
  0
SOLID
  5
7257
330
709C
100
AcDbEntity
  8
7_DIM
  6
Continuous
 62
     0
100
AcDbTrace
 10
261.6766598262517
 20
101.3379479177261
 30
0.0
 11
261.6766598262517
 21
100.3779479177261
 31
0.0
 12
264.5566598262517
 22
100.8579479177261
 32
0.0
 13
264.5566598262517
 23
100.8579479177261
 33
0.0
  0
SOLID
  5
7258
330
709C
100
AcDbEntity
  8
7_DIM
  6
Continuous
 62
     0
100
AcDbTrace
 10
278.1866598266516
 20
101.3379479177261
 30
0.0
 11
278.1866598266516
 21
100.3779479177261
 31
0.0
 12
275.3066598266516
 22
100.8579479177261
 32
0.0
 13
275.3066598266516
 23
100.8579479177261
 33
0.0
  0
MTEXT
  5
7259
330
709C
100
AcDbEntity
  8
7_DIM
  6
Continuous
 62
     0
100
AcDbMText
 10
291.2495169695088
 20
100.8579479177261
 30
0.0
 40
3.6
 41
0.0
 71
     5
 72
     1
  1
\A1;10.75
  7
ROMANS
 73
     1
 44
1.0
1001
ACAD
1000
MTEXTBEGIN
1070
    73
1070
     1
1070
    44
1040
1.0
1070
    74
1070
     0
1000
MTEXTEND
  0
POINT
  5
725A
330
709C
100
AcDbEntity
  8
DEFPOINTS
  6
Continuous
 62
     0
100
AcDbPoint
 10
264.5566598262517
 20
89.0626001652069
 30
0.0
  0
POINT
  5
725B
330
709C
100
AcDbEntity
  8
DEFPOINTS
  6
Continuous
 62
     0
100
AcDbPoint
 10
275.3066598266516
 20
89.0626001652069
 30
0.0
  0
POINT
  5
725C
330
709C
100
AcDbEntity
  8
DEFPOINTS
  6
Continuous
 62
     0
100
AcDbPoint
 10
275.3066598266516
 20
100.8579479177261
 30
0.0
  0
ENDBLK
  5
70A8
330
709C
100
AcDbEntity
  8
0
100
AcDbBlockEnd
  0
ENDSEC
  0
SECTION
  2
ENTITIES
  0
INSERT
  5
10C
330
6206
100
AcDbEntity
  8
6
100
AcDbBlockReference
  2
POCKETS
 10
116.5410978541069
 20
76.95950712134558
 30
0.0
  0
DIMENSION
  5
5884
330
6206
100
AcDbEntity
  8
6
100
AcDbDimension
  2
*D38
 10
559.3828514990071
 20
-67.70986088749999
 30
0.0
 11
441.382851499007
 21
-67.70986088749999
 31
0.0
 70
    32
  1
<> VAW
 71
     5
 42
235.9999999999999
  3
BOTH
100
AcDbAlignedDimension
 13
323.3828514990071
 23
-57.76318844528581
 33
0.0
 14
559.3828514990071
 24
-57.76318844528581
 34
0.0
100
AcDbRotatedDimension
  0
LINE
  5
5885
102
{ACAD_REACTORS
330
62E1
102
}
330
6206
100
AcDbEntity
  8
2
100
AcDbLine
 10
321.3828514990072
 20
-60.0131884452858
 30
0.0
 11
561.3828514990071
 21
-60.0131884452858
 31
0.0
1001
ACAD
1000
ASC_BOUNDS
1002
{
1070
    19
1005
5C3C
1005
0
1005
0
1005
0
1005
0
1005
0
1005
0
1005
0
1005
0
1005
0
1005
0
1005
0
1005
0
1005
1A87
1005
0
1005
1A87
1005
278B
1005
0
1005
0
1005
0
1005
0
1005
0
1005
3A85
1005
0
1005
0
1005
0
1005
3A85
1005
0
1005
0
1005
0
1005
0
1005
0
1005
0
1005
0
1005
0
1005
0
1005
0
1005
0
1002
}
  0
LINE
  5
5886
102
{ACAD_REACTORS
330
62E1
102
}
330
6206
100
AcDbEntity
  8
2
100
AcDbLine
 10
561.3828514990071
 20
-57.76318844528581
 30
0.0
 11
321.3828514990072
 21
-57.76318844528581
 31
0.0
1001
ACAD
1000
ASC_BOUNDS
1002
{
1070
    19
1005
5E21
1005
5E21
1005
5C3C
1005
0
1005
0
1005
0
1005
0
1005
0
1005
0
1005
0
1005
0
1005
0
1005
0
1005
0
1005
0
1005
0
1005
0
1005
0
1005
0
1005
0
1005
0
1005
0
1002
}
  0
DIMENSION
  5
5888
330
6206
100
AcDbEntity
  8
6
100
AcDbDimension
  2
*D37
 10
561.3828514990071
 20
-75.19307447535448
 30
0.0
 11
441.3828514990071
 21
-75.19307447535448
 31
0.0
 70
    32
  1
<> (FABRIC WIDTH)
 71
     5
 42
240.0
  3
BOTH
100
AcDbAlignedDimension
 13
321.3828514990072
 23
-60.0131884452858
 33
0.0
 14
561.3828514990071
 24
-60.0131884452858
 34
0.0
100
AcDbRotatedDimension
  0
LINE
  5
5889
330
6206
100
AcDbEntity
  8
2
100
AcDbLine
 10
321.3828514990072
 20
77.2343115547132
 30
0.0
 11
561.3828514990071
 21
77.2343115547132
 31
0.0
1001
ACAD
1000
ASC_BOUNDS
1002
{
1070
    19
1005
0
1005
0
1005
0
1005
0
1005
0
1005
0
1005
0
1005
0
1005
0
1005
0
1005
0
1005
0
1002
}
  0
LINE
  5
588A
102
{ACAD_REACTORS
330
62E1
102
}
330
6206
100
AcDbEntity
  8
2
100
AcDbLine
 10
323.3828514990071
 20
75.2343115547132
 30
0.0
 11
323.3828514990071
 21
-57.76318844528581
 31
0.0
1001
ACAD
1000
ASC_BOUNDS
1002
{
1070
    19
1005
5E21
1005
2F9A
1005
32DC
1005
0
1005
0
1005
0
1002
}
  0
LINE
  5
588B
102
{ACAD_REACTORS
330
62E1
102
}
330
6206
100
AcDbEntity
  8
2
100
AcDbLine
 10
321.3828514990072
 20
77.2343115547132
 30
0.0
 11
321.3828514990072
 21
-60.0131884452858
 31
0.0
1001
ACAD
1000
ASC_BOUNDS
1002
{
1070
    19
1005
5E2F
1005
5E21
1005
5C3C
1005
0
1005
0
1005
0
1005
0
1005
0
1005
0
1005
0
1005
0
1005
0
1005
0
1005
0
1005
0
1005
0
1005
0
1005
0
1005
0
1005
0
1005
0
1005
0
1002
}
  0
DIMENSION
  5
588C
330
6206
100
AcDbEntity
  8
6
100
AcDbDimension
  2
*D36
 10
321.3828514990072
 20
-67.70986088749999
 30
0.0
 11
304.1995181656737
 21
-67.70986088749999
 31
0.0
 70
   160
  1
{<>}\P{BORDER}\P{TYP.}
 71
     5
 42
1.999999999999943
  3
BOTH
100
AcDbAlignedDimension
 13
323.3828514990071
 23
-57.76318844528581
 33
0.0
 14
321.3828514990072
 24
-60.0131884452858
 34
0.0
100
AcDbRotatedDimension
  0
LINE
  5
5892
102
{ACAD_REACTORS
330
62E1
102
}
330
6206
100
AcDbEntity
  8
2
100
AcDbLine
 10
559.3828514990071
 20
75.2343115547132
 30
0.0
 11
559.3828514990071
 21
-57.76318844528581
 31
0.0
1001
ACAD
1000
ASC_BOUNDS
1002
{
1070
    19
1005
5E21
1005
2F9A
1005
32DC
1005
0
1005
0
1005
0
1002
}
  0
DIMENSION
  5
5893
330
6206
100
AcDbEntity
  8
6
100
AcDbDimension
  2
*D35
 10
578.951821960933
 20
75.2343115547132
 30
0.0
 11
578.951821960933
 21
8.735561554713786
 31
0.0
 70
    32
  1
<>\PVAH
 71
     5
 42
132.997499999999
  3
BOTH
100
AcDbAlignedDimension
 13
561.3828514990071
 23
-57.76318844528581
 33
0.0
 14
561.3828514990071
 24
75.2343115547132
 34
0.0
 50
90.0
100
AcDbRotatedDimension
  0
DIMENSION
  5
5894
330
6206
100
AcDbEntity
  8
6
100
AcDbDimension
  2
*D34
 10
589.4843255722756
 20
77.2343115547132
 30
0.0
 11
589.4843255722756
 21
53.39984842821404
 31
0.0
 70
   160
 71
     5
 42
137.247499999999
  3
BOTH
100
AcDbAlignedDimension
 13
561.3828514990071
 23
-60.0131884452858
 33
0.0
 14
566.3828514990071
 24
77.2343115547132
 34
0.0
 50
90.0
100
AcDbRotatedDimension
  0
LINE
  5
5895
102
{ACAD_REACTORS
330
62E1
102
}
330
6206
100
AcDbEntity
  8
2
100
AcDbLine
 10
561.3828514990071
 20
77.2343115547132
 30
0.0
 11
561.3828514990071
 21
-60.0131884452858
 31
0.0
1001
ACAD
1000
ASC_BOUNDS
1002
{
1070
    19
1005
5E2F
1005
5E21
1005
5C3C
1005
0
1005
0
1005
0
1005
0
1005
0
1005
0
1005
0
1005
0
1005
0
1005
0
1005
0
1005
0
1005
0
1005
0
1005
0
1005
0
1005
0
1005
0
1005
0
1002
}
  0
DIMENSION
  5
5896
330
6206
100
AcDbEntity
  8
6
100
AcDbDimension
  2
*D33
 10
578.951821960933
 20
-60.0131884452858
 30
0.0
 11
579.4154884203606
 21
-69.00193609993227
 31
0.0
 70
   160
 71
     5
 42
2.25
  3
BOTH
100
AcDbAlignedDimension
 13
561.3828514990071
 23
-57.76318844528581
 33
0.0
 14
561.3828514990071
 24
-60.0131884452858
 34
0.0
 50
90.0
100
AcDbRotatedDimension
  0
LINE
  5
594A
102
{ACAD_REACTORS
330
62E1
102
}
330
6206
100
AcDbEntity
  8
2
100
AcDbLine
 10
316.3828514990072
 20
77.2343115547132
 30
0.0
 11
566.3828514990071
 21
77.2343115547132
 31
0.0
1001
ACAD
1000
ASC_BOUNDS
1002
{
1070
    19
1005
5E2F
1002
}
  0
LINE
  5
594B
330
6206
100
AcDbEntity
  8
2
100
AcDbLine
 10
566.3828514990071
 20
77.2343115547132
 30
0.0
 11
566.3828514990071
 21
89.06260016520686
 31
0.0
  0
LINE
  5
594C
330
6206
100
AcDbEntity
  8
2
100
AcDbLine
 10
566.3828514990071
 20
89.06260016520686
 30
0.0
 11
316.3828514990072
 21
89.06260016520686
 31
0.0
  0
LINE
  5
594D
330
6206
100
AcDbEntity
  8
2
100
AcDbLine
 10
316.3828514990072
 20
89.06260016520686
 30
0.0
 11
316.3828514990072
 21
77.2343115547132
 31
0.0
  0
DIMENSION
  5
598B
330
6206
100
AcDbEntity
  8
6
100
AcDbDimension
  2
*D70
 10
566.3828514990071
 20
105.7185997292299
 30
0.0
 11
441.3828514990071
 21
105.7185997292299
 31
0.0
 70
    32
  1
<> (OVERALL LENGTH OF CASE)
 71
     5
 42
250.0
  3
BOTH
100
AcDbAlignedDimension
 13
316.3828514990072
 23
89.06260016520686
 33
0.0
 14
566.3828514990071
 24
89.06260016520686
 34
0.0
100
AcDbRotatedDimension
  0
LINE
  5
5998
330
6206
100
AcDbEntity
  8
2
100
AcDbLine
 10
321.1328514990071
 20
-59.63818844528581
 30
0.0
 11
321.1328514990071
 21
-60.0131884452858
 31
0.0
1001
ACAD
1000
ASC_BOUNDS
1002
{
1070
    19
1005
0
1005
0
1005
0
1005
0
1005
0
1005
0
1005
0
1005
0
1005
0
1005
0
1005
0
1005
0
1005
0
1005
0
1005
0
1005
0
1005
0
1005
0
1005
0
1002
}
  0
LINE
  5
5999
330
6206
100
AcDbEntity
  8
2
100
AcDbLine
 10
321.1328514990071
 20
-59.63818844528581
 30
0.0
 11
321.3828514990072
 21
-59.63818844528581
 31
0.0
1001
ACAD
1000
ASC_BOUNDS
1002
{
1070
    19
1005
0
1005
0
1005
0
1005
0
1005
0
1005
0
1005
0
1005
0
1005
0
1005
0
1005
0
1005
0
1005
1A87
1005
0
1005
1A87
1005
278B
1005
0
1005
0
1005
0
1005
0
1005
0
1005
3A85
1005
0
1005
0
1005
0
1005
3A85
1005
0
1005
0
1005
0
1005
0
1005
0
1005
0
1005
0
1005
0
1005
0
1005
0
1005
0
1002
}
  0
LINE
  5
599B
330
6206
100
AcDbEntity
  8
2
100
AcDbLine
 10
321.1328514990071
 20
-60.0131884452858
 30
0.0
 11
321.3828514990072
 21
-60.0131884452858
 31
0.0
1001
ACAD
1000
ASC_BOUNDS
1002
{
1070
    19
1005
0
1005
0
1005
0
1005
0
1005
0
1005
0
1005
0
1005
0
1005
0
1005
0
1005
0
1005
0
1005
1A87
1005
0
1005
1A87
1005
278B
1005
0
1005
0
1005
0
1005
0
1005
0
1005
3A85
1005
0
1005
0
1005
0
1005
3A85
1005
0
1005
0
1005
0
1005
0
1005
0
1005
0
1005
0
1005
0
1005
0
1005
0
1005
0
1002
}
  0
LINE
  5
599C
330
6206
100
AcDbEntity
  8
2
100
AcDbLine
 10
561.6328514990071
 20
-60.0131884452858
 30
0.0
 11
561.3828514990071
 21
-60.0131884452858
 31
0.0
1001
ACAD
1000
ASC_BOUNDS
1002
{
1070
    19
1005
0
1005
0
1005
0
1005
0
1005
0
1005
0
1005
0
1005
0
1005
0
1005
0
1005
0
1005
0
1005
1A87
1005
0
1005
1A87
1005
278B
1005
0
1005
0
1005
0
1005
0
1005
0
1005
3A85
1005
0
1005
0
1005
0
1005
3A85
1005
0
1005
0
1005
0
1005
0
1005
0
1005
0
1005
0
1005
0
1005
0
1005
0
1005
0
1002
}
  0
LINE
  5
599D
330
6206
100
AcDbEntity
  8
2
100
AcDbLine
 10
561.6328514990071
 20
-59.63818844528581
 30
0.0
 11
561.3828514990071
 21
-59.63818844528581
 31
0.0
1001
ACAD
1000
ASC_BOUNDS
1002
{
1070
    19
1005
0
1005
0
1005
0
1005
0
1005
0
1005
0
1005
0
1005
0
1005
0
1005
0
1005
0
1005
0
1005
1A87
1005
0
1005
1A87
1005
278B
1005
0
1005
0
1005
0
1005
0
1005
0
1005
3A85
1005
0
1005
0
1005
0
1005
3A85
1005
0
1005
0
1005
0
1005
0
1005
0
1005
0
1005
0
1005
0
1005
0
1005
0
1005
0
1002
}
  0
LINE
  5
599E
330
6206
100
AcDbEntity
  8
2
100
AcDbLine
 10
561.6328514990071
 20
-59.63818844528581
 30
0.0
 11
561.6328514990071
 21
-60.0131884452858
 31
0.0
1001
ACAD
1000
ASC_BOUNDS
1002
{
1070
    19
1005
0
1005
0
1005
0
1005
0
1005
0
1005
0
1005
0
1005
0
1005
0
1005
0
1005
0
1005
0
1005
0
1005
0
1005
0
1005
0
1005
0
1005
0
1005
0
1002
}
  0
DIMENSION
  5
59AC
330
6206
100
AcDbEntity
  8
6
100
AcDbDimension
  2
*D32
 10
561.6328514990071
 20
-81.57606392269054
 30
0.0
 11
441.382851499007
 21
-81.57606392269054
 31
0.0
 70
    32
  1
<> (SLAT WIDTH)
 71
     5
 42
240.4999999999999
  3
BOTH
100
AcDbAlignedDimension
 13
321.1328514990071
 23
-60.0131884452858
 33
0.0
 14
561.6328514990071
 24
-60.0131884452858
 34
0.0
100
AcDbRotatedDimension
  0
LINE
  5
5D69
102
{ACAD_REACTORS
330
62E1
102
}
330
6206
100
AcDbEntity
  8
2
100
AcDbLine
 10
321.3828514990072
 20
75.2343115547132
 30
0.0
 11
561.3828514990071
 21
75.2343115547132
 31
0.0
1001
ACAD
1000
ASC_BOUNDS
1002
{
1070
    19
1005
5E2F
1005
5E21
1005
5E21
1002
}
  0
DIMENSION
  5
5D74
330
6206
100
AcDbEntity
  8
6
100
AcDbDimension
  2
*D31
 10
578.951821960933
 20
77.2343115547132
 30
0.0
 11
581.98691620179
 21
85.21997976570105
 31
0.0
 70
   160
  1
<> BLK
 71
     5
 42
2.0
  3
BOTH
100
AcDbAlignedDimension
 13
561.3828514990071
 23
75.2343115547132
 33
0.0
 14
566.3828514990071
 24
77.2343115547132
 34
0.0
 50
90.0
100
AcDbRotatedDimension
  0
LINE
  5
6095
330
6206
100
AcDbEntity
  8
AM_VIS
100
AcDbLine
 10
266.8211598282517
 20
74.50010016520689
 30
0.0
 11
266.8211598282517
 21
-58.49739983479214
 31
0.0
  0
LINE
  5
6096
330
6206
100
AcDbEntity
  8
AM_VIS
100
AcDbLine
 10
266.8201598282517
 20
74.50010016520689
 30
0.0
 11
266.8201598282517
 21
-58.49739983479214
 31
0.0
  0
LINE
  5
6097
330
6206
100
AcDbEntity
  8
AM_VIS
100
AcDbLine
 10
266.8101598282517
 20
-58.4973998347921
 30
0.0
 11
266.8101598282517
 21
76.5001001652069
 31
0.0
  0
LINE
  5
6098
330
6206
100
AcDbEntity
  8
AM_VIS
100
AcDbLine
 10
266.5621442901485
 20
-60.45405796346887
 30
0.0
 11
266.8101598282517
 21
-58.49739983479214
 31
0.0
  0
LINE
  5
6099
330
6206
100
AcDbEntity
  8
AM_VIS
100
AcDbLine
 10
266.7981598282517
 20
-58.4973998347921
 30
0.0
 11
266.5503340423777
 21
-60.45256095951441
 31
0.0
  0
LINE
  5
609A
330
6206
100
AcDbEntity
  8
AM_VIS
100
AcDbLine
 10
267.069985614126
 20
-60.45256095951441
 30
0.0
 11
266.8221598282519
 21
-58.4973998347921
 31
0.0
  0
LINE
  5
609B
330
6206
100
AcDbEntity
  8
AM_VIS
100
AcDbLine
 10
266.8101598282517
 20
-58.4973998347921
 30
0.0
 11
267.0581753663549
 21
-60.45405796346887
 31
0.0
  0
ARC
  5
609C
330
6206
100
AcDbEntity
  8
AM_VIS
100
AcDbCircle
 10
266.8101598282517
 20
-60.48549508896314
 30
0.0
 40
0.2619047458289574
100
AcDbArc
 50
172.7760171306986
 51
7.223982869301507
  0
CIRCLE
  5
609D
330
6206
100
AcDbEntity
  8
AM_VIS
100
AcDbCircle
 10
266.8101598282517
 20
-60.48549508896314
 30
0.0
 40
0.0497183091231996
  0
CIRCLE
  5
609E
330
6206
100
AcDbEntity
  8
AM_VIS
100
AcDbCircle
 10
266.8101598282517
 20
-60.48549508896314
 30
0.0
 40
0.2500000000000002
  0
LINE
  5
609F
330
6206
100
AcDbEntity
  8
AM_VIS
100
AcDbLine
 10
266.8101598282517
 20
-58.4973998347921
 30
0.0
 11
266.7981598282517
 21
-58.4973998347921
 31
0.0
  0
LINE
  5
60A0
330
6206
100
AcDbEntity
  8
AM_VIS
100
AcDbLine
 10
266.8221598282519
 20
-58.4973998347921
 30
0.0
 11
266.8201598282517
 21
-58.4973998347921
 31
0.0
  0
HATCH
  5
62E1
330
6206
100
AcDbEntity
  8
6
100
AcDbHatch
 10
0.0
 20
0.0
 30
0.0
210
0.0
220
0.0
230
1.0
  2
ANSI31
 70
     0
 71
     1
 91
        4
 92
        7
 72
     0
 73
     1
 93
        4
 10
321.3828514990073
 20
77.2343115547132
 10
321.3828514990073
 20
75.2343115547132
 10
561.3828514990071
 20
75.2343115547132
 10
561.3828514990071
 20
77.2343115547132
 97
        4
330
594A
330
588B
330
5D69
330
5895
 92
        7
 72
     0
 73
     1
 93
        4
 10
561.3828514990071
 20
75.2343115547132
 10
559.3828514990071
 20
75.2343115547132
 10
559.3828514990071
 20
-57.76318844528582
 10
561.3828514990071
 20
-57.76318844528581
 97
        4
330
5D69
330
5892
330
5886
330
5895
 92
        7
 72
     0
 73
     1
 93
        4
 10
561.3828514990071
 20
-60.0131884452858
 10
561.3828514990071
 20
-57.76318844528581
 10
321.3828514990072
 20
-57.76318844528581
 10
321.3828514990072
 20
-60.0131884452858
 97
        4
330
5886
330
588B
330
5885
330
5895
 92
        7
 72
     0
 73
     1
 93
        4
 10
323.3828514990071
 20
75.2343115547132
 10
321.3828514990072
 20
75.2343115547132
 10
321.3828514990072
 20
-57.76318844528581
 10
323.3828514990071
 20
-57.76318844528582
 97
        4
330
5D69
330
588B
330
5886
330
588A
 75
     0
 76
     1
 52
0.0
 41
10.0
 77
     0
 78
     1
 53
45.0
 43
48.0
 44
0.0
 45
-0.8838834764831842
 46
0.8838834764831844
 79
     0
 47
0.2955155128139191
 98
        4
 10
533.3605843985298
 20
76.45519862801376
 10
561.1524050265757
 20
64.63457795234484
 10
548.7347829440493
 20
1.689773460188461
 10
462.6984027121963
 20
10.85075444674322
  0
DIMENSION
  5
6FE5
330
6206
100
AcDbEntity
  8
6
100
AcDbDimension
  2
*D72
 10
541.3828473330069
 20
96.97208833440686
 30
0.0
 11
441.3828474112071
 21
96.97208833440686
 31
0.0
 70
    32
  1
ADJUSTABLE HANGERS
 71
     5
 42
199.9999998435999
  3
BOTH
100
AcDbAlignedDimension
 13
341.3828474894071
 23
91.86759479520691
 33
0.0
 14
541.3828473330069
 24
91.76010016320697
 34
0.0
100
AcDbRotatedDimension
  0
LINE
  5
6FE6
330
6206
100
AcDbEntity
  8
0
  6
Continuous
 62
     7
100
AcDbLine
 10
340.3828514990072
 20
77.23430056751323
 30
0.0
 11
340.3828514990072
 21
89.06260016520684
 31
0.0
  0
LINE
  5
6FE7
330
6206
100
AcDbEntity
  8
0
  6
Continuous
 62
     7
100
AcDbLine
 10
339.3828474878072
 20
92.77759479600684
 30
0.0
 11
339.3828474878072
 21
88.27759479600684
 31
0.0
  0
LINE
  5
6FE8
330
6206
100
AcDbEntity
  8
0
  6
Continuous
 62
     7
100
AcDbLine
 10
342.3828521090071
 20
77.22929739551324
 30
0.0
 11
342.3828474902072
 21
89.31259479600687
 31
0.0
  0
LINE
  5
6FE9
330
6206
100
AcDbEntity
  8
0
  6
Continuous
 62
     7
100
AcDbLine
 10
343.3828474874072
 20
88.27759479600684
 30
0.0
 11
343.3828474874072
 21
92.77759479600684
 31
0.0
  0
LINE
  5
6FEA
330
6206
100
AcDbEntity
  8
0
  6
Continuous
 62
     7
100
AcDbLine
 10
340.3828514990072
 20
77.22929739551324
 30
0.0
 11
342.3828521090071
 21
77.22929739551324
 31
0.0
  0
LINE
  5
6FEB
330
6206
100
AcDbEntity
  8
0
  6
Continuous
 62
     9
100
AcDbLine
 10
340.3828514990072
 20
77.26429544351322
 30
0.0
 11
342.3828521090071
 21
77.26429544351322
 31
0.0
  0
LINE
  5
6FEC
330
6206
100
AcDbEntity
  8
0
  6
Continuous
 62
     7
100
AcDbLine
 10
339.3828474878072
 20
88.27759479600684
 30
0.0
 11
340.3828474886071
 21
88.27759479600684
 31
0.0
  0
LINE
  5
6FED
330
6206
100
AcDbEntity
  8
0
  6
Continuous
 62
     7
100
AcDbLine
 10
342.3828474902072
 20
88.27759479600684
 30
0.0
 11
343.3828474874072
 21
88.27759479600684
 31
0.0
  0
LINE
  5
6FEE
330
6206
100
AcDbEntity
  8
0
  6
Continuous
 62
     9
100
AcDbLine
 10
340.3828514990072
 20
89.03260529280681
 30
0.0
 11
342.3828521090071
 21
89.03260529280681
 31
0.0
  0
LINE
  5
6FEF
330
6206
100
AcDbEntity
  8
0
  6
Continuous
 62
     7
100
AcDbLine
 10
340.3828514990072
 20
89.25059381760684
 30
0.0
 11
342.3828521090071
 21
89.25059381760684
 31
0.0
  0
LINE
  5
6FF0
330
6206
100
AcDbEntity
  8
0
  6
Continuous
 62
     9
100
AcDbLine
 10
342.3828521090071
 20
89.28058869000688
 30
0.0
 11
340.3828514990072
 21
89.28058869000688
 31
0.0
  0
LINE
  5
6FF1
330
6206
100
AcDbEntity
  8
0
  6
Continuous
 62
     7
100
AcDbLine
 10
342.5078468594071
 20
89.31258966960683
 30
0.0
 11
340.2578446634071
 21
89.31258966960683
 31
0.0
  0
LINE
  5
6FF2
330
6206
100
AcDbEntity
  8
0
  6
Continuous
 62
     7
100
AcDbLine
 10
343.3828463714072
 20
92.77758966960687
 30
0.0
 11
339.3828451514072
 21
92.77758966960687
 31
0.0
  0
ARC
  5
6FF7
330
6206
100
AcDbEntity
  8
0
  6
Continuous
 62
     7
100
AcDbCircle
 10
342.5078474894072
 20
89.18759479680682
 30
0.0
 40
0.1249999992
100
AcDbArc
 50
270.0
 51
90.0
  0
ARC
  5
6FF8
330
6206
100
AcDbEntity
  8
0
  6
Continuous
 62
     7
100
AcDbCircle
 10
340.2578474894071
 20
89.18759479680682
 30
0.0
 40
0.1249999992
100
AcDbArc
 50
90.0
 51
270.0
  0
CIRCLE
  5
6FF9
330
6206
100
AcDbEntity
  8
0
  6
Continuous
 62
     7
100
AcDbCircle
 10
341.3828474894071
 20
91.86759479520691
 30
0.0
 40
0.3750000012
  0
ARC
  5
6FFA
330
6206
100
AcDbEntity
  8
0
  6
Continuous
 62
     7
100
AcDbCircle
 10
341.3828474894071
 20
91.76009479560695
 30
0.0
 40
0.3750000012
100
AcDbArc
 50
8.384559610500138
 51
171.6154403894998
  0
LINE
  5
701C
330
6206
100
AcDbEntity
  8
0
  6
Continuous
 62
     7
100
AcDbLine
 10
539.3828473314071
 20
92.77760016360685
 30
0.0
 11
539.3828473314071
 21
88.27760016360684
 31
0.0
  0
LINE
  5
701D
330
6206
100
AcDbEntity
  8
0
  6
Continuous
 62
     7
100
AcDbLine
 10
540.3828575670068
 20
77.22930276311325
 30
0.0
 11
540.382847332207
 21
89.31260016360687
 31
0.0
  0
LINE
  5
701E
330
6206
100
AcDbEntity
  8
0
  6
Continuous
 62
     7
100
AcDbLine
 10
542.3828460918071
 20
77.22930276311325
 30
0.0
 11
542.382847330207
 21
89.31260016360687
 31
0.0
  0
LINE
  5
701F
330
6206
100
AcDbEntity
  8
0
  6
Continuous
 62
     7
100
AcDbLine
 10
543.3828473310069
 20
88.27760016360684
 30
0.0
 11
543.3828473310069
 21
92.77760016360685
 31
0.0
  0
LINE
  5
7020
330
6206
100
AcDbEntity
  8
0
  6
Continuous
 62
     7
100
AcDbLine
 10
540.3828575670068
 20
77.22930276311325
 30
0.0
 11
542.3828460918071
 21
77.22930276311325
 31
0.0
  0
LINE
  5
7021
330
6206
100
AcDbEntity
  8
0
  6
Continuous
 62
     9
100
AcDbLine
 10
540.3828575670068
 20
77.26430081111323
 30
0.0
 11
542.3828460918071
 21
77.26430081111323
 31
0.0
  0
LINE
  5
7022
330
6206
100
AcDbEntity
  8
0
  6
Continuous
 62
     7
100
AcDbLine
 10
539.3828473314071
 20
88.27760016360684
 30
0.0
 11
540.382847332207
 21
88.27760016360684
 31
0.0
  0
LINE
  5
7023
330
6206
100
AcDbEntity
  8
0
  6
Continuous
 62
     7
100
AcDbLine
 10
542.382847330207
 20
88.27760016360684
 30
0.0
 11
543.3828473310069
 21
88.27760016360684
 31
0.0
  0
LINE
  5
7024
330
6206
100
AcDbEntity
  8
0
  6
Continuous
 62
     9
100
AcDbLine
 10
540.3828575670068
 20
89.03261066040682
 30
0.0
 11
542.3828460918071
 21
89.03261066040682
 31
0.0
  0
LINE
  5
7025
330
6206
100
AcDbEntity
  8
0
  6
Continuous
 62
     7
100
AcDbLine
 10
540.3828575670068
 20
89.25059918520686
 30
0.0
 11
542.3828460918071
 21
89.25059918520686
 31
0.0
  0
LINE
  5
7026
330
6206
100
AcDbEntity
  8
0
  6
Continuous
 62
     9
100
AcDbLine
 10
542.3828460918071
 20
89.2805940576069
 30
0.0
 11
540.3828575670068
 21
89.2805940576069
 31
0.0
  0
LINE
  5
7027
330
6206
100
AcDbEntity
  8
0
  6
Continuous
 62
     7
100
AcDbLine
 10
542.507852927407
 20
89.31259503720685
 30
0.0
 11
540.257850731407
 21
89.31259503720685
 31
0.0
  0
LINE
  5
7028
330
6206
100
AcDbEntity
  8
0
  6
Continuous
 62
     7
100
AcDbLine
 10
543.3828524394071
 20
92.77759503720687
 30
0.0
 11
539.3828512194071
 21
92.77759503720687
 31
0.0
  0
ARC
  5
702D
330
6206
100
AcDbEntity
  8
0
  6
Continuous
 62
     7
100
AcDbCircle
 10
542.507847333007
 20
89.18760016440684
 30
0.0
 40
0.1249999992
100
AcDbArc
 50
270.0
 51
90.0
  0
ARC
  5
702E
330
6206
100
AcDbEntity
  8
0
  6
Continuous
 62
     7
100
AcDbCircle
 10
540.257847333007
 20
89.18760016440684
 30
0.0
 40
0.1249999992
100
AcDbArc
 50
90.0
 51
270.0
  0
CIRCLE
  5
702F
330
6206
100
AcDbEntity
  8
0
  6
Continuous
 62
     7
100
AcDbCircle
 10
541.3828473330069
 20
91.86760016280691
 30
0.0
 40
0.3750000012
  0
ARC
  5
7030
330
6206
100
AcDbEntity
  8
0
  6
Continuous
 62
     7
100
AcDbCircle
 10
541.3828473330069
 20
91.76010016320697
 30
0.0
 40
0.3750000012
100
AcDbArc
 50
8.384559610500138
 51
171.6154403894998
  0
LINE
  5
705A
330
6206
100
AcDbEntity
  8
0
  6
Continuous
 62
     7
100
AcDbLine
 10
264.3686598270517
 20
92.68760016360692
 30
0.0
 11
264.3686598270517
 21
76.53010016400703
 31
0.0
  0
LINE
  5
705B
330
6206
100
AcDbEntity
  8
0
  6
Continuous
 62
     7
100
AcDbLine
 10
264.5566598262517
 20
76.5001001652069
 30
0.0
 11
264.5566598262517
 21
92.68760016360692
 31
0.0
  0
LINE
  5
705C
330
6206
100
AcDbEntity
  8
0
  6
Continuous
 62
     7
100
AcDbLine
 10
264.7446598254517
 20
89.28060016320689
 30
0.0
 11
264.7446598254517
 21
92.63510016480694
 31
0.0
  0
LINE
  5
705D
330
6206
100
AcDbEntity
  8
0
  6
Continuous
 62
     7
100
AcDbLine
 10
265.3696598286516
 20
77.00010016560691
 30
0.0
 11
265.3696598286516
 21
76.53010016400703
 31
0.0
  0
LINE
  5
705E
330
6206
100
AcDbEntity
  8
0
  6
Continuous
 62
     7
100
AcDbLine
 10
265.5576598278517
 20
76.53010016400703
 30
0.0
 11
265.5576598278517
 21
77.00010016560691
 31
0.0
  0
LINE
  5
7062
330
6206
100
AcDbEntity
  8
0
  6
Continuous
 62
     7
100
AcDbLine
 10
274.3056598286516
 20
77.00010016560691
 30
0.0
 11
274.3056598286516
 21
76.53010016400703
 31
0.0
  0
LINE
  5
7063
330
6206
100
AcDbEntity
  8
0
  6
Continuous
 62
     7
100
AcDbLine
 10
274.4936598278516
 20
76.53010016400703
 30
0.0
 11
274.4936598278516
 21
77.00010016560691
 31
0.0
  0
LINE
  5
7064
330
6206
100
AcDbEntity
  8
0
  6
Continuous
 62
     7
100
AcDbLine
 10
275.1266598266517
 20
92.77760016360691
 30
0.0
 11
275.1266598266517
 21
88.2776001636069
 31
0.0
  0
LINE
  5
7065
330
6206
100
AcDbEntity
  8
0
  6
Continuous
 62
     7
100
AcDbLine
 10
275.3066598266516
 20
76.5001001652069
 30
0.0
 11
275.3066598266516
 21
92.77760016360691
 31
0.0
  0
LINE
  5
7066
330
6206
100
AcDbEntity
  8
0
  6
Continuous
 62
     7
100
AcDbLine
 10
275.4946598258516
 20
76.53010016400703
 30
0.0
 11
275.4946598258516
 21
89.03260016280688
 31
0.0
  0
LINE
  5
7069
330
6206
100
AcDbEntity
  8
0
  6
Continuous
 62
     7
100
AcDbLine
 10
266.7966598254517
 20
74.50060016400692
 30
0.0
 11
266.8066598262517
 21
74.50060016400692
 31
0.0
  0
LINE
  5
706A
330
6206
100
AcDbEntity
  8
0
  6
Continuous
 62
     7
100
AcDbLine
 10
264.5866598286517
 20
76.31210016240704
 30
0.0
 11
265.3396598262517
 21
76.31210016240704
 31
0.0
  0
LINE
  5
706B
330
6206
100
AcDbEntity
  8
0
  6
Continuous
 62
     7
100
AcDbLine
 10
274.5236598266516
 20
76.31210016240704
 30
0.0
 11
275.2766598278516
 21
76.31210016240704
 31
0.0
  0
LINE
  5
706C
330
6206
100
AcDbEntity
  8
0
  6
Continuous
 62
     7
100
AcDbLine
 10
275.3066598266516
 20
76.5001001652069
 30
0.0
 11
264.5566598262517
 21
76.5001001652069
 31
0.0
  0
LINE
  5
706D
330
6206
100
AcDbEntity
  8
0
  6
Continuous
 62
     7
100
AcDbLine
 10
274.4936598278516
 20
77.00010016560691
 30
0.0
 11
274.3056598286516
 21
77.00010016560691
 31
0.0
  0
LINE
  5
706E
330
6206
100
AcDbEntity
  8
0
  6
Continuous
 62
     7
100
AcDbLine
 10
265.5576598278517
 20
77.00010016560691
 30
0.0
 11
265.3696598286516
 21
77.00010016560691
 31
0.0
  0
LINE
  5
706F
330
6206
100
AcDbEntity
  8
0
  6
Continuous
 62
     7
100
AcDbLine
 10
275.1266598266517
 20
88.2776001636069
 30
0.0
 11
275.3066598266516
 21
88.2776001636069
 31
0.0
  0
LINE
  5
7070
330
6206
100
AcDbEntity
  8
0
  6
Continuous
 62
     7
100
AcDbLine
 10
275.3066598266516
 20
89.0626001652069
 30
0.0
 11
264.5566598262517
 21
89.0626001652069
 31
0.0
  0
LINE
  5
7071
330
6206
100
AcDbEntity
  8
0
  6
Continuous
 62
     7
100
AcDbLine
 10
275.2766598278516
 20
89.25060016440687
 30
0.0
 11
264.7746598278517
 21
89.25060016440687
 31
0.0
  0
LINE
  5
7072
330
6206
100
AcDbEntity
  8
0
  6
Continuous
 62
     7
100
AcDbLine
 10
275.3066598266516
 20
89.31260016360694
 30
0.0
 11
275.1266598266517
 21
89.31260016360694
 31
0.0
  0
LINE
  5
7073
330
6206
100
AcDbEntity
  8
0
  6
Continuous
 62
     7
100
AcDbLine
 10
264.7446598254517
 20
89.54110016280692
 30
0.0
 11
264.5566598262517
 21
89.54110016280692
 31
0.0
  0
LINE
  5
7074
330
6206
100
AcDbEntity
  8
0
  6
Continuous
 62
     7
100
AcDbLine
 10
264.5566598262517
 20
89.59360016520696
 30
0.0
 11
264.3686598270517
 21
89.59360016520696
 31
0.0
  0
LINE
  5
7075
330
6206
100
AcDbEntity
  8
0
  6
Continuous
 62
     7
100
AcDbLine
 10
264.7446598254517
 20
89.97910016400686
 30
0.0
 11
264.5566598262517
 21
89.97910016400686
 31
0.0
  0
LINE
  5
7076
330
6206
100
AcDbEntity
  8
0
  6
Continuous
 62
     7
100
AcDbLine
 10
264.5566598262517
 20
90.03160016280691
 30
0.0
 11
264.3686598270517
 21
90.03160016280691
 31
0.0
  0
LINE
  5
7077
330
6206
100
AcDbEntity
  8
0
  6
Continuous
 62
     7
100
AcDbLine
 10
264.7446598254517
 20
91.3851001656069
 30
0.0
 11
264.5566598262517
 21
91.3851001656069
 31
0.0
  0
LINE
  5
7078
330
6206
100
AcDbEntity
  8
0
  6
Continuous
 62
     7
100
AcDbLine
 10
264.5566598262517
 20
91.43760016440689
 30
0.0
 11
264.3686598270517
 21
91.43760016440689
 31
0.0
  0
LINE
  5
7079
330
6206
100
AcDbEntity
  8
0
  6
Continuous
 62
     7
100
AcDbLine
 10
275.3066598266516
 20
91.49260016520697
 30
0.0
 11
275.1266598266517
 21
91.49260016520697
 31
0.0
  0
LINE
  5
707A
330
6206
100
AcDbEntity
  8
0
  6
Continuous
 62
     7
100
AcDbLine
 10
264.7446598254517
 20
92.13510016440688
 30
0.0
 11
264.5566598262517
 21
92.13510016440688
 31
0.0
  0
LINE
  5
707B
330
6206
100
AcDbEntity
  8
0
  6
Continuous
 62
     7
100
AcDbLine
 10
264.5566598262517
 20
92.18760016320691
 30
0.0
 11
264.3686598270517
 21
92.18760016320691
 31
0.0
  0
LINE
  5
707C
330
6206
100
AcDbEntity
  8
0
  6
Continuous
 62
     7
100
AcDbLine
 10
275.3066598266516
 20
92.24260016400689
 30
0.0
 11
275.1266598266517
 21
92.24260016400689
 31
0.0
  0
LINE
  5
707D
330
6206
100
AcDbEntity
  8
0
  6
Continuous
 62
     7
100
AcDbLine
 10
264.7446598254517
 20
92.63510016480694
 30
0.0
 11
264.5566598262517
 21
92.63510016480694
 31
0.0
  0
LINE
  5
707E
330
6206
100
AcDbEntity
  8
0
  6
Continuous
 62
     7
100
AcDbLine
 10
264.5566598262517
 20
92.68760016360692
 30
0.0
 11
264.3686598270517
 21
92.68760016360692
 31
0.0
  0
LINE
  5
707F
330
6206
100
AcDbEntity
  8
0
  6
Continuous
 62
     7
100
AcDbLine
 10
275.1266598266517
 20
92.77760016360691
 30
0.0
 11
275.3066598266516
 21
92.77760016360691
 31
0.0
  0
CIRCLE
  5
7080
330
6206
100
AcDbEntity
  8
0
  6
Continuous
 62
     7
100
AcDbCircle
 10
273.8066598254517
 20
78.12510016560691
 30
0.0
 40
0.6249999996
  0
ARC
  5
7081
330
6206
100
AcDbEntity
  8
0
  6
Continuous
 62
     7
100
AcDbCircle
 10
264.7746598278517
 20
89.28060016320689
 30
0.0
 40
0.0299999988
100
AcDbArc
 50
180.0
 51
270.0
  0
ARC
  5
7082
330
6206
100
AcDbEntity
  8
0
  6
Continuous
 62
     7
100
AcDbCircle
 10
275.2766598278516
 20
89.03260016280688
 30
0.0
 40
0.0299999988
100
AcDbArc
 50
0.0
 51
90.0
  0
ARC
  5
7083
330
6206
100
AcDbEntity
  8
0
  6
Continuous
 62
     7
100
AcDbCircle
 10
275.2766598278516
 20
76.53010016400703
 30
0.0
 40
0.0299999988
100
AcDbArc
 50
270.0
 51
0.0
  0
ARC
  5
7084
330
6206
100
AcDbEntity
  8
0
  6
Continuous
 62
     7
100
AcDbCircle
 10
274.5236598266516
 20
76.53010016400703
 30
0.0
 40
0.0299999988
100
AcDbArc
 50
180.0
 51
270.0
  0
ARC
  5
7085
330
6206
100
AcDbEntity
  8
0
  6
Continuous
 62
     7
100
AcDbCircle
 10
275.2766598278516
 20
76.53010016400703
 30
0.0
 40
0.2180000016
100
AcDbArc
 50
270.0
 51
0.0
  0
ARC
  5
7086
330
6206
100
AcDbEntity
  8
0
  6
Continuous
 62
     7
100
AcDbCircle
 10
274.5236598266516
 20
76.53010016400703
 30
0.0
 40
0.2180000016
100
AcDbArc
 50
180.0
 51
270.0
  0
ARC
  5
7087
330
6206
100
AcDbEntity
  8
0
  6
Continuous
 62
     7
100
AcDbCircle
 10
275.2766598278516
 20
89.03260016280688
 30
0.0
 40
0.2180000016
100
AcDbArc
 50
0.0
 51
90.0
  0
ARC
  5
7088
330
6206
100
AcDbEntity
  8
0
  6
Continuous
 62
     7
100
AcDbCircle
 10
264.7746598278517
 20
89.28060016320689
 30
0.0
 40
0.2180000016
100
AcDbArc
 50
180.0
 51
270.0
  0
ARC
  5
7089
330
6206
100
AcDbEntity
  8
0
  6
Continuous
 62
     7
100
AcDbCircle
 10
264.5866598286517
 20
76.53010016400703
 30
0.0
 40
0.0299999988
100
AcDbArc
 50
180.0
 51
270.0
  0
ARC
  5
708A
330
6206
100
AcDbEntity
  8
0
  6
Continuous
 62
     7
100
AcDbCircle
 10
265.3396598262517
 20
76.53010016400703
 30
0.0
 40
0.0299999988
100
AcDbArc
 50
270.0
 51
0.0
  0
ARC
  5
708B
330
6206
100
AcDbEntity
  8
0
  6
Continuous
 62
     7
100
AcDbCircle
 10
265.3396598262517
 20
76.53010016400703
 30
0.0
 40
0.2180000016
100
AcDbArc
 50
270.0
 51
0.0
  0
ARC
  5
708C
330
6206
100
AcDbEntity
  8
0
  6
Continuous
 62
     7
100
AcDbCircle
 10
264.5866598286517
 20
76.53010016400703
 30
0.0
 40
0.2180000016
100
AcDbArc
 50
180.0
 51
270.0
  0
DIMENSION
  5
708D
330
6206
100
AcDbEntity
  8
7_DIM
  6
Continuous
 62
     2
100
AcDbDimension
  2
*D73
 10
287.8156428137297
 20
89.0626001652069
 30
0.0
 11
300.8784999565869
 21
91.94260016520694
 31
0.0
 70
    32
 71
     5
 42
12.5625
  3
STANDARD
100
AcDbAlignedDimension
 13
275.3066598266516
 23
76.5001001652069
 33
0.0
 14
275.3066598266516
 24
89.0626001652069
 34
0.0
 50
90.0
100
AcDbRotatedDimension
1001
ACAD
1000
DSTYLE
1002
{
1070
    40
1040
36.0
1070
    41
1040
0.08
1070
    42
1040
0.06
1070
    43
1040
0.418
1070
    44
1040
0.06
1070
    47
1040
0.0
1070
    48
1040
0.0
1070
   141
1040
0.0
1070
   271
1070
     2
1070
   272
1070
     2
1070
   340
1005
620B
1002
}
  0
DIMENSION
  5
708E
330
6206
100
AcDbEntity
  8
7_DIM
  6
Continuous
 62
     2
100
AcDbDimension
  2
*D74
 10
275.3066598266516
 20
100.8579479177261
 30
0.0
 11
291.2495169695088
 21
100.8579479177261
 31
0.0
 70
    32
 71
     5
 42
10.75000000039995
  3
STANDARD
100
AcDbAlignedDimension
 13
264.5566598262517
 23
89.0626001652069
 33
0.0
 14
275.3066598266516
 24
89.0626001652069
 34
0.0
100
AcDbRotatedDimension
1001
ACAD
1000
DSTYLE
1002
{
1070
    40
1040
36.0
1070
    41
1040
0.08
1070
    42
1040
0.06
1070
    43
1040
0.418
1070
    44
1040
0.06
1070
    47
1040
0.0
1070
    48
1040
0.0
1070
   141
1040
0.0
1070
   271
1070
     2
1070
   272
1070
     2
1070
   340
1005
620B
1002
}
  0
VIEWPORT
  5
147
102
{ACAD_XDICTIONARY
360
7292
102
}
330
6202
100
AcDbEntity
 67
     1
  8
0
100
AcDbViewport
 10
17.18541702709924
 20
4.018749890365
 30
0.0
 40
11.01779643804293
 41
8.997673592711564
 68
     1
 69
     1
 12
17.18541702709924
 22
4.018749890365
 13
0.0
 23
0.0
 14
1.0
 24
1.0
 15
0.0
 25
0.0
 16
0.0
 26
0.0
 36
1.0
 17
0.0
 27
0.0
 37
0.0
 42
50.0
 43
0.0
 44
0.0
 45
8.997673592711564
 50
0.0
 51
0.0
 72
   100
 90
    32800
  1

281
     0
 71
     0
 74
     0
110
0.0
120
0.0
130
0.0
111
0.0
121
0.0
131
0.0
112
0.0
122
0.0
132
0.0
 79
     0
146
0.0
  0
VIEWPORT
  5
148
102
{ACAD_XDICTIONARY
360
7294
102
}
330
6202
100
AcDbEntity
 67
     1
  8
VPORT
100
AcDbViewport
 10
5.249999999999999
 20
4.303785770131991
 30
0.0
 40
10.125
 41
6.519924175723276
 68
     2
 69
     2
 12
-40.01021678941352
 22
22.62572039983934
 13
0.0
 23
0.0
 14
1.0
 24
1.0
 15
0.0
 25
0.0
 16
0.0
 26
0.0
 36
1.0
 17
0.0
 27
0.0
 37
0.0
 42
50.0
 43
0.0
 44
0.0
 45
195.5977765253791
 50
0.0
 51
0.0
 72
   100
 90
    32768
  1

281
     0
 71
     0
 74
     0
110
0.0
120
0.0
130
0.0
111
0.0
121
0.0
131
0.0
112
0.0
122
0.0
132
0.0
 79
     0
146
0.0
  0
POINT
  5
2D8
330
6202
100
AcDbEntity
 67
     1
  8
6
100
AcDbPoint
 10
10.5
 20
8.0
 30
0.0
  0
POINT
  5
2D9
330
6202
100
AcDbEntity
 67
     1
  8
6
100
AcDbPoint
 10
0.0
 20
0.0
 30
0.0
  0
LINE
  5
2DA
330
6202
100
AcDbEntity
 67
     1
  8
4
100
AcDbLine
 10
10.3125
 20
7.563747857993631
 30
0.0
 11
0.1874999999999979
 21
7.563747857993631
 31
0.0
  0
LINE
  5
2DB
330
6202
100
AcDbEntity
 67
     1
  8
4
100
AcDbLine
 10
0.1874999999999997
 20
0.1875
 30
0.0
 11
10.3125
 21
0.1875
 31
0.0
  0
LINE
  5
2DC
330
6202
100
AcDbEntity
 67
     1
  8
4
100
AcDbLine
 10
0.1874999999999982
 20
7.563747857993631
 30
0.0
 11
0.1875
 21
0.1875
 31
0.0
  0
LINE
  5
2DD
330
6202
100
AcDbEntity
 67
     1
  8
4
100
AcDbLine
 10
0.1874999999999979
 20
1.043823682270353
 30
0.0
 11
5.611711773265297
 21
1.043823682270353
 31
0.0
  0
LINE
  5
2DE
330
6202
100
AcDbEntity
 67
     1
  8
4
100
AcDbLine
 10
0.1874999999999997
 20
0.3874999999999993
 30
0.0
 11
5.611711773265295
 21
0.3874999999999993
 31
0.0
  0
LINE
  5
2DF
330
6202
100
AcDbEntity
 67
     1
  8
4
100
AcDbLine
 10
0.1874999999999997
 20
0.5875000000000004
 30
0.0
 11
5.611711773265295
 21
0.5875000000000004
 31
0.0
  0
TEXT
  5
2E0
330
6202
100
AcDbEntity
 67
     1
  8
6
100
AcDbText
 10
0.293700576641617
 20
0.2609349338490334
 30
0.0
 40
0.0625
  1
APP'D BY:
  7
ROMANS
 72
     1
 11
0.5288196242606647
 21
0.2609349338490334
 31
0.0
100
AcDbText
  0
TEXT
  5
2E1
330
6202
100
AcDbEntity
 67
     1
  8
6
100
AcDbText
 10
0.2371529575939981
 20
0.4609349338490337
 30
0.0
 40
0.0625
  1
REVISED BY:
  7
ROMANS
 72
     1
 11
0.5288196242606647
 21
0.4609349338490337
 31
0.0
100
AcDbText
  0
TEXT
  5
2E2
330
6202
100
AcDbEntity
 67
     1
  8
6
100
AcDbText
 10
0.3284179069150307
 20
0.8006137309474095
 30
0.0
 40
0.0625
  1
REVISION
  7
ROMANS
100
AcDbText
  0
LINE
  5
2E3
330
6202
100
AcDbEntity
 67
     1
  8
4
100
AcDbLine
 10
0.8927117732653011
 20
1.043823682270353
 30
0.0
 11
0.8927117732653016
 21
0.1875
 31
0.0
  0
LINE
  5
2E4
330
6202
100
AcDbEntity
 67
     1
  8
4
100
AcDbLine
 10
1.8365117732653
 20
0.1875
 30
0.0
 11
1.8365117732653
 21
1.043823682270353
 31
0.0
  0
LINE
  5
2EB
330
6202
100
AcDbEntity
 67
     1
  8
4
100
AcDbLine
 10
2.780311773265298
 20
0.1875
 30
0.0
 11
2.780311773265298
 21
1.043823682270353
 31
0.0
  0
LINE
  5
2EC
330
6202
100
AcDbEntity
 67
     1
  8
4
100
AcDbLine
 10
3.724111773265298
 20
0.1875
 30
0.0
 11
3.724111773265298
 21
1.043823682270353
 31
0.0
  0
LINE
  5
2ED
330
6202
100
AcDbEntity
 67
     1
  8
4
100
AcDbLine
 10
4.667911773265299
 20
0.1875
 30
0.0
 11
4.667911773265299
 21
1.043823682270353
 31
0.0
  0
LINE
  5
2EE
330
6202
100
AcDbEntity
 67
     1
  8
4
100
AcDbLine
 10
5.611711773265297
 20
0.1875
 30
0.0
 11
5.611711773265297
 21
1.043823682270353
 31
0.0
  0
LINE
  5
2EF
330
6202
100
AcDbEntity
 67
     1
  8
4
100
AcDbLine
 10
10.3125
 20
7.563747857993631
 30
0.0
 11
10.3125
 21
0.1875
 31
0.0
  0
LINE
  5
2F0
330
6202
100
AcDbEntity
 67
     1
  8
4
100
AcDbLine
 10
6.068251249859943
 20
0.8563236822703537
 30
0.0
 11
10.3125
 21
0.8563236822703537
 31
0.0
  0
LINE
  5
2F1
330
6202
100
AcDbEntity
 67
     1
  8
4
100
AcDbLine
 10
6.068251249859942
 20
0.5593236822703549
 30
0.0
 11
10.3125
 21
0.5593236822703532
 31
0.0
  0
LINE
  5
2F2
330
6202
100
AcDbEntity
 67
     1
  8
4
100
AcDbLine
 10
6.068251249859943
 20
1.106323682270353
 30
0.0
 11
10.3125
 21
1.106323682270353
 31
0.0
  0
TEXT
  5
2F3
330
6202
100
AcDbEntity
 67
     1
  8
6
100
AcDbText
 10
6.405666744143849
 20
0.6214408475205602
 30
0.0
 40
0.1875
  1
FABRIC, MW 72" x 212" VA. (10" BLACK DROP)PROFESSIONAL
 41
0.4281763108098881
  7
ROMANS
 72
     5
 11
10.28983756363355
 21
0.6214408475205602
 31
0.0
100
AcDbText
  0
TEXT
  5
2F4
330
6202
100
AcDbEntity
 67
     1
  8
6
100
AcDbText
 10
9.720237605594507
 20
0.9307097602817879
 30
0.0
 40
0.1
  1
SERVER
  7
ROMANS
100
AcDbText
  0
TEXT
  5
2F5
330
6202
100
AcDbEntity
 67
     1
  8
2
100
AcDbText
 10
8.993022498447006
 20
0.2498086421665677
 30
0.0
 40
0.25
  1

 41
0.8442362587260245
  7
ROMANS
 72
     5
 11
10.16892300167254
 21
0.2498086421665677
 31
0.0
100
AcDbText
  0
TEXT
  5
2F6
330
6202
100
AcDbEntity
 67
     1
  8
6
100
AcDbText
 10
7.340546753747763
 20
0.8892366572728324
 30
0.0
 40
0.1
  1
4-4-00
  7
ROMANS
100
AcDbText
  0
TEXT
  5
2F7
330
6202
100
AcDbEntity
 67
     1
  8
6
100
AcDbText
 10
6.283049081796955
 20
0.3719284050817269
 30
0.0
 40
0.125
  1
DA-LITE SCREEN CO. INC.
 41
0.8981829707687797
  7
ROMANS
 72
     5
 11
8.528506508718905
 21
0.3719284050817269
 31
0.0
100
AcDbText
  0
TEXT
  5
2F8
330
6202
100
AcDbEntity
 67
     1
  8
6
100
AcDbText
 10
6.862343375437331
 20
0.2473327663668625
 30
0.0
 40
0.0625
  1
WARSAW, INDIANA, USA
  7
ROMANS
 72
     1
 11
7.405498137342092
 21
0.2473327663668625
 31
0.0
100
AcDbText
  0
LINE
  5
2F9
330
6202
100
AcDbEntity
 67
     1
  8
4
100
AcDbLine
 10
6.068251249859943
 20
1.106323682270353
 30
0.0
 11
6.06825124985994
 21
0.1875
 31
0.0
  0
TEXT
  5
2FA
330
6202
100
AcDbEntity
 67
     1
  8
6
100
AcDbText
 10
6.831082285073367
 20
0.8997338185322012
 30
0.0
 40
0.1
  1
K.J.L.
  7
ROMANS
100
AcDbText
  0
TEXT
  5
2FB
330
6202
100
AcDbEntity
 67
     1
  8
6
100
AcDbText
 10
6.708152426932588
 20
1.025505243570789
 30
0.0
 40
0.0625
  1
DRAWN BY:
  7
ROMANS
100
AcDbText
  0
LINE
  5
2FC
330
6202
100
AcDbEntity
 67
     1
  8
4
100
AcDbLine
 10
6.686371249859943
 20
0.8563236822703537
 30
0.0
 11
6.686371249859947
 21
1.106323682270353
 31
0.0
  0
TEXT
  5
2FD
330
6202
100
AcDbEntity
 67
     1
  8
6
100
AcDbText
 10
6.184557248439689
 20
0.8997338185322012
 30
0.0
 40
0.1
  1
1=30
  7
ROMANS
100
AcDbText
  0
TEXT
  5
2FE
330
6202
100
AcDbEntity
 67
     1
  8
6
100
AcDbText
 10
6.084676155275304
 20
0.7688091244969968
 30
0.0
 40
0.0625
  1
NAME:
  7
ROMANS
100
AcDbText
  0
TEXT
  5
2FF
330
6202
100
AcDbEntity
 67
     1
  8
6
100
AcDbText
 10
6.090032426932585
 20
1.025505243570789
 30
0.0
 40
0.0625
  1
SCALE:
  7
ROMANS
100
AcDbText
  0
LINE
  5
300
330
6202
100
AcDbEntity
 67
     1
  8
4
100
AcDbLine
 10
7.304491249859945
 20
0.8563236822703537
 30
0.0
 11
7.304491249859945
 21
1.106323682270353
 31
0.0
  0
TEXT
  5
301
330
6202
100
AcDbEntity
 67
     1
  8
6
100
AcDbText
 10
7.326272426932589
 20
1.025505243570789
 30
0.0
 40
0.0625
  1
DATE:
  7
ROMANS
100
AcDbText
  0
LINE
  5
302
330
6202
100
AcDbEntity
 67
     1
  8
4
100
AcDbLine
 10
8.687500000000001
 20
0.5593236822703549
 30
0.0
 11
8.687500000000001
 21
0.1875
 31
0.0
  0
TEXT
  5
303
330
6202
100
AcDbEntity
 67
     1
  8
6
100
AcDbText
 10
8.705923682171768
 20
0.424148832485983
 30
0.0
 40
0.1
  1
NO:
  7
ROMANS
100
AcDbText
  0
TEXT
  5
304
330
6202
100
AcDbEntity
 67
     1
  8
6
100
AcDbText
 10
8.301687736905622
 20
0.8997338185322012
 30
0.0
 40
0.1
  1

  7
ROMANS
100
AcDbText
  0
LINE
  5
305
330
6202
100
AcDbEntity
 67
     1
  8
4
100
AcDbLine
 10
8.191151249859945
 20
0.8563236822703537
 30
0.0
 11
8.191151249859945
 21
1.106323682270353
 31
0.0
  0
LINE
  5
306
330
6202
100
AcDbEntity
 67
     1
  8
4
100
AcDbLine
 10
8.809271249859943
 20
0.8563236822703537
 30
0.0
 11
8.809271249859945
 21
1.106323682270353
 31
0.0
  0
TEXT
  5
307
330
6202
100
AcDbEntity
 67
     1
  8
6
100
AcDbText
 10
8.212932426932587
 20
1.025505243570789
 30
0.0
 40
0.0625
  1
APP'D BY:
  7
ROMANS
100
AcDbText
  0
TEXT
  5
308
330
6202
100
AcDbEntity
 67
     1
  8
6
100
AcDbText
 10
8.828585991174062
 20
0.8997338185322012
 30
0.0
 40
0.1
  1

  7
ROMANS
100
AcDbText
  0
LINE
  5
309
330
6202
100
AcDbEntity
 67
     1
  8
4
100
AcDbLine
 10
9.695931249859944
 20
0.8563236822703537
 30
0.0
 11
9.695931249859944
 21
1.106323682270353
 31
0.0
  0
TEXT
  5
30A
330
6202
100
AcDbEntity
 67
     1
  8
6
100
AcDbText
 10
8.831052426932586
 20
1.025505243570789
 30
0.0
 40
0.0625
  1
DATE:
  7
ROMANS
100
AcDbText
  0
LINE
  5
30B
330
6202
100
AcDbEntity
 67
     1
  8
4
100
AcDbLine
 10
10.30795390961487
 20
7.064995715987262
 30
0.0
 11
7.6875
 21
7.064995715987262
 31
0.0
  0
TEXT
  5
30C
330
6202
100
AcDbEntity
 67
     1
  8
2
100
AcDbText
 10
8.993022498447002
 20
7.204857848852406
 30
0.0
 40
0.25
  1

 41
0.8442362587260245
  7
ROMANS
 72
     5
 11
10.16892300167253
 21
7.204857848852406
 31
0.0
100
AcDbText
  0
LINE
  5
30D
330
6202
100
AcDbEntity
 67
     1
  8
4
100
AcDbLine
 10
7.6875
 20
7.064995715987262
 30
0.0
 11
7.6875
 21
7.563747857993631
 31
0.0
  0
LINE
  5
30E
330
6202
100
AcDbEntity
 67
     1
  8
4
100
AcDbLine
 10
8.6875
 20
7.563747857993631
 30
0.0
 11
8.6875
 21
7.064995715987262
 31
0.0
  0
TEXT
  5
30F
330
6202
100
AcDbEntity
 67
     1
  8
6
100
AcDbText
 10
7.892493456978839
 20
7.135712081782835
 30
0.0
 40
0.1
  1
4-4-00
  7
ROMANS
 72
     1
 11
8.206779171264553
 21
7.135712081782835
 31
0.0
100
AcDbText
  0
TEXT
  5
310
330
6202
100
AcDbEntity
 67
     1
  8
6
100
AcDbText
 10
7.725520124005003
 20
7.35167748707913
 30
0.0
 40
0.0625
  1
ANY PRINT DATED PRIOR TO:
 41
0.6692631556961441
  7
ROMANS
 72
     5
 11
8.645756963087201
 21
7.35167748707913
 31
0.0
100
AcDbText
  0
LINE
  5
311
330
6202
100
AcDbEntity
 67
     1
  8
4
100
AcDbLine
 10
7.6875
 20
7.314995715987262
 30
0.0
 11
8.6875
 21
7.314995715987262
 31
0.0
  0
TEXT
  5
312
330
6202
100
AcDbEntity
 67
     1
  8
6
100
AcDbText
 10
7.725520124005003
 20
7.4558441537458
 30
0.0
 40
0.0625
  1
THIS PRINT SUPERSEDES
 41
0.7827837415990349
  7
ROMANS
 72
     5
 11
8.645756963087201
 21
7.4558441537458
 31
0.0
100
AcDbText
  0
TEXT
  5
313
330
6202
100
AcDbEntity
 67
     1
  8
6
100
AcDbText
 10
8.705923682171768
 20
7.428573008209258
 30
0.0
 40
0.1
  1
NO:
  7
ROMANS
100
AcDbText
  0
TEXT
  5
26F8
330
6202
100
AcDbEntity
 67
     1
  8
6
100
AcDbText
 10
8.335862285073368
 20
0.8997338185322012
 30
0.0
 40
0.1
  1

  7
ROMANS
100
AcDbText
  0
TEXT
  5
26F9
330
6202
100
AcDbEntity
 67
     1
  8
6
100
AcDbText
 10
8.855020363997127
 20
0.8878879036787521
 30
0.0
 40
0.1
  1

  7
ROMANS
100
AcDbText
  0
TEXT
  5
2707
330
6202
100
AcDbEntity
 67
     1
  8
6
100
AcDbText
 10
0.9120783890016641
 20
0.7334782903849693
 30
0.0
 40
0.0625
  1

  7
ROMANS
100
AcDbText
  0
TEXT
  5
2708
330
6202
100
AcDbEntity
 67
     1
  8
6
100
AcDbText
 10
0.9120783890016641
 20
0.6322878141944929
 30
0.0
 40
0.0625
  1

  7
ROMANS
100
AcDbText
  0
TEXT
  5
2709
330
6202
100
AcDbEntity
 67
     1
  8
6
100
AcDbText
 10
0.9530515426424491
 20
0.4548511939795148
 30
0.0
 40
0.0625
  1

  7
ROMANS
100
AcDbText
  0
TEXT
  5
270A
330
6202
100
AcDbEntity
 67
     1
  8
6
100
AcDbText
 10
0.9530515426424491
 20
0.2548511939795146
 30
0.0
 40
0.0625
  1

  7
ROMANS
100
AcDbText
  0
TEXT
  5
2BE2
330
6202
100
AcDbEntity
 67
     1
  8
6
100
AcDbText
 10
8.023989902279261
 20
1.547089843153679
 30
0.0
 40
0.1
  1
SECTION A-A
  7
ROMANS
 72
     1
 11
8.531132759422117
 21
1.547089843153679
 31
0.0
100
AcDbText
  0
TEXT
  5
2BE3
330
6202
100
AcDbEntity
 67
     1
  8
6
100
AcDbText
 10
7.900180378469736
 20
1.385185081248917
 30
0.0
 40
0.1
  1
DOUBLE SEAMED
  7
ROMANS
 72
     1
 11
8.531132759422117
 21
1.385185081248917
 31
0.0
100
AcDbText
  0
TEXT
  5
2BE4
330
6202
100
AcDbEntity
 67
     1
  8
6
100
AcDbText
 10
8.238275616564974
 20
1.223280319344155
 30
0.0
 40
0.1
  1
POCKET
  7
ROMANS
 72
     1
 11
8.531132759422117
 21
1.223280319344155
 31
0.0
100
AcDbText
  0
TEXT
  5
4D20
330
6202
100
AcDbEntity
 67
     1
  8
6
100
AcDbText
 10
8.335862285073368
 20
0.8997338185322012
 30
0.0
 40
0.1
  1
 
  7
ROMANS
100
AcDbText
  0
TEXT
  5
4D21
330
6202
100
AcDbEntity
 67
     1
  8
6
100
AcDbText
 10
8.845326753747761
 20
0.8892366572728324
 30
0.0
 40
0.1
  1
 
  7
ROMANS
100
AcDbText
  0
TEXT
  5
4D28
330
6202
100
AcDbEntity
 67
     1
  8
6
100
AcDbText
 10
0.9530515426424491
 20
0.2548511939795146
 30
0.0
 40
0.0625
  1

  7
ROMANS
100
AcDbText
  0
TEXT
  5
4ECE
330
6202
100
AcDbEntity
 67
     1
  8
6
100
AcDbText
 10
1.092742698371639
 20
0.8208464679365516
 30
0.0
 40
0.0625
  1

  7
ROMANS
100
AcDbText
  0
TEXT
  5
4ECF
330
6202
100
AcDbEntity
 67
     1
  8
6
100
AcDbText
 10
1.092742698371639
 20
0.9353724645342886
 30
0.0
 40
0.0625
  1

  7
ROMANS
100
AcDbText
  0
VIEWPORT
  5
59DE
102
{ACAD_XDICTIONARY
360
7296
102
}
330
6202
100
AcDbEntity
 67
     1
  8
VPORT
100
AcDbViewport
 10
16.99352584293641
 20
4.397003745318357
 30
0.0
 40
10.01256933124198
 41
6.441947565543182
 68
     3
 69
     3
 12
409.4636512499806
 22
39.89254534040481
 13
0.0
 23
0.0
 14
1.0
 24
1.0
 15
0.0
 25
0.0
 16
0.0
 26
0.0
 36
1.0
 17
0.0
 27
0.0
 37
0.0
 42
50.0
 43
0.0
 44
0.0
 45
193.2584269662955
 50
0.0
 51
0.0
 72
   100
 90
    32768
  1

281
     0
 71
     0
 74
     0
110
0.0
120
0.0
130
0.0
111
0.0
121
0.0
131
0.0
112
0.0
122
0.0
132
0.0
 79
     0
146
0.0
  0
LINE
  5
59E0
330
6202
100
AcDbEntity
 67
     1
  8
4
100
AcDbLine
 10
11.94241359552768
 20
0.1875
 30
0.0
 11
22.06741359552768
 21
0.1875
 31
0.0
  0
LINE
  5
59E1
330
6202
100
AcDbEntity
 67
     1
  8
4
100
AcDbLine
 10
22.06741359552768
 20
7.563747857993631
 30
0.0
 11
11.94241359552768
 21
7.563747857993631
 31
0.0
  0
LINE
  5
59E2
330
6202
100
AcDbEntity
 67
     1
  8
4
100
AcDbLine
 10
11.94241359552768
 20
7.563747857993631
 30
0.0
 11
11.94241359552768
 21
0.1875
 31
0.0
  0
LINE
  5
59E3
330
6202
100
AcDbEntity
 67
     1
  8
4
100
AcDbLine
 10
11.94241359552768
 20
0.5875000000000004
 30
0.0
 11
17.36662536879298
 21
0.5875000000000004
 31
0.0
  0
LINE
  5
59E4
330
6202
100
AcDbEntity
 67
     1
  8
4
100
AcDbLine
 10
11.94241359552768
 20
0.3874999999999993
 30
0.0
 11
17.36662536879298
 21
0.3874999999999993
 31
0.0
  0
LINE
  5
59E5
330
6202
100
AcDbEntity
 67
     1
  8
4
100
AcDbLine
 10
11.94241359552768
 20
1.043823682270353
 30
0.0
 11
17.36662536879298
 21
1.043823682270353
 31
0.0
  0
TEXT
  5
59E6
330
6202
100
AcDbEntity
 67
     1
  8
6
100
AcDbText
 10
12.08333150244272
 20
0.8006137309474095
 30
0.0
 40
0.0625
  1
REVISION
  7
ROMANS
100
AcDbText
  0
TEXT
  5
59E7
330
6202
100
AcDbEntity
 67
     1
  8
6
100
AcDbText
 10
11.99206655312168
 20
0.4609349338490337
 30
0.0
 40
0.0625
  1
REVISED BY:
  7
ROMANS
 72
     1
 11
12.28373321978835
 21
0.4609349338490337
 31
0.0
100
AcDbText
  0
TEXT
  5
59E8
330
6202
100
AcDbEntity
 67
     1
  8
6
100
AcDbText
 10
12.0486141721693
 20
0.2609349338490334
 30
0.0
 40
0.0625
  1
APP'D BY:
  7
ROMANS
 72
     1
 11
12.28373321978835
 21
0.2609349338490334
 31
0.0
100
AcDbText
  0
POINT
  5
59E9
330
6202
100
AcDbEntity
 67
     1
  8
6
100
AcDbPoint
 10
11.75491359552768
 20
0.0
 30
0.0
  0
LINE
  5
59EA
330
6202
100
AcDbEntity
 67
     1
  8
4
100
AcDbLine
 10
13.59142536879299
 20
0.1875
 30
0.0
 11
13.59142536879299
 21
1.043823682270353
 31
0.0
  0
LINE
  5
59EB
330
6202
100
AcDbEntity
 67
     1
  8
4
100
AcDbLine
 10
12.64762536879299
 20
1.043823682270353
 30
0.0
 11
12.64762536879299
 21
0.1875
 31
0.0
  0
LINE
  5
59EC
330
6202
100
AcDbEntity
 67
     1
  8
4
100
AcDbLine
 10
15.47902536879299
 20
0.1875
 30
0.0
 11
15.47902536879299
 21
1.043823682270353
 31
0.0
  0
LINE
  5
59ED
330
6202
100
AcDbEntity
 67
     1
  8
4
100
AcDbLine
 10
14.53522536879298
 20
0.1875
 30
0.0
 11
14.53522536879298
 21
1.043823682270353
 31
0.0
  0
LINE
  5
59EE
330
6202
100
AcDbEntity
 67
     1
  8
4
100
AcDbLine
 10
17.36662536879298
 20
0.1875
 30
0.0
 11
17.36662536879298
 21
1.043823682270353
 31
0.0
  0
LINE
  5
59EF
330
6202
100
AcDbEntity
 67
     1
  8
4
100
AcDbLine
 10
16.42282536879299
 20
0.1875
 30
0.0
 11
16.42282536879299
 21
1.043823682270353
 31
0.0
  0
LINE
  5
59F0
330
6202
100
AcDbEntity
 67
     1
  8
4
100
AcDbLine
 10
22.06741359552768
 20
7.563747857993631
 30
0.0
 11
22.06741359552768
 21
0.1875
 31
0.0
  0
TEXT
  5
59F4
330
6202
100
AcDbEntity
 67
     1
  8
6
100
AcDbText
 10
21.4751512011222
 20
0.9307097602817879
 30
0.0
 40
0.1
  1
SERVER
  7
ROMANS
100
AcDbText
  0
TEXT
  5
59F5
330
6202
100
AcDbEntity
 67
     1
  8
6
100
AcDbText
 10
18.16058033967154
 20
0.6214408475205602
 30
0.0
 40
0.1875
  1
FABRIC, MW 72" x 212" VA. (10" BLACK DROP) PROFESSIONAL
 41
0.418306874220216
  7
ROMANS
 72
     5
 11
22.03365380901407
 21
0.6214408475205602
 31
0.0
100
AcDbText
  0
LINE
  5
59F6
330
6202
100
AcDbEntity
 67
     1
  8
4
100
AcDbLine
 10
17.82316484538762
 20
1.106323682270353
 30
0.0
 11
22.06741359552768
 21
1.106323682270353
 31
0.0
  0
LINE
  5
59F7
330
6202
100
AcDbEntity
 67
     1
  8
4
100
AcDbLine
 10
17.82316484538762
 20
0.5593236822703549
 30
0.0
 11
22.06741359552768
 21
0.5593236822703532
 31
0.0
  0
LINE
  5
59F8
330
6202
100
AcDbEntity
 67
     1
  8
4
100
AcDbLine
 10
17.82316484538762
 20
0.8563236822703537
 30
0.0
 11
22.06741359552768
 21
0.8563236822703537
 31
0.0
  0
TEXT
  5
59F9
330
6202
100
AcDbEntity
 67
     1
  8
6
100
AcDbText
 10
18.61725697096501
 20
0.2473327663668625
 30
0.0
 40
0.0625
  1
WARSAW, INDIANA, USA
  7
ROMANS
 72
     1
 11
19.16041173286977
 21
0.2473327663668625
 31
0.0
100
AcDbText
  0
TEXT
  5
59FA
330
6202
100
AcDbEntity
 67
     1
  8
6
100
AcDbText
 10
18.03796267732464
 20
0.3719284050817269
 30
0.0
 40
0.125
  1
DA-LITE SCREEN CO. INC.
 41
0.8981829707687852
  7
ROMANS
 72
     5
 11
20.2834201042466
 21
0.3719284050817269
 31
0.0
100
AcDbText
  0
TEXT
  5
59FB
330
6202
100
AcDbEntity
 67
     1
  8
6
100
AcDbText
 10
19.09546034927545
 20
0.889236657272832
 30
0.0
 40
0.1
  1
4-4-00
  7
ROMANS
100
AcDbText
  0
LINE
  5
59FC
330
6202
100
AcDbEntity
 67
     1
  8
4
100
AcDbLine
 10
17.82316484538762
 20
1.106323682270353
 30
0.0
 11
17.82316484538762
 21
0.1875
 31
0.0
  0
TEXT
  5
59FD
330
6202
100
AcDbEntity
 67
     1
  8
6
100
AcDbText
 10
18.46306602246027
 20
1.025505243570789
 30
0.0
 40
0.0625
  1
DRAWN BY:
  7
ROMANS
100
AcDbText
  0
TEXT
  5
59FE
330
6202
100
AcDbEntity
 67
     1
  8
6
100
AcDbText
 10
18.58599588060105
 20
0.8997338185322012
 30
0.0
 40
0.1
  1
K.J.L.
  7
ROMANS
100
AcDbText
  0
TEXT
  5
59FF
330
6202
100
AcDbEntity
 67
     1
  8
6
100
AcDbText
 10
17.93947084396737
 20
0.8997338185322012
 30
0.0
 40
0.1
  1
1=30
  7
ROMANS
100
AcDbText
  0
LINE
  5
5A00
330
6202
100
AcDbEntity
 67
     1
  8
4
100
AcDbLine
 10
18.44128484538763
 20
0.8563236822703537
 30
0.0
 11
18.44128484538763
 21
1.106323682270353
 31
0.0
  0
TEXT
  5
5A01
330
6202
100
AcDbEntity
 67
     1
  8
6
100
AcDbText
 10
17.83958975080299
 20
0.7688091244969968
 30
0.0
 40
0.0625
  1
NAME:
  7
ROMANS
100
AcDbText
  0
TEXT
  5
5A02
330
6202
100
AcDbEntity
 67
     1
  8
6
100
AcDbText
 10
17.84494602246027
 20
1.025505243570789
 30
0.0
 40
0.0625
  1
SCALE:
  7
ROMANS
100
AcDbText
  0
LINE
  5
5A03
330
6202
100
AcDbEntity
 67
     1
  8
4
100
AcDbLine
 10
19.05940484538763
 20
0.8563236822703537
 30
0.0
 11
19.05940484538763
 21
1.106323682270353
 31
0.0
  0
TEXT
  5
5A04
330
6202
100
AcDbEntity
 67
     1
  8
6
100
AcDbText
 10
19.08118602246028
 20
1.025505243570789
 30
0.0
 40
0.0625
  1
DATE:
  7
ROMANS
100
AcDbText
  0
LINE
  5
5A05
330
6202
100
AcDbEntity
 67
     1
  8
4
100
AcDbLine
 10
20.44241359552768
 20
0.5593236822703549
 30
0.0
 11
20.44241359552768
 21
0.1875
 31
0.0
  0
TEXT
  5
5A06
330
6202
100
AcDbEntity
 67
     1
  8
6
100
AcDbText
 10
20.46083727769946
 20
0.424148832485983
 30
0.0
 40
0.1
  1
NO:
  7
ROMANS
100
AcDbText
  0
LINE
  5
5A07
330
6202
100
AcDbEntity
 67
     1
  8
4
100
AcDbLine
 10
20.56418484538763
 20
0.8563236822703537
 30
0.0
 11
20.56418484538763
 21
1.106323682270353
 31
0.0
  0
LINE
  5
5A08
330
6202
100
AcDbEntity
 67
     1
  8
4
100
AcDbLine
 10
19.94606484538763
 20
0.8563236822703537
 30
0.0
 11
19.94606484538763
 21
1.106323682270353
 31
0.0
  0
TEXT
  5
5A09
330
6202
100
AcDbEntity
 67
     1
  8
6
100
AcDbText
 10
19.96784602246028
 20
1.025505243570789
 30
0.0
 40
0.0625
  1
APP'D BY:
  7
ROMANS
100
AcDbText
  0
LINE
  5
5A0A
330
6202
100
AcDbEntity
 67
     1
  8
4
100
AcDbLine
 10
21.45084484538763
 20
0.8563236822703537
 30
0.0
 11
21.45084484538763
 21
1.106323682270353
 31
0.0
  0
TEXT
  5
5A0B
330
6202
100
AcDbEntity
 67
     1
  8
6
100
AcDbText
 10
20.58596602246026
 20
1.025505243570789
 30
0.0
 40
0.0625
  1
DATE:
  7
ROMANS
100
AcDbText
  0
LINE
  5
5A0C
330
6202
100
AcDbEntity
 67
     1
  8
4
100
AcDbLine
 10
22.06286750514256
 20
7.064995715987262
 30
0.0
 11
19.44241359552768
 21
7.064995715987262
 31
0.0
  0
LINE
  5
5A0D
330
6202
100
AcDbEntity
 67
     1
  8
4
100
AcDbLine
 10
20.44241359552768
 20
7.563747857993631
 30
0.0
 11
20.44241359552768
 21
7.064995715987262
 31
0.0
  0
LINE
  5
5A0E
330
6202
100
AcDbEntity
 67
     1
  8
4
100
AcDbLine
 10
19.44241359552768
 20
7.064995715987262
 30
0.0
 11
19.44241359552768
 21
7.563747857993631
 31
0.0
  0
TEXT
  5
5A0F
330
6202
100
AcDbEntity
 67
     1
  8
6
100
AcDbText
 10
19.64740705250651
 20
7.135712081782835
 30
0.0
 40
0.1
  1
4-4-00
  7
ROMANS
 72
     1
 11
19.96169276679223
 21
7.135712081782835
 31
0.0
100
AcDbText
  0
TEXT
  5
5A10
330
6202
100
AcDbEntity
 67
     1
  8
6
100
AcDbText
 10
19.48043371953269
 20
7.4558441537458
 30
0.0
 40
0.0625
  1
THIS PRINT SUPERSEDES
 41
0.7827837415990368
  7
ROMANS
 72
     5
 11
20.40067055861489
 21
7.4558441537458
 31
0.0
100
AcDbText
  0
LINE
  5
5A11
330
6202
100
AcDbEntity
 67
     1
  8
4
100
AcDbLine
 10
19.44241359552768
 20
7.314995715987262
 30
0.0
 11
20.44241359552768
 21
7.314995715987262
 31
0.0
  0
TEXT
  5
5A12
330
6202
100
AcDbEntity
 67
     1
  8
6
100
AcDbText
 10
19.48043371953269
 20
7.35167748707913
 30
0.0
 40
0.0625
  1
ANY PRINT DATED PRIOR TO:
 41
0.6692631556961456
  7
ROMANS
 72
     5
 11
20.40067055861489
 21
7.35167748707913
 31
0.0
100
AcDbText
  0
TEXT
  5
5A13
330
6202
100
AcDbEntity
 67
     1
  8
6
100
AcDbText
 10
20.46083727769945
 20
7.428573008209258
 30
0.0
 40
0.1
  1
NO:
  7
ROMANS
100
AcDbText
  0
POINT
  5
5A14
330
6202
100
AcDbEntity
 67
     1
  8
6
100
AcDbPoint
 10
22.25491359552769
 20
8.0
 30
0.0
  0
TEXT
  5
5C02
330
6202
100
AcDbEntity
 67
     1
  8
2
100
AcDbText
 10
20.74969517777601
 20
0.2508361509822805
 30
0.0
 40
0.25
  1
763629
 41
0.9005695681648273
  7
ROMANS
 72
     5
 11
21.99333886714649
 21
0.2508361509822805
 31
0.0
100
AcDbText
  0
TEXT
  5
5C03
330
6202
100
AcDbEntity
 67
     1
  8
2
100
AcDbText
 10
20.74969517777601
 20
7.128331866969545
 30
0.0
 40
0.25
  1
763629
 41
0.9005695681648273
  7
ROMANS
 72
     5
 11
21.99333886714649
 21
7.128331866969545
 31
0.0
100
AcDbText
  0
TEXT
  5
5C04
330
6202
100
AcDbEntity
 67
     1
  8
2
100
AcDbText
 10
8.994781582248322
 20
0.250836150982277
 30
0.0
 40
0.25
  1
763629
 41
0.9005695681648131
  7
ROMANS
 72
     5
 11
10.23842527161878
 21
0.250836150982277
 31
0.0
100
AcDbText
  0
TEXT
  5
5C05
330
6202
100
AcDbEntity
 67
     1
  8
2
100
AcDbText
 10
8.994781582248322
 20
7.128331866969539
 30
0.0
 40
0.25
  1
763629
 41
0.9005695681648131
  7
ROMANS
 72
     5
 11
10.23842527161878
 21
7.128331866969539
 31
0.0
100
AcDbText
  0
ENDSEC
  0
SECTION
  2
OBJECTS
  0
DICTIONARY
  5
61F0
330
0
100
AcDbDictionary
281
     1
  3
ACAD_COLOR
350
61FF
  3
ACAD_GROUP
350
61F1
  3
ACAD_LAYOUT
350
61FD
  3
ACAD_MATERIAL
350
61FE
  3
ACAD_MLINESTYLE
350
61FA
  3
ACAD_PLOTSETTINGS
350
61FC
  3
ACAD_PLOTSTYLENAME
350
61F2
  3
ACAD_TABLESTYLE
350
6200
  3
ACDBHEADERROUNDTRIPXREC
350
7291
  3
AcDbVariableDictionary
350
62E4
  0
DICTIONARY
  5
63C5
330
61E6
100
AcDbDictionary
280
     1
281
     1
  3
ACAD_LAYERSTATES
360
63C6
  0
DICTIONARY
  5
62E2
330
6206
100
AcDbDictionary
280
     1
281
     1
  3
ACAD_SORTENTS
360
62E3
  0
DICTIONARY
  5
7292
330
147
100
AcDbDictionary
280
     1
281
     1
  3
ACAD_XREC_ROUNDTRIP
360
7293
  0
DICTIONARY
  5
7294
330
148
100
AcDbDictionary
280
     1
281
     1
  3
ACAD_XREC_ROUNDTRIP
360
7295
  0
DICTIONARY
  5
7296
330
59DE
100
AcDbDictionary
280
     1
281
     1
  3
ACAD_XREC_ROUNDTRIP
360
7297
  0
DICTIONARY
  5
61FF
102
{ACAD_REACTORS
330
61F0
102
}
330
61F0
100
AcDbDictionary
281
     1
  0
DICTIONARY
  5
61F1
102
{ACAD_REACTORS
330
61F0
102
}
330
61F0
100
AcDbDictionary
281
     1
  0
DICTIONARY
  5
61FD
102
{ACAD_REACTORS
330
61F0
102
}
330
61F0
100
AcDbDictionary
281
     1
  3
Layout1
350
6205
  3
Model
350
6209
  0
DICTIONARY
  5
61FE
102
{ACAD_REACTORS
330
61F0
102
}
330
61F0
100
AcDbDictionary
281
     1
  0
DICTIONARY
  5
61FA
102
{ACAD_REACTORS
330
61F0
102
}
330
61F0
100
AcDbDictionary
281
     1
  3
Standard
350
61FB
  0
DICTIONARY
  5
61FC
102
{ACAD_REACTORS
330
61F0
102
}
330
61F0
100
AcDbDictionary
281
     1
  0
ACDBDICTIONARYWDFLT
  5
61F2
102
{ACAD_REACTORS
330
61F0
102
}
330
61F0
100
AcDbDictionary
281
     1
  3
Normal
350
61F3
100
AcDbDictionaryWithDefault
340
61F3
  0
DICTIONARY
  5
6200
102
{ACAD_REACTORS
330
61F0
102
}
330
61F0
100
AcDbDictionary
281
     1
  3
Standard
350
6201
  0
DICTIONARY
  5
7291
102
{ACAD_REACTORS
330
61F0
102
}
330
61F0
100
AcDbDictionary
281
     1
  0
DICTIONARY
  5
62E4
102
{ACAD_REACTORS
330
61F0
102
}
330
61F0
100
AcDbDictionary
281
     1
  3
CTABLESTYLE
350
62E5
  3
DIMASSOC
350
62E6
  3
PROJECTNAME
350
62E7
  0
DICTIONARY
  5
63C6
102
{ACAD_REACTORS
330
63C5
102
}
330
63C5
100
AcDbDictionary
281
     1
  0
SORTENTSTABLE
  5
62E3
102
{ACAD_REACTORS
330
62E2
102
}
330
62E2
100
AcDbSortentsTable
330
6206
331
6095
  5
6096
331
62E1
  5
5885
331
5885
  5
5886
331
609C
  5
609D
331
5893
  5
5894
331
588C
  5
5892
331
599E
  5
59AC
331
6096
  5
6097
331
609D
  5
609E
331
59AC
  5
5D69
331
5886
  5
5888
331
5998
  5
5999
331
5894
  5
5895
331
6097
  5
6098
331
5999
  5
599B
331
594A
  5
594B
331
5895
  5
5896
331
5D74
  5
6081
331
609E
  5
609F
331
594B
  5
594C
331
609F
  5
60A0
331
5896
  5
594A
331
5D69
  5
5D74
331
5888
  5
5889
331
6098
  5
6099
331
10C
  5
10C
331
6099
  5
609A
331
599B
  5
599C
331
594C
  5
594D
331
5889
  5
588A
331
60A0
  5
60A1
331
594D
  5
598B
331
609A
  5
609B
331
588A
  5
588B
331
599C
  5
599D
331
609B
  5
609C
331
588B
  5
588C
331
599D
  5
599E
331
5884
  5
5884
331
598B
  5
5998
331
5892
  5
5893
  0
XRECORD
  5
7293
102
{ACAD_REACTORS
330
7292
102
}
330
7292
100
AcDbXrecord
280
     1
102
SHADEPLOT
 70
     0
  0
XRECORD
  5
7295
102
{ACAD_REACTORS
330
7294
102
}
330
7294
100
AcDbXrecord
280
     1
102
SHADEPLOT
 70
     0
  0
XRECORD
  5
7297
102
{ACAD_REACTORS
330
7296
102
}
330
7296
100
AcDbXrecord
280
     1
102
SHADEPLOT
 70
     0
  0
LAYOUT
  5
6205
102
{ACAD_XDICTIONARY
360
7298
102
}
102
{ACAD_REACTORS
330
61FD
102
}
330
61FD
100
AcDbPlotSettings
  1

  2
\\DALITE03\PR00109
  4

  6

 40
0.0
 41
0.0
 42
0.0
 43
0.0
 44
0.0
 45
0.0
 46
0.0
 47
0.0
 48
0.0
 49
0.0
140
0.0
141
0.0
142
1.0
143
1.0
 70
   688
 72
     0
 73
     0
 74
     5
  7

 75
    16
147
1.0
148
0.0
149
0.0
100
AcDbLayout
  1
Layout1
 70
     1
 71
     1
 10
11.47366360679155
 20
-0.2312499894870548
 11
22.47366336649566
 21
8.268749770217054
 12
0.0
 22
0.0
 32
0.0
 14
0.0
 24
0.0
 34
0.0
 15
22.25491359552769
 25
8.0
 35
0.0
146
0.0
 13
0.0
 23
0.0
 33
0.0
 16
1.0
 26
0.0
 36
0.0
 17
0.0
 27
1.0
 37
0.0
 76
     0
330
6202
331
147
  0
LAYOUT
  5
6209
102
{ACAD_XDICTIONARY
360
729A
102
}
102
{ACAD_REACTORS
330
61FD
102
}
330
61FD
100
AcDbPlotSettings
  1

  2
\\DALITE03\PR00109
  4

  6

 40
0.0
 41
0.0
 42
0.0
 43
0.0
 44
0.0
 45
0.0
 46
0.0
 47
0.0
 48
0.0
 49
0.0
140
0.0
141
0.0
142
1.0
143
1.0
 70
  1712
 72
     0
 73
     0
 74
     0
  7

 75
     0
147
1.0
148
0.0
149
0.0
100
AcDbLayout
  1
Model
 70
     1
 71
     0
 10
0.0
 20
0.0
 11
12.0
 21
9.0
 12
0.0
 22
0.0
 32
0.0
 14
0.0
 24
0.0
 34
0.0
 15
0.0
 25
0.0
 35
0.0
146
0.0
 13
0.0
 23
0.0
 33
0.0
 16
1.0
 26
0.0
 36
0.0
 17
0.0
 27
1.0
 37
0.0
 76
     0
330
6206
  0
MLINESTYLE
  5
61FB
102
{ACAD_REACTORS
330
61FA
102
}
330
61FA
100
AcDbMlineStyle
  2
STANDARD
 70
     0
  3

 62
   256
 51
90.0
 52
90.0
 71
     2
 49
0.5
 62
   256
  6
BYLAYER
 49
-0.5
 62
   256
  6
BYLAYER
  0
ACDBPLACEHOLDER
  5
61F3
102
{ACAD_REACTORS
330
61F2
102
}
330
61F2
  0
TABLESTYLE
  5
6201
102
{ACAD_REACTORS
330
6200
102
}
330
6200
100
AcDbTableStyle
  3
Standard
 70
     0
 71
     0
 40
0.06
 41
0.06
280
     0
281
     0
  7
STANDARD
140
0.18
170
     2
 62
     0
 63
     7
283
     0
274
    -2
284
     1
 64
     0
275
    -2
285
     1
 65
     0
276
    -2
286
     1
 66
     0
277
    -2
287
     1
 67
     0
278
    -2
288
     1
 68
     0
279
    -2
289
     1
 69
     0
  7
STANDARD
140
0.25
170
     5
 62
     0
 63
     7
283
     0
274
    -2
284
     1
 64
     0
275
    -2
285
     1
 65
     0
276
    -2
286
     1
 66
     0
277
    -2
287
     1
 67
     0
278
    -2
288
     1
 68
     0
279
    -2
289
     1
 69
     0
  7
STANDARD
140
0.18
170
     5
 62
     0
 63
     7
283
     0
274
    -2
284
     1
 64
     0
275
    -2
285
     1
 65
     0
276
    -2
286
     1
 66
     0
277
    -2
287
     1
 67
     0
278
    -2
288
     1
 68
     0
279
    -2
289
     1
 69
     0
  0
DICTIONARYVAR
  5
62E5
102
{ACAD_REACTORS
330
62E4
102
}
330
62E4
100
DictionaryVariables
280
     0
  1
STANDARD
  0
DICTIONARYVAR
  5
62E6
102
{ACAD_REACTORS
330
62E4
102
}
330
62E4
100
DictionaryVariables
280
     0
  1
1
  0
DICTIONARYVAR
  5
62E7
102
{ACAD_REACTORS
330
62E4
102
}
330
62E4
100
DictionaryVariables
280
     0
  1

  0
DICTIONARY
  5
7298
330
6205
100
AcDbDictionary
280
     1
281
     1
  3
ACAD_XREC_ROUNDTRIP
360
7299
  0
DICTIONARY
  5
729A
330
6209
100
AcDbDictionary
280
     1
281
     1
  3
ACAD_XREC_ROUNDTRIP
360
729B
  0
XRECORD
  5
7299
102
{ACAD_REACTORS
330
7298
102
}
330
7298
100
AcDbXrecord
280
     1
102
SHADEPLOT
 70
     0
102
SHADEPLOTRESLEVEL
 70
     2
102
SHADEPLOTCUSTOMDPI
 70
   300
  0
XRECORD
  5
729B
102
{ACAD_REACTORS
330
729A
102
}
330
729A
100
AcDbXrecord
280
     1
102
SHADEPLOT
 70
     0
102
SHADEPLOTRESLEVEL
 70
     2
102
SHADEPLOTCUSTOMDPI
 70
   300
  0
ENDSEC
  0
EOF
