  0
SECTION
  2
HEADER
  9
$ACADVER
  1
AC1015
  9
$ACADMAINTVER
 70
    20
  9
$DWGCODEPAGE
  3
ANSI_1252
  9
$INSBASE
 10
0.0
 20
0.0
 30
0.0
  9
$EXTMIN
 10
16.19361843715002
 20
28.16963320692142
 30
0.0
  9
$EXTMAX
 10
161.0705568845974
 20
113.2295186527366
 30
0.0
  9
$LIMMIN
 10
0.0
 20
0.0
  9
$LIMMAX
 10
17.0
 20
11.0
  9
$ORTHOMODE
 70
     1
  9
$REGENMODE
 70
     1
  9
$FILLMODE
 70
     1
  9
$QTEXTMODE
 70
     0
  9
$MIRRTEXT
 70
     1
  9
$LTSCALE
 40
0.375
  9
$ATTMODE
 70
     1
  9
$TEXTSIZE
 40
0.2
  9
$TRACEWID
 40
0.05
  9
$TEXTSTYLE
  7
STANDARD
  9
$CLAYER
  8
AM_REFDIM
  9
$CELTYPE
  6
ByLayer
  9
$CECOLOR
 62
   256
  9
$CELTSCALE
 40
1.0
  9
$DISPSILH
 70
     0
  9
$DIMSCALE
 40
16.0
  9
$DIMASZ
 40
0.08
  9
$DIMEXO
 40
0.0625
  9
$DIMDLI
 40
0.08
  9
$DIMRND
 40
0.0
  9
$DIMDLE
 40
0.0
  9
$DIMEXE
 40
0.08
  9
$DIMTP
 40
0.0
  9
$DIMTM
 40
0.0
  9
$DIMTXT
 40
0.1
  9
$DIMCEN
 40
0.09
  9
$DIMTSZ
 40
0.0
  9
$DIMTOL
 70
     0
  9
$DIMLIM
 70
     0
  9
$DIMTIH
 70
     1
  9
$DIMTOH
 70
     1
  9
$DIMSE1
 70
     0
  9
$DIMSE2
 70
     0
  9
$DIMTAD
 70
     0
  9
$DIMZIN
 70
     0
  9
$DIMBLK
  1

  9
$DIMASO
 70
     1
  9
$DIMSHO
 70
     1
  9
$DIMPOST
  1

  9
$DIMAPOST
  1

  9
$DIMALT
 70
     0
  9
$DIMALTD
 70
     2
  9
$DIMALTF
 40
25.4
  9
$DIMLFAC
 40
1.0
  9
$DIMTOFL
 70
     0
  9
$DIMTVP
 40
0.0
  9
$DIMTIX
 70
     0
  9
$DIMSOXD
 70
     0
  9
$DIMSAH
 70
     0
  9
$DIMBLK1
  1

  9
$DIMBLK2
  1

  9
$DIMSTYLE
  2
Standard
  9
$DIMCLRD
 70
     0
  9
$DIMCLRE
 70
     0
  9
$DIMCLRT
 70
     0
  9
$DIMTFAC
 40
1.0
  9
$DIMGAP
 40
0.09
  9
$DIMJUST
 70
     0
  9
$DIMSD1
 70
     0
  9
$DIMSD2
 70
     0
  9
$DIMTOLJ
 70
     1
  9
$DIMTZIN
 70
     0
  9
$DIMALTZ
 70
     0
  9
$DIMALTTZ
 70
     0
  9
$DIMUPT
 70
     0
  9
$DIMDEC
 70
     2
  9
$DIMTDEC
 70
     2
  9
$DIMALTU
 70
     2
  9
$DIMALTTD
 70
     2
  9
$DIMTXSTY
  7
ROMANS
  9
$DIMAUNIT
 70
     0
  9
$DIMADEC
 70
     0
  9
$DIMALTRND
 40
0.0
  9
$DIMAZIN
 70
     0
  9
$DIMDSEP
 70
    46
  9
$DIMATFIT
 70
     3
  9
$DIMFRAC
 70
     0
  9
$DIMLDRBLK
  1

  9
$DIMLUNIT
 70
     2
  9
$DIMLWD
 70
    -2
  9
$DIMLWE
 70
    -2
  9
$DIMTMOVE
 70
     0
  9
$LUNITS
 70
     2
  9
$LUPREC
 70
     4
  9
$SKETCHINC
 40
0.1
  9
$FILLETRAD
 40
0.125
  9
$AUNITS
 70
     0
  9
$AUPREC
 70
     0
  9
$MENU
  1
.
  9
$ELEVATION
 40
0.0
  9
$PELEVATION
 40
0.0
  9
$THICKNESS
 40
0.0
  9
$LIMCHECK
 70
     0
  9
$CHAMFERA
 40
0.125
  9
$CHAMFERB
 40
0.125
  9
$CHAMFERC
 40
1.0
  9
$CHAMFERD
 40
0.0
  9
$SKPOLY
 70
     0
  9
$TDCREATE
 40
2452558.713648322
  9
$TDUCREATE
 40
2452558.921981655
  9
$TDUPDATE
 40
2454520.503536505
  9
$TDUUPDATE
 40
2454520.711869838
  9
$TDINDWG
 40
0.5482651505
  9
$TDUSRTIMER
 40
0.5482649653
  9
$USRTIMER
 70
     1
  9
$ANGBASE
 50
0.0
  9
$ANGDIR
 70
     0
  9
$PDMODE
 70
     0
  9
$PDSIZE
 40
0.0
  9
$PLINEWID
 40
0.0
  9
$SPLFRAME
 70
     0
  9
$SPLINETYPE
 70
     6
  9
$SPLINESEGS
 70
     8
  9
$HANDSEED
  5
3C7
  9
$SURFTAB1
 70
     6
  9
$SURFTAB2
 70
     6
  9
$SURFTYPE
 70
     6
  9
$SURFU
 70
     6
  9
$SURFV
 70
     6
  9
$UCSBASE
  2

  9
$UCSNAME
  2

  9
$UCSORG
 10
0.0
 20
0.0
 30
0.0
  9
$UCSXDIR
 10
1.0
 20
0.0
 30
0.0
  9
$UCSYDIR
 10
0.0
 20
1.0
 30
0.0
  9
$UCSORTHOREF
  2

  9
$UCSORTHOVIEW
 70
     0
  9
$UCSORGTOP
 10
0.0
 20
0.0
 30
0.0
  9
$UCSORGBOTTOM
 10
0.0
 20
0.0
 30
0.0
  9
$UCSORGLEFT
 10
0.0
 20
0.0
 30
0.0
  9
$UCSORGRIGHT
 10
0.0
 20
0.0
 30
0.0
  9
$UCSORGFRONT
 10
0.0
 20
0.0
 30
0.0
  9
$UCSORGBACK
 10
0.0
 20
0.0
 30
0.0
  9
$PUCSBASE
  2

  9
$PUCSNAME
  2

  9
$PUCSORG
 10
0.0
 20
0.0
 30
0.0
  9
$PUCSXDIR
 10
1.0
 20
0.0
 30
0.0
  9
$PUCSYDIR
 10
0.0
 20
1.0
 30
0.0
  9
$PUCSORTHOREF
  2

  9
$PUCSORTHOVIEW
 70
     0
  9
$PUCSORGTOP
 10
0.0
 20
0.0
 30
0.0
  9
$PUCSORGBOTTOM
 10
0.0
 20
0.0
 30
0.0
  9
$PUCSORGLEFT
 10
0.0
 20
0.0
 30
0.0
  9
$PUCSORGRIGHT
 10
0.0
 20
0.0
 30
0.0
  9
$PUCSORGFRONT
 10
0.0
 20
0.0
 30
0.0
  9
$PUCSORGBACK
 10
0.0
 20
0.0
 30
0.0
  9
$USERI1
 70
     0
  9
$USERI2
 70
     0
  9
$USERI3
 70
     0
  9
$USERI4
 70
     0
  9
$USERI5
 70
     0
  9
$USERR1
 40
0.0
  9
$USERR2
 40
0.0
  9
$USERR3
 40
0.0
  9
$USERR4
 40
0.0
  9
$USERR5
 40
0.0
  9
$WORLDVIEW
 70
     1
  9
$SHADEDGE
 70
     3
  9
$SHADEDIF
 70
    70
  9
$TILEMODE
 70
     1
  9
$MAXACTVP
 70
    64
  9
$PINSBASE
 10
0.0
 20
0.0
 30
0.0
  9
$PLIMCHECK
 70
     0
  9
$PEXTMIN
 10
0.0000000034034002
 20
0.0000000081379028
 30
0.0
  9
$PEXTMAX
 10
10.52000001705071
 20
7.940000016434177
 30
0.0
  9
$PLIMMIN
 10
-0.1666668268639272
 20
-0.2499999962453767
  9
$PLIMMAX
 10
10.83333293284018
 20
8.249999763458731
  9
$UNITMODE
 70
     0
  9
$VISRETAIN
 70
     1
  9
$PLINEGEN
 70
     0
  9
$PSLTSCALE
 70
     1
  9
$TREEDEPTH
 70
  3020
  9
$CMLSTYLE
  2
Standard
  9
$CMLJUST
 70
     0
  9
$CMLSCALE
 40
1.0
  9
$PROXYGRAPHICS
 70
     1
  9
$MEASUREMENT
 70
     0
  9
$CELWEIGHT
370
    -1
  9
$ENDCAPS
280
     0
  9
$JOINSTYLE
280
     0
  9
$LWDISPLAY
290
     0
  9
$INSUNITS
 70
     1
  9
$HYPERLINKBASE
  1

  9
$STYLESHEET
  1

  9
$XEDIT
290
     1
  9
$CEPSNTYPE
380
     0
  9
$PSTYLEMODE
290
     1
  9
$FINGERPRINTGUID
  2
{FE1DE919-47A1-4BFF-905D-46ED2F5BDC32}
  9
$VERSIONGUID
  2
{14491B69-59B9-41A3-9DF1-9E236FBA9069}
  9
$EXTNAMES
290
     1
  9
$PSVPSCALE
 40
0.0
  9
$OLESTARTUP
290
     0
  0
ENDSEC
  0
SECTION
  2
CLASSES
  0
CLASS
  1
ACDBDICTIONARYWDFLT
  2
AcDbDictionaryWithDefault
  3
ObjectDBX Classes
 90
        0
280
     0
281
     0
  0
CLASS
  1
ACDBPLACEHOLDER
  2
AcDbPlaceHolder
  3
ObjectDBX Classes
 90
        0
280
     0
281
     0
  0
CLASS
  1
LAYOUT
  2
AcDbLayout
  3
ObjectDBX Classes
 90
        0
280
     0
281
     0
  0
CLASS
  1
AMGSETTINGSOBJ
  2
AmgSettingsObj
  3
"AcadM|Product Description: AutoCAD Mechanical 2000|Company: Autodesk"
 90
    32768
280
     0
281
     0
  0
CLASS
  1
ACME_DOCUMENT
  2
AcMeDbDoc
  3
AcMeServices
 90
    32768
280
     0
281
     0
  0
CLASS
  1
ACMESCOPE
  2
AcMeScope
  3
AcMeServices
 90
    32768
280
     0
281
     0
  0
CLASS
  1
ACMECOMMANDHISTORY
  2
AcMeCommandHistory
  3
AcMeServices
 90
    32768
280
     0
281
     0
  0
CLASS
  1
ACIMSYSVARMAN
  2
AcImSysVarManager
  3
AcMeServices
 90
    32768
280
     0
281
     0
  0
CLASS
  1
ACIMREALSYSVAR
  2
AcImRealSysVar
  3
AcMeServices
 90
    32768
280
     0
281
     0
  0
CLASS
  1
ACIMINTSYSVAR
  2
AcImIntSysVar
  3
AcMeServices
 90
    32768
280
     0
281
     0
  0
CLASS
  1
ACMEDRAWINGMAN
  2
AcMeDrawingMan
  3
AcMeServices
 90
    32768
280
     0
281
     0
  0
CLASS
  1
ACMEVIEW
  2
AcMeView
  3
AcMeServices
 90
    32768
280
     0
281
     0
  0
CLASS
  1
ACDBENTITYCACHE
  2
AcMeEntityCache
  3
AcMeServices
 90
    32768
280
     0
281
     0
  0
CLASS
  1
GSMANAGER
  2
AcMeGSManager
  3
AcMeServices
 90
    32768
280
     0
281
     0
  0
CLASS
  1
AMDTINTERNALREACTOR
  2
AmdtInternalReactor
  3
AcMeServices
 90
    32768
280
     0
281
     0
  0
CLASS
  1
ACMESTATEMGR
  2
AcMeStateMgr
  3
AcMeServices
 90
    32768
280
     0
281
     0
  0
CLASS
  1
ACGREFMASTER
  2
AcGrefMaster
  3
AcAttribServices
 90
    32768
280
     0
281
     0
  0
CLASS
  1
AM_DRAWING_MGR
  2
AcDmDwgMgr
  3
AcMechDwgViewMgmt
 90
    32768
280
     0
281
     0
  0
CLASS
  1
AM_DWG_DOCUMENT
  2
AcDmDwgDocument
  3
AcMechDwgViewMgmt
 90
    32768
280
     0
281
     0
  0
CLASS
  1
AM_DWG_SHEET
  2
AcDmSheet
  3
AcMechDwgViewMgmt
 90
    32768
280
     0
281
     0
  0
CLASS
  1
AM_VIEWDIMPARMAP
  2
AcDmViewDimParMap
  3
AcMechDwgViewMgmt
 90
    32768
280
     0
281
     0
  0
CLASS
  1
AM_DWGMGR_NAME
  2
AcDmDwgMgrName
  3
AcMechDwgViewMgmt
 90
    32768
280
     0
281
     0
  0
CLASS
  1
ACME_DATABASE
  2
AcMeDbDatabase
  3
AcMeServices
 90
    32768
280
     0
281
     0
  0
CLASS
  1
ACRFINSADJUSTERMGR
  2
AcRfInsAdjusterMgr
  3
AcMeServices
 90
    32768
280
     0
281
     0
  0
CLASS
  1
ACGREFACADMASTER
  2
AcGrefacadMaster
  3
AcGrefServices
 90
    32768
280
     0
281
     0
  0
CLASS
  1
AMDTMENUSTATEMGR
  2
AmdtMenuStateMgr
  3
McadcomServices
 90
    32768
280
     0
281
     0
  0
CLASS
  1
AMDTMCOMMENUSTATE
  2
AmdtMcomMenuState
  3
McadcomServices
 90
    32768
280
     0
281
     0
  0
CLASS
  1
AMIMASTER
  2
AmiMaster
  3
AmiServices
 90
    32768
280
     0
281
     0
  0
CLASS
  1
ASAPP
  2
AcAsAppObject
  3
AutoSurfServices
 90
    32768
280
     0
281
     0
  0
CLASS
  1
IM_STATIC_MAN
  2
AcImStaticVarManager
  3
AcMeServices
 90
    32768
280
     0
281
     0
  0
CLASS
  1
ACIMSTRSYSVAR
  2
AcImStrSysVar
  3
AcMeServices
 90
    32768
280
     0
281
     0
  0
CLASS
  1
ACIMDBLSTATICVAR
  2
AcImDblStaticVar
  3
AcMeServices
 90
    32768
280
     0
281
     0
  0
CLASS
  1
ACIMSTRSTATICVAR
  2
AcImStrStaticVar
  3
AcMeServices
 90
    32768
280
     0
281
     0
  0
CLASS
  1
ACIMINTSTATICVAR
  2
AcImIntStaticVar
  3
AcMeServices
 90
    32768
280
     0
281
     0
  0
CLASS
  1
ACASGREFMASTER
  2
AcAsGrefMaster
  3
AutoSurfResolverServices
 90
    32768
280
     0
281
     0
  0
CLASS
  1
ACADGREFMODULE
  2
AcAdGrefModule
  3
AdGrefServices
 90
    32768
280
     0
281
     0
  0
CLASS
  1
AMDTMAPISURFMOUDULE
  2
AmdtMApiSurfModule
  3
MApiSurfServices
 90
    32768
280
     0
281
     0
  0
CLASS
  1
MAPIAMMOUDLE
  2
MApiAmModule
  3
MApiAmServices
 90
    32768
280
     0
281
     0
  0
CLASS
  1
AMDTADMENUSTATE
  2
AmdtAdMenuState
  3
DesignerServices
 90
    32768
280
     0
281
     0
  0
CLASS
  1
ADAPPL
  2
AcAdAppl
  3
DesignerServices
 90
    32768
280
     0
281
     0
  0
CLASS
  1
DEPMGR
  2
AcAdDepMgr
  3
DesignerServices
 90
    32768
280
     0
281
     0
  0
CLASS
  1
PARAMMGR
  2
AcAdParamMgr
  3
DesignerServices
 90
    32768
280
     0
281
     0
  0
CLASS
  1
PARAMSCOPE
  2
AcAdParamScope
  3
DesignerServices
 90
    32768
280
     0
281
     0
  0
CLASS
  1
NAMEDAPPL
  2
AcAdNamedAppl
  3
DesignerServices
 90
    32768
280
     0
281
     0
  0
CLASS
  1
AMDTDMMENUSTATE
  2
AmdtDmMenuState
  3
AcMechDwgViewMgmt
 90
    32768
280
     0
281
     0
  0
CLASS
  1
MAPIADMODULE
  2
MApiAdModule
  3
MApiAdServices
 90
    32768
280
     0
281
     0
  0
CLASS
  1
AMDTAMMENUSTATE
  2
AmdtAmMenuState
  3
DesignerAssemblies
 90
    32768
280
     0
281
     0
  0
CLASS
  1
ACAMPROJECT
  2
AcAmProject
  3
DesignerAssemblies
 90
    32768
280
     0
281
     0
  0
CLASS
  1
ACAMGRCOMPDEF
  2
AcAmGrCompDef
  3
DesignerAssemblies
 90
    32768
280
     0
281
     0
  0
CLASS
  1
ACCMCONTEXT
  2
AcCmContext
  3
DesignerAssemblies
 90
    32768
280
     0
281
     0
  0
CLASS
  1
ACAMCOMPDEF
  2
AcAmCompDef
  3
DesignerAssemblies
 90
    32768
280
     0
281
     0
  0
CLASS
  1
ACAMCOMPDEFMGR
  2
AcAmCompDefMgr
  3
DesignerAssemblies
 90
    32768
280
     0
281
     0
  0
CLASS
  1
AMCONTEXTMGR
  2
AcAmContextMgr
  3
DesignerAssemblies
 90
    32768
280
     0
281
     0
  0
CLASS
  1
ACAMCONTEXTMODELER
  2
AcAmContextModeler
  3
DesignerAssemblies
 90
    32768
280
     0
281
     0
  0
CLASS
  1
ACMDATADICTIONARY
  2
AcmDataDictionary
  3
"AcmSymBB|Product Description: AutoCAD Mechanical 2004 DX|Company: Autodesk"
 90
    32768
280
     0
281
     0
  0
CLASS
  1
ACMDATAENTRYBLOCK
  2
AcmDataEntryBlock
  3
"AcmSymBB|Product Description: AutoCAD Mechanical 2004 DX|Company: Autodesk"
 90
    32768
280
     0
281
     0
  0
CLASS
  1
ACMSTANDARDANSI
  2
AcmStandardANSI
  3
"Amdt_StdImp|Product Description: AutoCAD Mechanical 2004 DX|Company: Autodesk"
 90
    32768
280
     0
281
     0
  0
CLASS
  1
AMGOBJPROPCFG
  2
AmgObjPropCfg
  3
"AmgLay|Product Description: AutoCAD Mechanical 2000|Company: Autodesk"
 90
    32769
280
     0
281
     0
  0
CLASS
  1
ACMSURFSTANDARDANSI
  2
AcmSurfTextStdANSI
  3
"Amdt_StdImp|Product Description: AutoCAD Mechanical 2004 DX|Company: Autodesk"
 90
    32768
280
     0
281
     0
  0
CLASS
  1
ACMFCFSTANDARDANSI
  2
AcmFCFStdANSI
  3
"Amdt_StdImp|Product Description: AutoCAD Mechanical 2004 DX|Company: Autodesk"
 90
    32768
280
     0
281
     0
  0
CLASS
  1
ACMWELDSTANDARDANSI
  2
AcmWeldingStdANSI
  3
"Amdt_StdImp|Product Description: AutoCAD Mechanical 2004 DX|Company: Autodesk"
 90
    32768
280
     0
281
     0
  0
CLASS
  1
ACMIDSTANDARDANSI
  2
AcmIdStdANSI
  3
"Amdt_StdImp|Product Description: AutoCAD Mechanical 2004 DX|Company: Autodesk"
 90
    32768
280
     0
281
     0
  0
CLASS
  1
ACMDATUMSTANDARDANSI
  2
AcmDatumStdANSI
  3
"Amdt_StdImp|Product Description: AutoCAD Mechanical 2004 DX|Company: Autodesk"
 90
    32768
280
     0
281
     0
  0
CLASS
  1
ACMBOMSTANDARDANSI
  2
AcmBOMStdANSI
  3
"Amdt_StdImp|Product Description: AutoCAD Mechanical 2004 DX|Company: Autodesk"
 90
    32768
280
     0
281
     0
  0
CLASS
  1
ACMDETAILSTANDARDANSI
  2
AmdtDetailSymStdANSI
  3
"Amdt_StdImp|Product Description: AutoCAD Mechanical 2004 DX|Company: Autodesk"
 90
    32768
280
     0
281
     0
  0
CLASS
  1
ACMSECTIONSTANDARDANSI
  2
AmdtSectionSymStdANSI
  3
"Amdt_StdImp|Product Description: AutoCAD Mechanical 2004 DX|Company: Autodesk"
 90
    32768
280
     0
281
     0
  0
CLASS
  1
ACMCENTERLINESTANDARDANSI
  2
AmdtCenterLineStdANSI
  3
"Amdt_StdImp|Product Description: AutoCAD Mechanical 2004 DX|Company: Autodesk"
 90
    32768
280
     0
281
     0
  0
CLASS
  1
ACMTHREADLINESTANDARDANSI
  2
AmdtThreadLineStdANSI
  3
"Amdt_StdImp|Product Description: AutoCAD Mechanical 2004 DX|Company: Autodesk"
 90
    32768
280
     0
281
     0
  0
CLASS
  1
ACMNOTESTANDARDANSI
  2
AmdtNoteStdANSI
  3
"Amdt_StdImp|Product Description: AutoCAD Mechanical 2004 DX|Company: Autodesk"
 90
    32768
280
     0
281
     0
  0
CLASS
  1
ACAMGLAYSTD
  2
AcAmgLayStd
  3
"AcAmgLayStd|Product Description: AutoCAD Mechanical 2000|Company: Autodesk"
 90
    32768
280
     0
281
     0
  0
CLASS
  1
ACAMGDIMSTD
  2
AcAmgDimStd
  3
"AcAmgDimStd|Product Description: AutoCAD Mechanical 2000|Company: Autodesk"
 90
    32768
280
     0
281
     0
  0
CLASS
  1
ACAMGHOLECHARTSTDANSI
  2
AcAmgHoleChartStdANSI
  3
ACMSYMBB_MODULE_NAME
 90
    32768
280
     0
281
     0
  0
CLASS
  1
ACAMGTITLESTD
  2
AcAmgTitleStd
  3
"TITLEAPP"
 90
    32768
280
     0
281
     0
  0
CLASS
  1
CATALOGSTATE
  2
AcAmCatalogState
  3
DesignerAssemblies
 90
    32768
280
     0
281
     0
  0
CLASS
  1
ACAMGRCOMPDEFSET
  2
AcAmGrCompDefSet
  3
DesignerAssemblies
 90
    32768
280
     0
281
     0
  0
CLASS
  1
AMDTBROWSERDBTAB
  2
AmdtBrowserDbTab
  3
McadcomServices
 90
    32768
280
     0
281
     0
  0
CLASS
  1
CBROWSERAPPOBJECT
  2
CBrowserAppObject
  3
McadcomServices
 90
    32768
280
     0
281
     0
  0
CLASS
  1
DM_PLACEHOLDER
  2
AcDmSelsetPlaceholder
  3
AcMechDwgViewMgmt
 90
    32768
280
     0
281
     0
  0
CLASS
  1
ACAMGFILTERDAT
  2
AcAmgFilterDat
  3
"AcadM|Product Description: AutoCAD Mechanical 2000|Company: Autodesk"
 90
    32768
280
     0
281
     0
  0
CLASS
  1
ASSURFACE
  2
AcAsSurfBody
  3
AutoSurfServices
 90
    32768
280
     0
281
     1
  0
CLASS
  1
AMDTPERSON
  2
AmdtPerson
  3
AcAttribServices
 90
    32768
280
     0
281
     0
  0
CLASS
  1
ACRFMCADAPIATTHOLDER
  2
AcRfMCADAPIAttHolder
  3
AcAttribServices
 90
    32768
280
     0
281
     0
  0
CLASS
  1
AMDTORGANIZATION
  2
AmdtOrganization
  3
AcAttribServices
 90
    32768
280
     0
281
     0
  0
CLASS
  1
AMDTPERSONANDORGANIZATION
  2
AmdtPersonAndOrganization
  3
AcAttribServices
 90
    32768
280
     0
281
     0
  0
CLASS
  1
AMDTPROPERTYDEFINITION
  2
AmdtPropertyDefinition
  3
AcAttribServices
 90
    32768
280
     0
281
     0
  0
CLASS
  1
AMDTAPPROVALPERSONORGANIZATION
  2
AmdtApprovalPersonOrganization
  3
AcAttribServices
 90
    32768
280
     0
281
     0
  0
CLASS
  1
AMDTDATEANDTIME
  2
AmdtDateAndTime
  3
AcAttribServices
 90
    32768
280
     0
281
     0
  0
CLASS
  1
AMDTPRODUCTCATEGORY
  2
AmdtProductCategory
  3
AcAttribServices
 90
    32768
280
     0
281
     0
  0
CLASS
  1
AMDTPRODUCTCATEGORYRELATIONSHIP
  2
AmdtProductCategoryRelationship
  3
AcAttribServices
 90
    32768
280
     0
281
     0
  0
CLASS
  1
AMDTAPPROVAL
  2
AmdtApproval
  3
AcAttribServices
 90
    32768
280
     0
281
     0
  0
CLASS
  1
AMDTDATEANDTIMEASSIGNMENT
  2
AmdtDateAndTimeAssignment
  3
AcAttribServices
 90
    32768
280
     0
281
     0
  0
CLASS
  1
AMDTPERSONANDORGANIZATIONASSIGNMENT
  2
AmdtPersonAndOrganizationAssignment
  3
AcAttribServices
 90
    32768
280
     0
281
     0
  0
CLASS
  1
AMDTSECURITYCLASSIFICATION
  2
AmdtSecurityClassification
  3
AcAttribServices
 90
    32768
280
     0
281
     0
  0
CLASS
  1
AMDTPRODUCTDEFINITION
  2
AmdtProductDefinition
  3
AcAttribServices
 90
    32768
280
     0
281
     0
  0
CLASS
  1
AMDTPRODUCTDEFINITIONFORMATION
  2
AmdtProductDefinitionFormation
  3
AcAttribServices
 90
    32768
280
     0
281
     0
  0
CLASS
  1
AMDTPRODUCT
  2
AmdtProduct
  3
AcAttribServices
 90
    32768
280
     0
281
     0
  0
CLASS
  1
ADPART
  2
AcAdPart
  3
DesignerServices
 90
    32768
280
     0
281
     1
  0
CLASS
  1
ADBASE
  2
AcAdBase
  3
DesignerServices
 90
    32768
280
     0
281
     0
  0
CLASS
  1
BODYID
  2
AcAdBodyId
  3
DesignerServices
 90
    32768
280
     0
281
     0
  0
CLASS
  1
WORKPLANEDISPLAYMGR
  2
AcAdDisplayMgr
  3
DesignerServices
 90
    32768
280
     0
281
     0
  0
CLASS
  1
ACCMBODY
  2
AcCmBody
  3
DesignerAssemblies
 90
    32768
280
     0
281
     0
  0
CLASS
  1
ACAMCOMPENT
  2
AcAmCompEnt
  3
DesignerAssemblies
 90
    32768
280
     0
281
     1
  0
CLASS
  1
ACAMCOMPFEEDBACK
  2
AcAmCompFeedback
  3
DesignerAssemblies
 90
    32768
280
     0
281
     0
  0
CLASS
  1
ACAMCOMP
  2
AcAmComp
  3
DesignerAssemblies
 90
    32768
280
     0
281
     0
  0
CLASS
  1
ACAMCOMPENTCLONE
  2
AcAmCompEntClone
  3
DesignerAssemblies
 90
    32768
280
     0
281
     1
  0
CLASS
  1
ACAMCLONEREACTOR
  2
AcAmGrCompCloneReactor
  3
DesignerAssemblies
 90
    32768
280
     0
281
     0
  0
CLASS
  1
ACRFATTGENMGR
  2
AcRfAttGeneralMgr
  3
AcAttribServices
 90
    32768
280
     0
281
     0
  0
CLASS
  1
ACRFOBJATTMGR
  2
AcRfObjAttGroupMgr
  3
AcAttribServices
 90
    32768
280
     0
281
     0
  0
CLASS
  1
ACAMCLONECHILDREACTOR
  2
AcAmGrCloneChildReactor
  3
DesignerAssemblies
 90
    32768
280
     0
281
     0
  0
CLASS
  1
AMDTFORMULAUPDATEDISPATCHER
  2
AmdtFormulaUpdateDispatcher
  3
AcMeServices
 90
    32768
280
     0
281
     0
  0
CLASS
  1
ADDATUMPLANEABS
  2
AcAdDatumPlaneAbs
  3
DesignerServices
 90
    32768
280
     0
281
     0
  0
CLASS
  1
ADDATUMAXISABS
  2
AcAdDatumAxisAbs
  3
DesignerServices
 90
    32768
280
     0
281
     0
  0
CLASS
  1
ADDATUMORIENTEDPLANE
  2
AcAdDatumOrientedPlane
  3
DesignerServices
 90
    32768
280
     0
281
     0
  0
CLASS
  1
ACMEPLINE
  2
AcImPlineDisplay
  3
AcMeServices
 90
    32768
280
     0
281
     1
  0
CLASS
  1
ACMELINEARARROW
  2
AcImLinearArrowDisplay
  3
AcMeServices
 90
    32768
280
     0
281
     1
  0
CLASS
  1
ACMETEXT
  2
AcImTextDisplay
  3
AcMeServices
 90
    32768
280
     0
281
     1
  0
CLASS
  1
LAYER_INDEX
  2
AcDbLayerIndex
  3
ObjectDBX Classes
 90
    32768
280
     0
281
     0
  0
CLASS
  1
IDBUFFER
  2
AcDbIdBuffer
  3
ObjectDBX Classes
 90
    32768
280
     0
281
     0
  0
CLASS
  1
DICTIONARYVAR
  2
AcDbDictionaryVar
  3
ObjectDBX Classes
 90
        0
280
     0
281
     0
  0
CLASS
  1
DATUMPLANEDISPLAY
  2
AcAdDatumPlaneDisplay
  3
DesignerServices
 90
    32768
280
     0
281
     1
  0
CLASS
  1
ADWORKPOINTDISPLAY
  2
AcAdWorkPointDisplay
  3
DesignerServices
 90
    32768
280
     0
281
     1
  0
CLASS
  1
PARAM
  2
AcAdParam
  3
DesignerServices
 90
    32768
280
     0
281
     0
  0
CLASS
  1
ACADCONSGROUP
  2
AcAdConstraintGroup
  3
DesignerServices
 90
    32768
280
     0
281
     0
  0
CLASS
  1
ACADREFLINEACAD
  2
AcAdVirtualReferenceLine
  3
DesignerServices
 90
    32768
280
     0
281
     0
  0
CLASS
  1
ACADCONSLINE
  2
AcAdConstrainedLine
  3
DesignerServices
 90
    32768
280
     0
281
     0
  0
CLASS
  1
ACADCONSPOINT
  2
AcAdConstrainedPoint
  3
DesignerServices
 90
    32768
280
     0
281
     0
  0
CLASS
  1
ADVIRTUALPOINTWORKPOINTFREE
  2
AcAdVirtualPointWorkPointFree
  3
DesignerServices
 90
    32768
280
     0
281
     0
  0
CLASS
  1
ADWORKPOINTSKETCH
  2
AcAdWorkPointSketch
  3
DesignerServices
 90
    32768
280
     0
281
     0
  0
CLASS
  1
ACADLINEACAD
  2
AcAdVirtualBoundedLineAcad
  3
DesignerServices
 90
    32768
280
     0
281
     0
  0
CLASS
  1
ACADARCACAD
  2
AcAdVirtualArcAcad
  3
DesignerServices
 90
    32768
280
     0
281
     0
  0
CLASS
  1
ACADCONSCIRCLE
  2
AcAdConstrainedCircle
  3
DesignerServices
 90
    32768
280
     0
281
     0
  0
CLASS
  1
ADPCURCNS
  2
AcAdPointCurveConstr
  3
DesignerServices
 90
    32768
280
     0
281
     0
  0
CLASS
  1
ADCTRPTCNS
  2
AcAdCenterPointConstr
  3
DesignerServices
 90
    32768
280
     0
281
     0
  0
CLASS
  1
ADVERCNS
  2
AcAdVerticalConstr
  3
DesignerServices
 90
    32768
280
     0
281
     0
  0
CLASS
  1
ADHORCNS
  2
AcAdHorizontalConstr
  3
DesignerServices
 90
    32768
280
     0
281
     0
  0
CLASS
  1
ADCOLNCNS
  2
AcAdColinearConstr
  3
DesignerServices
 90
    32768
280
     0
281
     0
  0
CLASS
  1
ADTANCNS
  2
AcAdTangentConstr
  3
DesignerServices
 90
    32768
280
     0
281
     0
  0
CLASS
  1
ADCONCCNS
  2
AcAdConcentricConstr
  3
DesignerServices
 90
    32768
280
     0
281
     0
  0
CLASS
  1
ADEQRADCNS
  2
AcAdEqualRadiusConstr
  3
DesignerServices
 90
    32768
280
     0
281
     0
  0
CLASS
  1
ADVDISTCNS
  2
AcAdVerticalDistanceConstr
  3
DesignerServices
 90
    32768
280
     0
281
     0
  0
CLASS
  1
ADHDISTCNS
  2
AcAdHorizontalDistanceConstr
  3
DesignerServices
 90
    32768
280
     0
281
     0
  0
CLASS
  1
ADACADRADCNS
  2
AcAdAcadRadiusConstr
  3
DesignerServices
 90
    32768
280
     0
281
     0
  0
CLASS
  1
ACADIMPPTACAD
  2
AcAdVirtualImplicitPoint
  3
DesignerServices
 90
    32768
280
     0
281
     0
  0
CLASS
  1
ADVIRTUALPOINTWORKPOINTFIXED
  2
AcAdVirtualPointWorkPointFixed
  3
DesignerServices
 90
    32768
280
     0
281
     0
  0
CLASS
  1
ADCLPROF2D
  2
AcAdClosedProfile2d
  3
DesignerServices
 90
    32768
280
     0
281
     0
  0
CLASS
  1
DEPEDGEFEATUREORDERING
  2
AcAdDepEdgeFeatureOrdering
  3
DesignerServices
 90
    32768
280
     0
281
     0
  0
CLASS
  1
ACADVOLFEATWITHTRIM
  2
AcAdVolFeatWithTrim
  3
DesignerServices
 90
    32768
280
     0
281
     0
  0
CLASS
  1
ACAMGROUNDEDBASECOMP
  2
AcAmGroundedBaseComp
  3
DesignerAssemblies
 90
    32768
280
     0
281
     0
  0
CLASS
  1
EDGEID
  2
AcAdEdgeId
  3
DesignerServices
 90
    32768
280
     0
281
     0
  0
CLASS
  1
ACADPARTCIRCEDGRES
  2
AcAdPartCircEdgRes
  3
AdGrefServices
 90
    32768
280
     0
281
     0
  0
CLASS
  1
ACRFINSADJ
  2
AcRfInsAdjuster
  3
AcMeServices
 90
    32768
280
     0
281
     0
  0
CLASS
  1
FACEID
  2
AcAdFaceId
  3
DesignerServices
 90
    32768
280
     0
281
     0
  0
CLASS
  1
ACADPARTPLANARFACERES
  2
AcAdPartPlanarFaceRes
  3
AdGrefServices
 90
    32768
280
     0
281
     0
  0
CLASS
  1
ACAMEXPR
  2
AcAmExpr
  3
DesignerAssemblies
 90
    32768
280
     0
281
     0
  0
CLASS
  1
ACCMINSERTPLPL
  2
AcCmInsertPlPl
  3
AcCmServices
 90
    32768
280
     0
281
     0
  0
CLASS
  1
ACCMCONSTREACTOR
  2
AcCmConstraintReactor
  3
DesignerAssemblies
 90
    32768
280
     0
281
     0
  0
CLASS
  1
ACADPARTLINEDGRES
  2
AcAdPartLinEdgRes
  3
AdGrefServices
 90
    32768
280
     0
281
     0
  0
CLASS
  1
STREFID
  2
AcAdStraightRefId
  3
DesignerServices
 90
    32768
280
     0
281
     0
  0
CLASS
  1
ACMEAXIS
  2
AcImAxisDisplay
  3
AcMeServices
 90
    32768
280
     0
281
     1
  0
CLASS
  1
ACMEPOINT
  2
AcImPointDisplay
  3
AcMeServices
 90
    32768
280
     0
281
     1
  0
CLASS
  1
ACCMDISTLNLN
  2
AcCmDistLnLn
  3
DesignerAssemblies
 90
    32768
280
     0
281
     0
  0
CLASS
  1
ADPARCNS
  2
AcAdParallelConstr
  3
DesignerServices
 90
    32768
280
     0
281
     0
  0
CLASS
  1
ADLDISTCNS
  2
AcAdLinearDistanceConstr
  3
DesignerServices
 90
    32768
280
     0
281
     0
  0
CLASS
  1
CIRREFID
  2
AcAdCircleRefId
  3
DesignerServices
 90
    32768
280
     0
281
     0
  0
CLASS
  1
ACADPARTCYLINDERFACERES
  2
AcAdPartCylinderFaceRes
  3
AdGrefServices
 90
    32768
280
     0
281
     0
  0
CLASS
  1
ACCMDISTPLPL
  2
AcCmDistPlPl
  3
DesignerAssemblies
 90
    32768
280
     0
281
     0
  0
CLASS
  1
ADCONSTDSP
  2
AcAdConstraintDisplayTag
  3
DesignerServices
 90
    32768
280
     0
281
     1
  0
CLASS
  1
ACAD_LINE
  2
AcAdLine
  3
DesignerServices
 90
    32768
280
     0
281
     1
  0
CLASS
  1
ACAD_FIXCONSTRAINT
  2
AcAdFixedConstraint
  3
DesignerServices
 90
    32768
280
     0
281
     0
  0
CLASS
  1
ADCONSDISP
  2
AcAdConstraintDisplay
  3
DesignerServices
 90
    32768
280
     0
281
     1
  0
CLASS
  1
ACADSKETCHPOINTRES
  2
AcAdSketchPointRes
  3
DesignerServices
 90
    32768
280
     0
281
     0
  0
CLASS
  1
ACADLINEDEPID
  2
AcAdVirtualLineDepId
  3
DesignerServices
 90
    32768
280
     0
281
     0
  0
CLASS
  1
DEPEDGESECONDARYDEPID
  2
AcAdDepEdgeSecondaryDepId
  3
DesignerServices
 90
    32768
280
     0
281
     0
  0
CLASS
  1
AM_VIEW_SELECT_FILTER
  2
AcDmSelectViewEntFilter
  3
AcMechDwgViewMgmt
 90
    32768
280
     0
281
     0
  0
CLASS
  1
AM_ABS_PLANE
  2
AcDmAbsPlnDef
  3
AcMechDwgViewMgmt
 90
    32768
280
     0
281
     0
  0
CLASS
  1
AM_ABS_AXIS
  2
AcDmAbsAxisDef
  3
AcMechDwgViewMgmt
 90
    32768
280
     0
281
     0
  0
CLASS
  1
AM_BASE_VIEW_ORIENT
  2
AcDmBaseViewOr
  3
AcMechDwgViewMgmt
 90
    32768
280
     0
281
     0
  0
CLASS
  1
AM_DWG_VIEWPORT
  2
AcDmViewport
  3
AcMechDwgViewMgmt
 90
    32768
280
     0
281
     0
  0
CLASS
  1
AM_VIEW_DISPLAY
  2
AcDmDwgViewDisplay
  3
AcMechDwgViewMgmt
 90
    32768
280
     0
281
     0
  0
CLASS
  1
AM_CLDFLTS
  2
AcDmClDflts
  3
AcMechDwgViewMgmt
 90
    32768
280
     0
281
     0
  0
CLASS
  1
AM_BASE_VIEW
  2
AcDmBaseView
  3
AcMechDwgViewMgmt
 90
    32768
280
     0
281
     0
  0
CLASS
  1
AM_FULLPLANESECTION
  2
AcDmFullPlaneSection
  3
AcMechDwgViewMgmt
 90
    32768
280
     0
281
     0
  0
CLASS
  1
ACDMPARTVIEWDATA
  2
AcDmPartViewData
  3
AcMechDwgViewMgmt
 90
    32768
280
     0
281
     0
  0
CLASS
  1
ACDMDISPLAYATTRIBS
  2
AcDmDisplayAttribs
  3
AcMechDwgViewMgmt
 90
    32768
280
     0
281
     0
  0
CLASS
  1
ACDMBODYINSTANCEDATA
  2
AcDmBodyInstanceData
  3
AcMechDwgViewMgmt
 90
    32768
280
     0
281
     0
  0
CLASS
  1
ACDMVWEDLINE
  2
AcDmViewEdgeLine
  3
AcMechDwgViewMgmt
 90
    32768
280
     0
281
     1
  0
CLASS
  1
ACDMVISEDIT
  2
AcDmViewEntityVisEdit
  3
AcMechDwgViewMgmt
 90
    32768
280
     0
281
     0
  0
CLASS
  1
ACDMGREFEDIT
  2
AcDmViewEntityGeomrefEdit
  3
AcMechDwgViewMgmt
 90
    32768
280
     0
281
     0
  0
CLASS
  1
ACDMVIEWLINEDGERES
  2
AcDmViewLinEdgeRes
  3
AcMechDwgViewMgmt
 90
    32768
280
     0
281
     0
  0
CLASS
  1
CNRREFID
  2
AcAdCornerId
  3
DesignerServices
 90
    32768
280
     0
281
     0
  0
CLASS
  1
ACADPARTPOINTRES
  2
AcAdPartPointRes
  3
AdGrefServices
 90
    32768
280
     0
281
     0
  0
CLASS
  1
AM_VIEWDIMLINEAR
  2
AcDmViewDimLinear
  3
AcMechDwgViewMgmt
 90
    32768
280
     0
281
     0
  0
CLASS
  1
ACDMVIEWGEOM
  2
AcDmViewGeometry
  3
AcMechDwgViewMgmt
 90
    32768
280
     0
281
     1
  0
CLASS
  1
ACCMDISTPTPL
  2
AcCmDistPtPl
  3
DesignerAssemblies
 90
    32768
280
     0
281
     0
  0
CLASS
  1
ACADCIRCLEACAD
  2
AcAdVirtualCircleAcad
  3
DesignerServices
 90
    32768
280
     0
281
     0
  0
CLASS
  1
ADACADDIACNS
  2
AcAdAcadDiameterConstr
  3
DesignerServices
 90
    32768
280
     0
281
     0
  0
CLASS
  1
ACADBOUNDEDLINEDATUMID
  2
AcAdVirtualBoundedLineDatumId
  3
DesignerServices
 90
    32768
280
     0
281
     0
  0
CLASS
  1
ADHOLLOWFEAT
  2
AcAdHollowFeat
  3
DesignerServices
 90
    32768
280
     0
281
     0
  0
CLASS
  1
ACADPARTTORUSFACERES
  2
AcAdPartTorusFaceRes
  3
AdGrefServices
 90
    32768
280
     0
281
     0
  0
CLASS
  1
ACCMDISTLNPL
  2
AcCmDistLnPl
  3
AcCmServices
 90
    32768
280
     0
281
     0
  0
CLASS
  1
AM_USERDEFNNOTE
  2
AcDmUserDefnNote
  3
AcMechDwgViewMgmt
 90
    32768
280
     0
281
     0
  0
CLASS
  1
ACDMVWEDSPLINE
  2
AcDmViewEdgeSpline
  3
AcMechDwgViewMgmt
 90
    32768
280
     0
281
     1
  0
CLASS
  1
ACDMVWEDARC
  2
AcDmViewEdgeArc
  3
AcMechDwgViewMgmt
 90
    32768
280
     0
281
     1
  0
CLASS
  1
AM_ADLINCTRLINE
  2
AcAdLineCl
  3
DesignerServices
 90
    32768
280
     0
281
     0
  0
CLASS
  1
SILEDGEID
  2
AcAdSilhouetteEdgeId
  3
DesignerServices
 90
    32768
280
     0
281
     0
  0
CLASS
  1
ACADPARTSPLINEEDGERES
  2
AcAdPartSplineEdgeRes
  3
AdGrefServices
 90
    32768
280
     0
281
     0
  0
CLASS
  1
ACAD_ARC
  2
AcAdArc
  3
DesignerServices
 90
    32768
280
     0
281
     1
  0
CLASS
  1
AMDT_RADIAL_DIM
  2
AmdtRadialDimension
  3
AcMeServices
 90
    32768
280
     0
281
     1
  0
CLASS
  1
AMDT_ALIGNED_DIM
  2
AmdtAlignedDimension
  3
AcMeServices
 90
    32768
280
     0
281
     1
  0
CLASS
  1
ACDMVWEDCIRC
  2
AcDmViewEdgeCircle
  3
AcMechDwgViewMgmt
 90
    32768
280
     0
281
     1
  0
CLASS
  1
AM_ISO_VIEW_ORIENT
  2
AcDmIsoViewOr
  3
AcMechDwgViewMgmt
 90
    32768
280
     0
281
     0
  0
CLASS
  1
AM_ISO_VIEW
  2
AcDmIsoView
  3
AcMechDwgViewMgmt
 90
    32768
280
     0
281
     0
  0
CLASS
  1
AMACTIVEPARTSELECTFILTER
  2
AcDmActivePartViewEntFilter
  3
DesignerServices
 90
    32768
280
     0
281
     0
  0
CLASS
  1
AM_ORTHO_VIEW_ORIENT
  2
AcDmOrthoViewOr
  3
AcMechDwgViewMgmt
 90
    32768
280
     0
281
     0
  0
CLASS
  1
AM_ORTHO_VIEW
  2
AcDmOrthoView
  3
AcMechDwgViewMgmt
 90
    32768
280
     0
281
     0
  0
CLASS
  1
AM_ADCIRCTRLINE
  2
AcAdBullsEyeCl
  3
DesignerServices
 90
    32768
280
     0
281
     0
  0
CLASS
  1
TABLESTYLE
  2
AcDbTableStyle
  3
ObjectDBX Classes
 90
     2047
280
     0
281
     0
  0
ENDSEC
  0
SECTION
  2
TABLES
  0
TABLE
  2
VPORT
  5
1E
330
0
100
AcDbSymbolTable
 70
     4
  0
VPORT
  5
3C1
330
1E
100
AcDbSymbolTableRecord
100
AcDbViewportTableRecord
  2
*Active
 70
     0
 10
0.0
 20
0.0
 11
1.0
 21
1.0
 12
100.4264818777969
 22
67.49000020886268
 13
0.0
 23
0.0
 14
0.125
 24
0.125
 15
1.0
 25
1.0
 16
0.0
 26
0.0
 36
1.0
 17
0.0
 27
0.0
 37
0.0
 40
180.0929161119166
 41
1.488020176544766
 42
50.0
 43
0.0
 44
0.0
 50
0.0
 51
0.0
 71
     0
 72
   100
 73
     1
 74
     3
 75
     0
 76
     0
 77
     0
 78
     0
281
     0
 65
     0
110
0.0
120
0.0
130
0.0
111
1.0
121
0.0
131
0.0
112
0.0
122
1.0
132
0.0
 79
     0
146
0.0
  0
ENDTAB
  0
TABLE
  2
LTYPE
  5
19
330
0
100
AcDbSymbolTable
 70
     2
  0
LTYPE
  5
1A
330
19
100
AcDbSymbolTableRecord
100
AcDbLinetypeTableRecord
  2
ByBlock
 70
     0
  3

 72
    65
 73
     0
 40
0.0
  0
LTYPE
  5
1B
330
19
100
AcDbSymbolTableRecord
100
AcDbLinetypeTableRecord
  2
ByLayer
 70
     0
  3

 72
    65
 73
     0
 40
0.0
  0
LTYPE
  5
9
330
19
100
AcDbSymbolTableRecord
100
AcDbLinetypeTableRecord
  2
Continuous
 70
     0
  3
Solid line
 72
    65
 73
     0
 40
0.0
  0
LTYPE
  5
16B
330
19
100
AcDbSymbolTableRecord
100
AcDbLinetypeTableRecord
  2
HIDDEN
 70
     0
  3
Hidden __ __ __ __ __ __ __ __ __ __ __ __ __ _
 72
    65
 73
     2
 40
0.375
 49
0.25
 74
     0
 49
-0.125
 74
     0
  0
ENDTAB
  0
TABLE
  2
LAYER
  5
13
102
{ACAD_XDICTIONARY
360
14
102
}
330
0
100
AcDbSymbolTable
 70
     9
  0
LAYER
  5
5
330
13
100
AcDbSymbolTableRecord
100
AcDbLayerTableRecord
  2
0
 70
     0
 62
     7
  6
Continuous
370
    -3
390
6
  0
LAYER
  5
D8
330
13
100
AcDbSymbolTableRecord
100
AcDbLayerTableRecord
  2
Defpoints
 70
     0
 62
     7
  6
Continuous
290
     0
370
    -3
390
6
  0
LAYER
  5
9C
330
13
100
AcDbSymbolTableRecord
100
AcDbLayerTableRecord
  2
4
 70
     0
 62
     4
  6
Continuous
370
    -3
390
6
  0
LAYER
  5
9F
330
13
100
AcDbSymbolTableRecord
100
AcDbLayerTableRecord
  2
6
 70
     0
 62
     6
  6
Continuous
370
    -3
390
6
  0
LAYER
  5
BA
330
13
100
AcDbSymbolTableRecord
100
AcDbLayerTableRecord
  2
2
 70
     0
 62
     2
  6
Continuous
370
    -3
390
6
  0
LAYER
  5
31
330
13
100
AcDbSymbolTableRecord
100
AcDbLayerTableRecord
  2
AM_VIS
 70
     0
 62
     2
  6
Continuous
370
    30
390
6
  0
LAYER
  5
16A
330
13
100
AcDbSymbolTableRecord
100
AcDbLayerTableRecord
  2
AM_HID
 70
     0
 62
     1
  6
HIDDEN
370
    15
390
6
  0
LAYER
  5
2D
330
13
100
AcDbSymbolTableRecord
100
AcDbLayerTableRecord
  2
AM_REFDIM
 70
     0
 62
     6
  6
Continuous
370
    15
390
6
  0
LAYER
  5
45
330
13
100
AcDbSymbolTableRecord
100
AcDbLayerTableRecord
  2
AMV_2_HATCH
 70
     0
 62
     6
  6
Continuous
370
    -3
390
6
  0
ENDTAB
  0
TABLE
  2
STYLE
  5
16
330
0
100
AcDbSymbolTable
 70
     2
  0
STYLE
  5
17
330
16
100
AcDbSymbolTableRecord
100
AcDbTextStyleTableRecord
  2
STANDARD
 70
     0
 40
0.0
 41
1.0
 50
0.0
 71
     0
 42
0.2
  3
ROMANS.SHX
  4

  0
STYLE
  5
24
330
16
100
AcDbSymbolTableRecord
100
AcDbTextStyleTableRecord
  2
ROMANS
 70
     0
 40
0.0
 41
1.0
 50
0.0
 71
     0
 42
0.125
  3
ROMANS.shx
  4

  0
ENDTAB
  0
TABLE
  2
VIEW
  5
1C
330
0
100
AcDbSymbolTable
 70
     0
  0
ENDTAB
  0
TABLE
  2
UCS
  5
1D
330
0
100
AcDbSymbolTable
 70
     0
  0
ENDTAB
  0
TABLE
  2
APPID
  5
20
330
0
100
AcDbSymbolTable
 70
     2
  0
APPID
  5
21
330
20
100
AcDbSymbolTableRecord
100
AcDbRegAppTableRecord
  2
ACAD
 70
     0
  0
APPID
  5
242
330
20
100
AcDbSymbolTableRecord
100
AcDbRegAppTableRecord
  2
ACAD_DSTYLE_DIMTEXT_FILL
 70
     0
  0
ENDTAB
  0
TABLE
  2
DIMSTYLE
  5
22
330
0
100
AcDbSymbolTable
 70
     2
100
AcDbDimStyleTable
 71
     2
340
23
340
25
  0
DIMSTYLE
105
23
102
{ACAD_REACTORS
330
CC
330
DC
330
EA
330
F9
330
107
330
115
330
123
330
131
330
13F
330
14D
330
15B
330
32A
330
338
330
350
102
}
330
22
100
AcDbSymbolTableRecord
100
AcDbDimStyleTableRecord
  2
Standard
 70
     0
 40
16.0
 41
0.08
 43
0.08
 44
0.08
140
0.1
271
     2
272
     2
340
24
  0
DIMSTYLE
105
25
330
22
100
AcDbSymbolTableRecord
100
AcDbDimStyleTableRecord
  2
AM_ANSI
 70
     0
  4
mm
 41
0.1
 42
0.05
 43
0.5
 44
0.1
 47
0.1
 48
0.1
 78
     7
 79
     2
140
0.12
141
0.0
146
0.71
147
0.06
176
   256
177
   256
178
     2
274
     4
284
     7
340
17
371
    -1
372
    -1
  0
ENDTAB
  0
TABLE
  2
BLOCK_RECORD
  5
1
330
0
100
AcDbSymbolTable
 70
    25
  0
BLOCK_RECORD
  5
2
102
{ACAD_XDICTIONARY
360
3
102
}
330
1
100
AcDbSymbolTableRecord
100
AcDbBlockTableRecord
  2
*Model_Space
340
B
  0
BLOCK_RECORD
  5
D
330
1
100
AcDbSymbolTableRecord
100
AcDbBlockTableRecord
  2
*Paper_Space
340
10
  0
BLOCK_RECORD
  5
CD
330
1
100
AcDbSymbolTableRecord
100
AcDbBlockTableRecord
  2
*D0
340
0
  0
BLOCK_RECORD
  5
DD
330
1
100
AcDbSymbolTableRecord
100
AcDbBlockTableRecord
  2
*D1
340
0
  0
BLOCK_RECORD
  5
EB
330
1
100
AcDbSymbolTableRecord
100
AcDbBlockTableRecord
  2
*D2
340
0
  0
BLOCK_RECORD
  5
FA
330
1
100
AcDbSymbolTableRecord
100
AcDbBlockTableRecord
  2
*D3
340
0
  0
BLOCK_RECORD
  5
108
330
1
100
AcDbSymbolTableRecord
100
AcDbBlockTableRecord
  2
*D4
340
0
  0
BLOCK_RECORD
  5
116
330
1
100
AcDbSymbolTableRecord
100
AcDbBlockTableRecord
  2
*D5
340
0
  0
BLOCK_RECORD
  5
124
330
1
100
AcDbSymbolTableRecord
100
AcDbBlockTableRecord
  2
*D6
340
0
  0
BLOCK_RECORD
  5
132
330
1
100
AcDbSymbolTableRecord
100
AcDbBlockTableRecord
  2
*D7
340
0
  0
BLOCK_RECORD
  5
140
330
1
100
AcDbSymbolTableRecord
100
AcDbBlockTableRecord
  2
*D8
340
0
  0
BLOCK_RECORD
  5
14E
330
1
100
AcDbSymbolTableRecord
100
AcDbBlockTableRecord
  2
*D9
340
0
  0
BLOCK_RECORD
  5
15C
330
1
100
AcDbSymbolTableRecord
100
AcDbBlockTableRecord
  2
*D10
340
0
  0
BLOCK_RECORD
  5
27B
330
1
100
AcDbSymbolTableRecord
100
AcDbBlockTableRecord
  2
*D11
340
0
  0
BLOCK_RECORD
  5
289
330
1
100
AcDbSymbolTableRecord
100
AcDbBlockTableRecord
  2
*D12
340
0
  0
BLOCK_RECORD
  5
296
330
1
100
AcDbSymbolTableRecord
100
AcDbBlockTableRecord
  2
*D13
340
0
  0
BLOCK_RECORD
  5
2A4
330
1
100
AcDbSymbolTableRecord
100
AcDbBlockTableRecord
  2
*D14
340
0
  0
BLOCK_RECORD
  5
2B1
330
1
100
AcDbSymbolTableRecord
100
AcDbBlockTableRecord
  2
*D15
340
0
  0
BLOCK_RECORD
  5
2BE
330
1
100
AcDbSymbolTableRecord
100
AcDbBlockTableRecord
  2
*D16
340
0
  0
BLOCK_RECORD
  5
2CB
330
1
100
AcDbSymbolTableRecord
100
AcDbBlockTableRecord
  2
*D17
340
0
  0
BLOCK_RECORD
  5
2D8
330
1
100
AcDbSymbolTableRecord
100
AcDbBlockTableRecord
  2
*D18
340
0
  0
BLOCK_RECORD
  5
2E5
330
1
100
AcDbSymbolTableRecord
100
AcDbBlockTableRecord
  2
*D19
340
0
  0
BLOCK_RECORD
  5
2F2
330
1
100
AcDbSymbolTableRecord
100
AcDbBlockTableRecord
  2
*D20
340
0
  0
BLOCK_RECORD
  5
2FF
330
1
100
AcDbSymbolTableRecord
100
AcDbBlockTableRecord
  2
*D21
340
0
  0
BLOCK_RECORD
  5
32B
330
1
100
AcDbSymbolTableRecord
100
AcDbBlockTableRecord
  2
*D22
340
0
  0
BLOCK_RECORD
  5
339
330
1
100
AcDbSymbolTableRecord
100
AcDbBlockTableRecord
  2
*D23
340
0
  0
BLOCK_RECORD
  5
351
330
1
100
AcDbSymbolTableRecord
100
AcDbBlockTableRecord
  2
*D24
340
0
  0
ENDTAB
  0
ENDSEC
  0
SECTION
  2
BLOCKS
  0
BLOCK
  5
4
330
2
100
AcDbEntity
  8
0
100
AcDbBlockBegin
  2
*Model_Space
 70
     0
 10
0.0
 20
0.0
 30
0.0
  3
*Model_Space
  1

  0
ENDBLK
  5
A
330
2
100
AcDbEntity
  8
0
100
AcDbBlockEnd
  0
BLOCK
  5
E
330
D
100
AcDbEntity
 67
     1
  8
0
100
AcDbBlockBegin
  2
*Paper_Space
 70
     0
 10
0.0
 20
0.0
 30
0.0
  3
*Paper_Space
  1

  0
ENDBLK
  5
F
330
D
100
AcDbEntity
 67
     1
  8
0
100
AcDbBlockEnd
  0
BLOCK
  5
CE
330
CD
100
AcDbEntity
  8
0
100
AcDbBlockBegin
  2
*D0
 70
     1
 10
0.0
 20
0.0
 30
0.0
  3
*D0
  1

  0
LINE
  5
CF
330
CD
100
AcDbEntity
  8
AM_REFDIM
 62
     0
370
    -2
100
AcDbLine
 10
121.1323089133405
 20
93.64357616671863
 30
0.0
 11
136.8451968605979
 21
93.64357616671863
 31
0.0
  0
LINE
  5
D0
330
CD
100
AcDbEntity
  8
AM_REFDIM
 62
     0
370
    -2
100
AcDbLine
 10
125.7573089133405
 20
95.64357616671866
 30
0.0
 11
136.8451968605979
 21
95.64357616671866
 31
0.0
  0
LINE
  5
D1
330
CD
100
AcDbEntity
  8
AM_REFDIM
 62
     0
370
    -2
100
AcDbLine
 10
136.7651968605979
 20
93.72357616671866
 30
0.0
 11
136.7651968605979
 21
95.56357616671864
 31
0.0
  0
LINE
  5
D2
330
CD
100
AcDbEntity
  8
AM_REFDIM
 62
     0
370
    -2
100
AcDbLine
 10
136.7651968605979
 20
95.64357616671866
 30
0.0
 11
136.7651968605979
 21
99.96453985389827
 31
0.0
  0
LINE
  5
D3
330
CD
100
AcDbEntity
  8
AM_REFDIM
 62
     0
370
    -2
100
AcDbLine
 10
136.7651968605979
 20
99.96453985389827
 30
0.0
 11
136.8451968605979
 21
99.96453985389827
 31
0.0
  0
SOLID
  5
D4
330
CD
100
AcDbEntity
  8
AM_REFDIM
 62
     0
100
AcDbTrace
 10
136.7518635272646
 20
93.72357616671866
 30
0.0
 11
136.7785301939312
 21
93.72357616671866
 31
0.0
 12
136.7651968605979
 22
93.64357616671863
 32
0.0
 13
136.7651968605979
 23
93.64357616671863
 33
0.0
  0
SOLID
  5
D5
330
CD
100
AcDbEntity
  8
AM_REFDIM
 62
     0
100
AcDbTrace
 10
136.7518635272646
 20
95.56357616671864
 30
0.0
 11
136.7785301939312
 21
95.56357616671864
 31
0.0
 12
136.7651968605979
 22
95.64357616671866
 32
0.0
 13
136.7651968605979
 23
95.64357616671866
 33
0.0
  0
MTEXT
  5
D6
330
CD
100
AcDbEntity
  8
AM_REFDIM
 62
     0
100
AcDbMText
 10
137.0875778129788
 20
99.96453985389827
 30
0.0
 40
0.1
 41
0.0
 71
     5
 72
     1
  1
\A1;2.00\PBLK.
  7
ROMANS
 73
     1
 44
1.0
1001
ACAD
1000
MTEXTBEGIN
1070
    73
1070
     1
1070
    44
1040
1.0
1070
    74
1070
     0
1000
MTEXTEND
  0
POINT
  5
D7
330
CD
100
AcDbEntity
  8
Defpoints
 62
     0
100
AcDbPoint
 10
121.0698089133405
 20
93.64357616671863
 30
0.0
  0
POINT
  5
D9
330
CD
100
AcDbEntity
  8
Defpoints
 62
     0
100
AcDbPoint
 10
125.6948089133405
 20
95.64357616671866
 30
0.0
  0
POINT
  5
DA
330
CD
100
AcDbEntity
  8
Defpoints
 62
     0
100
AcDbPoint
 10
136.7651968605979
 20
95.64357616671866
 30
0.0
  0
ENDBLK
  5
DB
330
CD
100
AcDbEntity
  8
0
100
AcDbBlockEnd
  0
BLOCK
  5
DE
330
DD
100
AcDbEntity
  8
0
100
AcDbBlockBegin
  2
*D1
 70
     1
 10
0.0
 20
0.0
 30
0.0
  3
*D1
  1

  0
LINE
  5
DF
330
DD
100
AcDbEntity
  8
AM_REFDIM
 62
     0
370
    -2
100
AcDbLine
 10
121.1323089133405
 20
93.64357616671863
 30
0.0
 11
131.6871016225027
 21
93.64357616671863
 31
0.0
  0
LINE
  5
E0
330
DD
100
AcDbEntity
  8
AM_REFDIM
 62
     0
370
    -2
100
AcDbLine
 10
121.1323089133405
 20
41.64357616671863
 30
0.0
 11
131.6871016225027
 21
41.64357616671863
 31
0.0
  0
LINE
  5
E1
330
DD
100
AcDbEntity
  8
AM_REFDIM
 62
     0
370
    -2
100
AcDbLine
 10
131.6071016225027
 20
93.56357616671866
 30
0.0
 11
131.6071016225027
 21
67.86690950005198
 31
0.0
  0
LINE
  5
E2
330
DD
100
AcDbEntity
  8
AM_REFDIM
 62
     0
370
    -2
100
AcDbLine
 10
131.6071016225027
 20
41.72357616671864
 30
0.0
 11
131.6071016225027
 21
67.42024283338531
 31
0.0
  0
SOLID
  5
E3
330
DD
100
AcDbEntity
  8
AM_REFDIM
 62
     0
100
AcDbTrace
 10
131.5937682891694
 20
93.56357616671866
 30
0.0
 11
131.620434955836
 21
93.56357616671866
 31
0.0
 12
131.6071016225027
 22
93.64357616671863
 32
0.0
 13
131.6071016225027
 23
93.64357616671863
 33
0.0
  0
SOLID
  5
E4
330
DD
100
AcDbEntity
  8
AM_REFDIM
 62
     0
100
AcDbTrace
 10
131.5937682891693
 20
41.72357616671864
 30
0.0
 11
131.620434955836
 21
41.72357616671864
 31
0.0
 12
131.6071016225027
 22
41.64357616671863
 32
0.0
 13
131.6071016225027
 23
41.64357616671863
 33
0.0
  0
MTEXT
  5
E5
330
DD
100
AcDbEntity
  8
AM_REFDIM
 62
     0
100
AcDbMText
 10
131.6071016225027
 20
67.64357616671865
 30
0.0
 40
0.1
 41
0.0
 71
     5
 72
     1
  1
\A1;52.00\PVAH
  7
ROMANS
 73
     1
 44
1.0
1001
ACAD
1000
MTEXTBEGIN
1070
    73
1070
     1
1070
    44
1040
1.0
1070
    74
1070
     0
1000
MTEXTEND
  0
POINT
  5
E6
330
DD
100
AcDbEntity
  8
Defpoints
 62
     0
100
AcDbPoint
 10
121.0698089133405
 20
93.64357616671863
 30
0.0
  0
POINT
  5
E7
330
DD
100
AcDbEntity
  8
Defpoints
 62
     0
100
AcDbPoint
 10
121.0698089133405
 20
41.64357616671863
 30
0.0
  0
POINT
  5
E8
330
DD
100
AcDbEntity
  8
Defpoints
 62
     0
100
AcDbPoint
 10
131.6071016225027
 20
41.64357616671863
 30
0.0
  0
ENDBLK
  5
E9
330
DD
100
AcDbEntity
  8
0
100
AcDbBlockEnd
  0
BLOCK
  5
EC
330
EB
100
AcDbEntity
  8
0
100
AcDbBlockBegin
  2
*D2
 70
     1
 10
0.0
 20
0.0
 30
0.0
  3
*D2
  1

  0
LINE
  5
ED
330
EB
100
AcDbEntity
  8
AM_REFDIM
 62
     0
370
    -2
100
AcDbLine
 10
121.1323089133405
 20
39.64357616671865
 30
0.0
 11
126.5290063844074
 21
39.64357616671865
 31
0.0
  0
LINE
  5
EE
330
EB
100
AcDbEntity
  8
AM_REFDIM
 62
     0
370
    -2
100
AcDbLine
 10
121.1323089133405
 20
41.64357616671863
 30
0.0
 11
126.5290063844074
 21
41.64357616671863
 31
0.0
  0
LINE
  5
EF
330
EB
100
AcDbEntity
  8
AM_REFDIM
 62
     0
370
    -2
100
AcDbLine
 10
126.4490063844074
 20
41.56357616671864
 30
0.0
 11
126.4490063844074
 21
39.72357616671864
 31
0.0
  0
LINE
  5
F0
330
EB
100
AcDbEntity
  8
AM_REFDIM
 62
     0
370
    -2
100
AcDbLine
 10
126.4490063844074
 20
39.64357616671865
 30
0.0
 11
126.4490063844074
 21
36.92357616671865
 31
0.0
  0
LINE
  5
F1
330
EB
100
AcDbEntity
  8
AM_REFDIM
 62
     0
370
    -2
100
AcDbLine
 10
126.4490063844074
 20
36.92357616671865
 30
0.0
 11
126.3690063844074
 21
36.92357616671865
 31
0.0
  0
SOLID
  5
F2
330
EB
100
AcDbEntity
  8
AM_REFDIM
 62
     0
100
AcDbTrace
 10
126.4356730510741
 20
41.56357616671864
 30
0.0
 11
126.4623397177408
 21
41.56357616671864
 31
0.0
 12
126.4490063844074
 22
41.64357616671863
 32
0.0
 13
126.4490063844074
 23
41.64357616671863
 33
0.0
  0
SOLID
  5
F3
330
EB
100
AcDbEntity
  8
AM_REFDIM
 62
     0
100
AcDbTrace
 10
126.4356730510741
 20
39.72357616671864
 30
0.0
 11
126.4623397177408
 21
39.72357616671864
 31
0.0
 12
126.4490063844074
 22
39.64357616671865
 32
0.0
 13
126.4490063844074
 23
39.64357616671865
 33
0.0
  0
MTEXT
  5
F4
330
EB
100
AcDbEntity
  8
AM_REFDIM
 62
     0
100
AcDbMText
 10
126.1266254320265
 20
36.92357616671868
 30
0.0
 40
0.1
 41
0.0
 71
     5
 72
     1
  1
\A1;2.00
  7
ROMANS
 73
     1
 44
1.0
1001
ACAD
1000
MTEXTBEGIN
1070
    73
1070
     1
1070
    44
1040
1.0
1070
    74
1070
     0
1000
MTEXTEND
  0
POINT
  5
F5
330
EB
100
AcDbEntity
  8
Defpoints
 62
     0
100
AcDbPoint
 10
121.0698089133405
 20
39.64357616671865
 30
0.0
  0
POINT
  5
F6
330
EB
100
AcDbEntity
  8
Defpoints
 62
     0
100
AcDbPoint
 10
121.0698089133405
 20
41.64357616671863
 30
0.0
  0
POINT
  5
F7
330
EB
100
AcDbEntity
  8
Defpoints
 62
     0
100
AcDbPoint
 10
126.4490063844074
 20
41.64357616671863
 30
0.0
  0
ENDBLK
  5
F8
330
EB
100
AcDbEntity
  8
0
100
AcDbBlockEnd
  0
BLOCK
  5
FB
330
FA
100
AcDbEntity
  8
0
100
AcDbBlockBegin
  2
*D3
 70
     1
 10
0.0
 20
0.0
 30
0.0
  3
*D3
  1

  0
LINE
  5
FC
330
FA
100
AcDbEntity
  8
AM_REFDIM
 62
     0
370
    -2
100
AcDbLine
 10
121.1323089133405
 20
39.64357616671865
 30
0.0
 11
138.3217154488064
 21
39.64357616671865
 31
0.0
  0
LINE
  5
FD
330
FA
100
AcDbEntity
  8
AM_REFDIM
 62
     0
370
    -2
100
AcDbLine
 10
125.7573089133405
 20
95.64357616671866
 30
0.0
 11
138.3217154488065
 21
95.64357616671866
 31
0.0
  0
LINE
  5
FE
330
FA
100
AcDbEntity
  8
AM_REFDIM
 62
     0
370
    -2
100
AcDbLine
 10
138.2417154488064
 20
39.72357616671864
 30
0.0
 11
138.2417154488065
 21
75.73775072891629
 31
0.0
  0
LINE
  5
FF
330
FA
100
AcDbEntity
  8
AM_REFDIM
 62
     0
370
    -2
100
AcDbLine
 10
138.2417154488065
 20
95.56357616671864
 30
0.0
 11
138.2417154488065
 21
76.0177507289163
 31
0.0
  0
SOLID
  5
100
330
FA
100
AcDbEntity
  8
AM_REFDIM
 62
     0
100
AcDbTrace
 10
138.2283821154731
 20
39.72357616671864
 30
0.0
 11
138.2550487821397
 21
39.72357616671864
 31
0.0
 12
138.2417154488064
 22
39.64357616671865
 32
0.0
 13
138.2417154488064
 23
39.64357616671865
 33
0.0
  0
SOLID
  5
101
330
FA
100
AcDbEntity
  8
AM_REFDIM
 62
     0
100
AcDbTrace
 10
138.2283821154731
 20
95.56357616671864
 30
0.0
 11
138.2550487821398
 21
95.56357616671864
 31
0.0
 12
138.2417154488065
 22
95.64357616671866
 32
0.0
 13
138.2417154488065
 23
95.64357616671866
 33
0.0
  0
MTEXT
  5
102
330
FA
100
AcDbEntity
  8
AM_REFDIM
 62
     0
100
AcDbMText
 10
138.2417154488064
 20
75.87775072891631
 30
0.0
 40
0.1
 41
0.0
 71
     5
 72
     1
  1
\A1;56.00
  7
ROMANS
 73
     1
 44
1.0
1001
ACAD
1000
MTEXTBEGIN
1070
    73
1070
     1
1070
    44
1040
1.0
1070
    74
1070
     0
1000
MTEXTEND
  0
POINT
  5
103
330
FA
100
AcDbEntity
  8
Defpoints
 62
     0
100
AcDbPoint
 10
121.0698089133405
 20
39.64357616671865
 30
0.0
  0
POINT
  5
104
330
FA
100
AcDbEntity
  8
Defpoints
 62
     0
100
AcDbPoint
 10
125.6948089133405
 20
95.64357616671866
 30
0.0
  0
POINT
  5
105
330
FA
100
AcDbEntity
  8
Defpoints
 62
     0
100
AcDbPoint
 10
138.2417154488065
 20
95.64357616671866
 30
0.0
  0
ENDBLK
  5
106
330
FA
100
AcDbEntity
  8
0
100
AcDbBlockEnd
  0
BLOCK
  5
109
330
108
100
AcDbEntity
  8
0
100
AcDbBlockBegin
  2
*D4
 70
     1
 10
0.0
 20
0.0
 30
0.0
  3
*D4
  1

  0
LINE
  5
10A
330
108
100
AcDbEntity
  8
AM_REFDIM
 62
     0
370
    -2
100
AcDbLine
 10
119.0698089133405
 20
41.58107616671864
 30
0.0
 11
119.0698089133405
 21
37.14511930338189
 31
0.0
  0
LINE
  5
10B
330
108
100
AcDbEntity
  8
AM_REFDIM
 62
     0
370
    -2
100
AcDbLine
 10
27.06980891334052
 20
41.58107616671864
 30
0.0
 11
27.06980891334052
 21
37.14511930338189
 31
0.0
  0
LINE
  5
10C
330
108
100
AcDbEntity
  8
AM_REFDIM
 62
     0
370
    -2
100
AcDbLine
 10
118.9898089133405
 20
37.22511930338188
 30
0.0
 11
73.55504700857861
 21
37.22511930338188
 31
0.0
  0
LINE
  5
10D
330
108
100
AcDbEntity
  8
AM_REFDIM
 62
     0
370
    -2
100
AcDbLine
 10
27.14980891334052
 20
37.22511930338188
 30
0.0
 11
72.58457081810243
 21
37.22511930338188
 31
0.0
  0
SOLID
  5
10E
330
108
100
AcDbEntity
  8
AM_REFDIM
 62
     0
100
AcDbTrace
 10
118.9898089133405
 20
37.23845263671522
 30
0.0
 11
118.9898089133405
 21
37.21178597004854
 31
0.0
 12
119.0698089133405
 22
37.22511930338188
 32
0.0
 13
119.0698089133405
 23
37.22511930338188
 33
0.0
  0
SOLID
  5
10F
330
108
100
AcDbEntity
  8
AM_REFDIM
 62
     0
100
AcDbTrace
 10
27.14980891334052
 20
37.23845263671522
 30
0.0
 11
27.14980891334052
 21
37.21178597004854
 31
0.0
 12
27.06980891334052
 22
37.22511930338188
 32
0.0
 13
27.06980891334052
 23
37.22511930338188
 33
0.0
  0
MTEXT
  5
110
330
108
100
AcDbEntity
  8
AM_REFDIM
 62
     0
100
AcDbMText
 10
73.06980891334053
 20
37.22511930338188
 30
0.0
 40
0.1
 41
0.0
 71
     5
 72
     1
  1
\A1;92.00 VAW
  7
ROMANS
 73
     1
 44
1.0
1001
ACAD
1000
MTEXTBEGIN
1070
    73
1070
     1
1070
    44
1040
1.0
1070
    74
1070
     0
1000
MTEXTEND
  0
POINT
  5
111
330
108
100
AcDbEntity
  8
Defpoints
 62
     0
100
AcDbPoint
 10
119.0698089133405
 20
41.64357616671863
 30
0.0
  0
POINT
  5
112
330
108
100
AcDbEntity
  8
Defpoints
 62
     0
100
AcDbPoint
 10
27.06980891334052
 20
41.64357616671863
 30
0.0
  0
POINT
  5
113
330
108
100
AcDbEntity
  8
Defpoints
 62
     0
100
AcDbPoint
 10
27.06980891334052
 20
37.22511930338188
 30
0.0
  0
ENDBLK
  5
114
330
108
100
AcDbEntity
  8
0
100
AcDbBlockEnd
  0
BLOCK
  5
117
330
116
100
AcDbEntity
  8
0
100
AcDbBlockBegin
  2
*D5
 70
     1
 10
0.0
 20
0.0
 30
0.0
  3
*D5
  1

  0
LINE
  5
118
330
116
100
AcDbEntity
  8
AM_REFDIM
 62
     0
370
    -2
100
AcDbLine
 10
27.06980891334052
 20
41.58107616671864
 30
0.0
 11
27.06980891334052
 21
37.14511930338189
 31
0.0
  0
LINE
  5
119
330
116
100
AcDbEntity
  8
AM_REFDIM
 62
     0
370
    -2
100
AcDbLine
 10
25.0698089133405
 20
39.58107616671865
 30
0.0
 11
25.0698089133405
 21
37.14511930338189
 31
0.0
  0
LINE
  5
11A
330
116
100
AcDbEntity
  8
AM_REFDIM
 62
     0
370
    -2
100
AcDbLine
 10
26.98980891334052
 20
37.22511930338188
 30
0.0
 11
26.31218986572146
 21
37.22511930338188
 31
0.0
  0
LINE
  5
11B
330
116
100
AcDbEntity
  8
AM_REFDIM
 62
     0
370
    -2
100
AcDbLine
 10
25.1498089133405
 20
37.22511930338188
 30
0.0
 11
25.82742796095956
 21
37.22511930338188
 31
0.0
  0
SOLID
  5
11C
330
116
100
AcDbEntity
  8
AM_REFDIM
 62
     0
100
AcDbTrace
 10
26.98980891334052
 20
37.23845263671522
 30
0.0
 11
26.98980891334052
 21
37.21178597004854
 31
0.0
 12
27.06980891334052
 22
37.22511930338188
 32
0.0
 13
27.06980891334052
 23
37.22511930338188
 33
0.0
  0
SOLID
  5
11D
330
116
100
AcDbEntity
  8
AM_REFDIM
 62
     0
100
AcDbTrace
 10
25.1498089133405
 20
37.23845263671522
 30
0.0
 11
25.1498089133405
 21
37.21178597004854
 31
0.0
 12
25.0698089133405
 22
37.22511930338188
 32
0.0
 13
25.0698089133405
 23
37.22511930338188
 33
0.0
  0
MTEXT
  5
11E
330
116
100
AcDbEntity
  8
AM_REFDIM
 62
     0
100
AcDbMText
 10
26.06980891334051
 20
37.22511930338188
 30
0.0
 40
0.1
 41
0.0
 71
     5
 72
     1
  1
\A1;2.00
  7
ROMANS
 73
     1
 44
1.0
1001
ACAD
1000
MTEXTBEGIN
1070
    73
1070
     1
1070
    44
1040
1.0
1070
    74
1070
     0
1000
MTEXTEND
  0
POINT
  5
11F
330
116
100
AcDbEntity
  8
Defpoints
 62
     0
100
AcDbPoint
 10
27.06980891334052
 20
41.64357616671863
 30
0.0
  0
POINT
  5
120
330
116
100
AcDbEntity
  8
Defpoints
 62
     0
100
AcDbPoint
 10
25.0698089133405
 20
39.64357616671865
 30
0.0
  0
POINT
  5
121
330
116
100
AcDbEntity
  8
Defpoints
 62
     0
100
AcDbPoint
 10
25.0698089133405
 20
37.22511930338188
 30
0.0
  0
ENDBLK
  5
122
330
116
100
AcDbEntity
  8
0
100
AcDbBlockEnd
  0
BLOCK
  5
125
330
124
100
AcDbEntity
  8
0
100
AcDbBlockBegin
  2
*D6
 70
     1
 10
0.0
 20
0.0
 30
0.0
  3
*D6
  1

  0
LINE
  5
126
330
124
100
AcDbEntity
  8
AM_REFDIM
 62
     0
370
    -2
100
AcDbLine
 10
25.0698089133405
 20
39.58107616671865
 30
0.0
 11
25.0698089133405
 21
32.57997162734262
 31
0.0
  0
LINE
  5
127
330
124
100
AcDbEntity
  8
AM_REFDIM
 62
     0
370
    -2
100
AcDbLine
 10
121.0698089133405
 20
39.58107616671867
 30
0.0
 11
121.0698089133405
 21
32.57997162734262
 31
0.0
  0
LINE
  5
128
330
124
100
AcDbEntity
  8
AM_REFDIM
 62
     0
370
    -2
100
AcDbLine
 10
25.1498089133405
 20
32.65997162734262
 30
0.0
 11
72.1440946276262
 21
32.65997162734262
 31
0.0
  0
LINE
  5
129
330
124
100
AcDbEntity
  8
AM_REFDIM
 62
     0
370
    -2
100
AcDbLine
 10
120.9898089133405
 20
32.65997162734262
 30
0.0
 11
73.99552319905478
 21
32.65997162734262
 31
0.0
  0
SOLID
  5
12A
330
124
100
AcDbEntity
  8
AM_REFDIM
 62
     0
100
AcDbTrace
 10
25.1498089133405
 20
32.67330496067596
 30
0.0
 11
25.1498089133405
 21
32.64663829400929
 31
0.0
 12
25.0698089133405
 22
32.65997162734262
 32
0.0
 13
25.0698089133405
 23
32.65997162734262
 33
0.0
  0
SOLID
  5
12B
330
124
100
AcDbEntity
  8
AM_REFDIM
 62
     0
100
AcDbTrace
 10
120.9898089133405
 20
32.67330496067596
 30
0.0
 11
120.9898089133405
 21
32.64663829400929
 31
0.0
 12
121.0698089133405
 22
32.65997162734262
 32
0.0
 13
121.0698089133405
 23
32.65997162734262
 33
0.0
  0
MTEXT
  5
12C
330
124
100
AcDbEntity
  8
AM_REFDIM
 62
     0
100
AcDbMText
 10
73.06980891334048
 20
32.65997162734262
 30
0.0
 40
0.1
 41
0.0
 71
     5
 72
     1
  1
\A1;96.00 (FABRIC WIDTH)
  7
ROMANS
 73
     1
 44
1.0
1001
ACAD
1000
MTEXTBEGIN
1070
    73
1070
     1
1070
    44
1040
1.0
1070
    74
1070
     0
1000
MTEXTEND
  0
POINT
  5
12D
330
124
100
AcDbEntity
  8
Defpoints
 62
     0
100
AcDbPoint
 10
25.0698089133405
 20
39.64357616671865
 30
0.0
  0
POINT
  5
12E
330
124
100
AcDbEntity
  8
Defpoints
 62
     0
100
AcDbPoint
 10
121.0698089133405
 20
39.64357616671867
 30
0.0
  0
POINT
  5
12F
330
124
100
AcDbEntity
  8
Defpoints
 62
     0
100
AcDbPoint
 10
121.0698089133405
 20
32.65997162734262
 30
0.0
  0
ENDBLK
  5
130
330
124
100
AcDbEntity
  8
0
100
AcDbBlockEnd
  0
BLOCK
  5
133
330
132
100
AcDbEntity
  8
0
100
AcDbBlockBegin
  2
*D7
 70
     1
 10
0.0
 20
0.0
 30
0.0
  3
*D7
  1

  0
LINE
  5
134
330
132
100
AcDbEntity
  8
AM_REFDIM
 62
     0
370
    -2
100
AcDbLine
 10
24.6948089133405
 20
39.84227616671865
 30
0.0
 11
24.6948089133405
 21
28.7907996415113
 31
0.0
  0
LINE
  5
135
330
132
100
AcDbEntity
  8
AM_REFDIM
 62
     0
370
    -2
100
AcDbLine
 10
121.4448089133405
 20
39.84227616671866
 30
0.0
 11
121.4448089133405
 21
28.7907996415113
 31
0.0
  0
LINE
  5
136
330
132
100
AcDbEntity
  8
AM_REFDIM
 62
     0
370
    -2
100
AcDbLine
 10
24.7748089133405
 20
28.8707996415113
 30
0.0
 11
71.65838034191192
 21
28.8707996415113
 31
0.0
  0
LINE
  5
137
330
132
100
AcDbEntity
  8
AM_REFDIM
 62
     0
370
    -2
100
AcDbLine
 10
121.3648089133405
 20
28.8707996415113
 30
0.0
 11
74.48123748476906
 21
28.8707996415113
 31
0.0
  0
SOLID
  5
138
330
132
100
AcDbEntity
  8
AM_REFDIM
 62
     0
100
AcDbTrace
 10
24.7748089133405
 20
28.88413297484463
 30
0.0
 11
24.7748089133405
 21
28.85746630817797
 31
0.0
 12
24.6948089133405
 22
28.8707996415113
 32
0.0
 13
24.6948089133405
 23
28.8707996415113
 33
0.0
  0
SOLID
  5
139
330
132
100
AcDbEntity
  8
AM_REFDIM
 62
     0
100
AcDbTrace
 10
121.3648089133405
 20
28.88413297484463
 30
0.0
 11
121.3648089133405
 21
28.85746630817797
 31
0.0
 12
121.4448089133405
 22
28.8707996415113
 32
0.0
 13
121.4448089133405
 23
28.8707996415113
 33
0.0
  0
MTEXT
  5
13A
330
132
100
AcDbEntity
  8
AM_REFDIM
 62
     0
100
AcDbMText
 10
73.06980891334048
 20
28.8707996415113
 30
0.0
 40
0.1
 41
0.0
 71
     5
 72
     1
  1
\A1;96.75 (OVERALL LENGTH OF SLAT)
  7
ROMANS
 73
     1
 44
1.0
1001
ACAD
1000
MTEXTBEGIN
1070
    73
1070
     1
1070
    44
1040
1.0
1070
    74
1070
     0
1000
MTEXTEND
  0
POINT
  5
13B
330
132
100
AcDbEntity
  8
Defpoints
 62
     0
100
AcDbPoint
 10
24.6948089133405
 20
39.90477616671865
 30
0.0
  0
POINT
  5
13C
330
132
100
AcDbEntity
  8
Defpoints
 62
     0
100
AcDbPoint
 10
121.4448089133405
 20
39.90477616671866
 30
0.0
  0
POINT
  5
13D
330
132
100
AcDbEntity
  8
Defpoints
 62
     0
100
AcDbPoint
 10
121.4448089133405
 20
28.8707996415113
 30
0.0
  0
ENDBLK
  5
13E
330
132
100
AcDbEntity
  8
0
100
AcDbBlockEnd
  0
BLOCK
  5
141
330
140
100
AcDbEntity
  8
0
100
AcDbBlockBegin
  2
*D8
 70
     1
 10
0.0
 20
0.0
 30
0.0
  3
*D8
  1

  0
LINE
  5
142
330
140
100
AcDbEntity
  8
AM_REFDIM
 62
     0
370
    -2
100
AcDbLine
 10
21.1948089133405
 20
100.3460761667186
 30
0.0
 11
21.1948089133405
 21
103.6968511062936
 31
0.0
  0
LINE
  5
143
330
140
100
AcDbEntity
  8
AM_REFDIM
 62
     0
370
    -2
100
AcDbLine
 10
125.6948089133405
 20
100.3460761667186
 30
0.0
 11
125.6948089133405
 21
103.6968511062936
 31
0.0
  0
LINE
  5
144
330
140
100
AcDbEntity
  8
AM_REFDIM
 62
     0
370
    -2
100
AcDbLine
 10
21.2748089133405
 20
103.6168511062935
 30
0.0
 11
72.48576129429288
 21
103.6168511062935
 31
0.0
  0
LINE
  5
145
330
140
100
AcDbEntity
  8
AM_REFDIM
 62
     0
370
    -2
100
AcDbLine
 10
125.6148089133405
 20
103.6168511062935
 30
0.0
 11
74.40385653238812
 21
103.6168511062935
 31
0.0
  0
SOLID
  5
146
330
140
100
AcDbEntity
  8
AM_REFDIM
 62
     0
100
AcDbTrace
 10
21.2748089133405
 20
103.6301844396269
 30
0.0
 11
21.2748089133405
 21
103.6035177729602
 31
0.0
 12
21.1948089133405
 22
103.6168511062935
 32
0.0
 13
21.1948089133405
 23
103.6168511062935
 33
0.0
  0
SOLID
  5
147
330
140
100
AcDbEntity
  8
AM_REFDIM
 62
     0
100
AcDbTrace
 10
125.6148089133405
 20
103.6301844396269
 30
0.0
 11
125.6148089133405
 21
103.6035177729602
 31
0.0
 12
125.6948089133405
 22
103.6168511062935
 32
0.0
 13
125.6948089133405
 23
103.6168511062935
 33
0.0
  0
MTEXT
  5
148
330
140
100
AcDbEntity
  8
AM_REFDIM
 62
     0
100
AcDbMText
 10
73.4448089133405
 20
103.6168511062935
 30
0.0
 40
0.1
 41
0.0
 71
     5
 72
     1
  1
\A1;104.50 (CASE LENGTH)
  7
ROMANS
 73
     1
 44
1.0
1001
ACAD
1000
MTEXTBEGIN
1070
    73
1070
     1
1070
    44
1040
1.0
1070
    74
1070
     0
1000
MTEXTEND
  0
POINT
  5
149
330
140
100
AcDbEntity
  8
Defpoints
 62
     0
100
AcDbPoint
 10
21.1948089133405
 20
100.2835761667186
 30
0.0
  0
POINT
  5
14A
330
140
100
AcDbEntity
  8
Defpoints
 62
     0
100
AcDbPoint
 10
125.6948089133405
 20
100.2835761667186
 30
0.0
  0
POINT
  5
14B
330
140
100
AcDbEntity
  8
Defpoints
 62
     0
100
AcDbPoint
 10
125.6948089133405
 20
103.6168511062935
 30
0.0
  0
ENDBLK
  5
14C
330
140
100
AcDbEntity
  8
0
100
AcDbBlockEnd
  0
BLOCK
  5
14F
330
14E
100
AcDbEntity
  8
0
100
AcDbBlockBegin
  2
*D9
 70
     1
 10
0.0
 20
0.0
 30
0.0
  3
*D9
  1

  0
LINE
  5
150
330
14E
100
AcDbEntity
  8
AM_REFDIM
 62
     0
370
    -2
100
AcDbLine
 10
126.0698089133405
 20
100.0791537223756
 30
0.0
 11
126.0698089133405
 21
108.0141872697165
 31
0.0
  0
LINE
  5
151
330
14E
100
AcDbEntity
  8
AM_REFDIM
 62
     0
370
    -2
100
AcDbLine
 10
20.81980891334049
 20
100.0791537223756
 30
0.0
 11
20.81980891334049
 21
108.0141872697165
 31
0.0
  0
LINE
  5
152
330
14E
100
AcDbEntity
  8
AM_REFDIM
 62
     0
370
    -2
100
AcDbLine
 10
125.9898089133405
 20
107.9341872697165
 30
0.0
 11
75.49671367524526
 21
107.9341872697165
 31
0.0
  0
LINE
  5
153
330
14E
100
AcDbEntity
  8
AM_REFDIM
 62
     0
370
    -2
100
AcDbLine
 10
20.89980891334048
 20
107.9341872697165
 30
0.0
 11
71.39290415143574
 21
107.9341872697165
 31
0.0
  0
SOLID
  5
154
330
14E
100
AcDbEntity
  8
AM_REFDIM
 62
     0
100
AcDbTrace
 10
125.9898089133405
 20
107.9475206030498
 30
0.0
 11
125.9898089133405
 21
107.9208539363831
 31
0.0
 12
126.0698089133405
 22
107.9341872697165
 32
0.0
 13
126.0698089133405
 23
107.9341872697165
 33
0.0
  0
SOLID
  5
155
330
14E
100
AcDbEntity
  8
AM_REFDIM
 62
     0
100
AcDbTrace
 10
20.89980891334048
 20
107.9475206030498
 30
0.0
 11
20.89980891334048
 21
107.9208539363831
 31
0.0
 12
20.81980891334049
 22
107.9341872697165
 32
0.0
 13
20.81980891334049
 23
107.9341872697165
 33
0.0
  0
MTEXT
  5
156
330
14E
100
AcDbEntity
  8
AM_REFDIM
 62
     0
100
AcDbMText
 10
73.4448089133405
 20
107.9341872697165
 30
0.0
 40
0.1
 41
0.0
 71
     5
 72
     1
  1
\A1;105.25 (OVERALL LENGTH OF CASE /W BRACKETS)
  7
ROMANS
 73
     1
 44
1.0
1001
ACAD
1000
MTEXTBEGIN
1070
    73
1070
     1
1070
    44
1040
1.0
1070
    74
1070
     0
1000
MTEXTEND
  0
POINT
  5
157
330
14E
100
AcDbEntity
  8
Defpoints
 62
     0
100
AcDbPoint
 10
126.0698089133405
 20
100.0166537223756
 30
0.0
  0
POINT
  5
158
330
14E
100
AcDbEntity
  8
Defpoints
 62
     0
100
AcDbPoint
 10
20.81980891334049
 20
100.0166537223756
 30
0.0
  0
POINT
  5
159
330
14E
100
AcDbEntity
  8
Defpoints
 62
     0
100
AcDbPoint
 10
20.81980891334049
 20
107.9341872697165
 30
0.0
  0
ENDBLK
  5
15A
330
14E
100
AcDbEntity
  8
0
100
AcDbBlockEnd
  0
BLOCK
  5
15D
330
15C
100
AcDbEntity
  8
0
100
AcDbBlockBegin
  2
*D10
 70
     1
 10
0.0
 20
0.0
 30
0.0
  3
*D10
  1

  0
LINE
  5
15E
330
15C
100
AcDbEntity
  8
AM_REFDIM
 62
     0
370
    -2
100
AcDbLine
 10
127.0758089133405
 20
100.6770761667186
 30
0.0
 11
127.0758089133405
 21
111.938090081308
 31
0.0
  0
LINE
  5
15F
330
15C
100
AcDbEntity
  8
AM_REFDIM
 62
     0
370
    -2
100
AcDbLine
 10
19.81380891334049
 20
100.7960761667186
 30
0.0
 11
19.81380891334049
 21
111.938090081308
 31
0.0
  0
LINE
  5
160
330
15C
100
AcDbEntity
  8
AM_REFDIM
 62
     0
370
    -2
100
AcDbLine
 10
126.9958089133405
 20
111.858090081308
 30
0.0
 11
74.4205231990548
 21
111.858090081308
 31
0.0
  0
LINE
  5
161
330
15C
100
AcDbEntity
  8
AM_REFDIM
 62
     0
370
    -2
100
AcDbLine
 10
19.8938089133405
 20
111.858090081308
 30
0.0
 11
72.46909462762622
 21
111.858090081308
 31
0.0
  0
SOLID
  5
162
330
15C
100
AcDbEntity
  8
AM_REFDIM
 62
     0
100
AcDbTrace
 10
126.9958089133405
 20
111.8714234146413
 30
0.0
 11
126.9958089133405
 21
111.8447567479747
 31
0.0
 12
127.0758089133405
 22
111.858090081308
 32
0.0
 13
127.0758089133405
 23
111.858090081308
 33
0.0
  0
SOLID
  5
163
330
15C
100
AcDbEntity
  8
AM_REFDIM
 62
     0
100
AcDbTrace
 10
19.8938089133405
 20
111.8714234146413
 30
0.0
 11
19.8938089133405
 21
111.8447567479747
 31
0.0
 12
19.81380891334049
 22
111.858090081308
 32
0.0
 13
19.81380891334049
 23
111.858090081308
 33
0.0
  0
MTEXT
  5
164
330
15C
100
AcDbEntity
  8
AM_REFDIM
 62
     0
100
AcDbMText
 10
73.4448089133405
 20
111.858090081308
 30
0.0
 40
0.1
 41
0.0
 71
     5
 72
     1
  1
\A1;(ADJUSTABLE HANGERS)
  7
ROMANS
 73
     1
 44
1.0
1001
ACAD
1000
MTEXTBEGIN
1070
    73
1070
     1
1070
    44
1040
1.0
1070
    74
1070
     0
1000
MTEXTEND
  0
POINT
  5
165
330
15C
100
AcDbEntity
  8
Defpoints
 62
     0
100
AcDbPoint
 10
127.0758089133405
 20
100.6145761667186
 30
0.0
  0
POINT
  5
166
330
15C
100
AcDbEntity
  8
Defpoints
 62
     0
100
AcDbPoint
 10
19.81380891334049
 20
100.7335761667186
 30
0.0
  0
POINT
  5
167
330
15C
100
AcDbEntity
  8
Defpoints
 62
     0
100
AcDbPoint
 10
19.81380891334049
 20
111.858090081308
 30
0.0
  0
ENDBLK
  5
168
330
15C
100
AcDbEntity
  8
0
100
AcDbBlockEnd
  0
BLOCK
  5
287
330
27B
100
AcDbEntity
  8
0
100
AcDbBlockBegin
  2
*D11
 70
     1
 10
0.0
 20
0.0
 30
0.0
  3
*D11
  1

  0
LINE
  5
396
330
27B
100
AcDbEntity
  8
AM_REFDIM
 62
     0
370
    -2
100
AcDbLine
 10
122.0698089133405
 20
93.64357616671863
 30
0.0
 11
132.8871016225027
 21
93.64357616671863
 31
0.0
  0
LINE
  5
397
330
27B
100
AcDbEntity
  8
AM_REFDIM
 62
     0
370
    -2
100
AcDbLine
 10
126.6948089133405
 20
95.64357616671866
 30
0.0
 11
132.8871016225027
 21
95.64357616671866
 31
0.0
  0
LINE
  5
398
330
27B
100
AcDbEntity
  8
AM_REFDIM
 62
     0
370
    -2
100
AcDbLine
 10
131.6071016225027
 20
92.36357616671863
 30
0.0
 11
131.6071016225027
 21
91.08357616671863
 31
0.0
  0
LINE
  5
399
330
27B
100
AcDbEntity
  8
AM_REFDIM
 62
     0
370
    -2
100
AcDbLine
 10
131.6071016225027
 20
96.92357616671866
 30
0.0
 11
131.6071016225027
 21
99.47775222866352
 31
0.0
  0
LINE
  5
39A
330
27B
100
AcDbEntity
  8
AM_REFDIM
 62
     0
370
    -2
100
AcDbLine
 10
131.6071016225027
 20
99.47775222866352
 30
0.0
 11
132.8871016225027
 21
99.47775222866352
 31
0.0
  0
SOLID
  5
39B
330
27B
100
AcDbEntity
  8
AM_REFDIM
 62
     0
100
AcDbTrace
 10
131.3937682891693
 20
92.36357616671863
 30
0.0
 11
131.820434955836
 21
92.36357616671863
 31
0.0
 12
131.6071016225027
 22
93.64357616671863
 32
0.0
 13
131.6071016225027
 23
93.64357616671863
 33
0.0
  0
SOLID
  5
39C
330
27B
100
AcDbEntity
  8
AM_REFDIM
 62
     0
100
AcDbTrace
 10
131.3937682891693
 20
96.92357616671866
 30
0.0
 11
131.820434955836
 21
96.92357616671866
 31
0.0
 12
131.6071016225027
 22
95.64357616671866
 32
0.0
 13
131.6071016225027
 23
95.64357616671866
 33
0.0
  0
MTEXT
  5
39D
330
27B
100
AcDbEntity
  8
AM_REFDIM
 62
     0
100
AcDbMText
 10
136.7651968605979
 20
99.47775222866352
 30
0.0
 40
1.6
 41
0.0
 71
     5
 72
     1
  1
\A1;2.00\PBLK.
  7
ROMANS
 73
     1
 44
1.0
1001
ACAD
1000
MTEXTBEGIN
1070
    73
1070
     1
1070
    44
1040
1.0
1070
    74
1070
     0
1000
MTEXTEND
  0
POINT
  5
39E
330
27B
100
AcDbEntity
  8
Defpoints
 62
     0
100
AcDbPoint
 10
121.0698089133405
 20
93.64357616671863
 30
0.0
  0
POINT
  5
39F
330
27B
100
AcDbEntity
  8
Defpoints
 62
     0
100
AcDbPoint
 10
125.6948089133405
 20
95.64357616671866
 30
0.0
  0
POINT
  5
3A0
330
27B
100
AcDbEntity
  8
Defpoints
 62
     0
100
AcDbPoint
 10
131.6071016225027
 20
95.64357616671866
 30
0.0
  0
ENDBLK
  5
288
330
27B
100
AcDbEntity
  8
0
100
AcDbBlockEnd
  0
BLOCK
  5
294
330
289
100
AcDbEntity
  8
0
100
AcDbBlockBegin
  2
*D12
 70
     1
 10
0.0
 20
0.0
 30
0.0
  3
*D12
  1

  0
LINE
  5
28A
330
289
100
AcDbEntity
  8
AM_REFDIM
 62
     0
370
    -2
100
AcDbLine
 10
122.0698089133405
 20
93.64357616671863
 30
0.0
 11
132.8871016225027
 21
93.64357616671863
 31
0.0
  0
LINE
  5
28B
330
289
100
AcDbEntity
  8
AM_REFDIM
 62
     0
370
    -2
100
AcDbLine
 10
122.0698089133405
 20
41.64357616671863
 30
0.0
 11
132.8871016225027
 21
41.64357616671863
 31
0.0
  0
LINE
  5
28C
330
289
100
AcDbEntity
  8
AM_REFDIM
 62
     0
370
    -2
100
AcDbLine
 10
131.6071016225027
 20
92.36357616671863
 30
0.0
 11
131.6071016225027
 21
71.21690950005197
 31
0.0
  0
LINE
  5
28D
330
289
100
AcDbEntity
  8
AM_REFDIM
 62
     0
370
    -2
100
AcDbLine
 10
131.6071016225027
 20
42.92357616671863
 30
0.0
 11
131.6071016225027
 21
64.07024283338528
 31
0.0
  0
SOLID
  5
28E
330
289
100
AcDbEntity
  8
AM_REFDIM
 62
     0
100
AcDbTrace
 10
131.3937682891694
 20
92.36357616671863
 30
0.0
 11
131.8204349558361
 21
92.36357616671863
 31
0.0
 12
131.6071016225027
 22
93.64357616671863
 32
0.0
 13
131.6071016225027
 23
93.64357616671863
 33
0.0
  0
SOLID
  5
28F
330
289
100
AcDbEntity
  8
AM_REFDIM
 62
     0
100
AcDbTrace
 10
131.3937682891693
 20
42.92357616671863
 30
0.0
 11
131.820434955836
 21
42.92357616671863
 31
0.0
 12
131.6071016225027
 22
41.64357616671863
 32
0.0
 13
131.6071016225027
 23
41.64357616671863
 33
0.0
  0
MTEXT
  5
290
330
289
100
AcDbEntity
  8
AM_REFDIM
 62
     0
100
AcDbMText
 10
131.6071016225027
 20
67.64357616671865
 30
0.0
 40
1.6
 41
0.0
 71
     5
 72
     1
  1
\A1;52.00\PVAH
  7
ROMANS
 73
     1
 44
1.0
1001
ACAD
1000
MTEXTBEGIN
1070
    73
1070
     1
1070
    44
1040
1.0
1070
    74
1070
     0
1000
MTEXTEND
  0
POINT
  5
291
330
289
100
AcDbEntity
  8
Defpoints
 62
     0
100
AcDbPoint
 10
121.0698089133405
 20
93.64357616671863
 30
0.0
  0
POINT
  5
292
330
289
100
AcDbEntity
  8
Defpoints
 62
     0
100
AcDbPoint
 10
121.0698089133405
 20
41.64357616671863
 30
0.0
  0
POINT
  5
293
330
289
100
AcDbEntity
  8
Defpoints
 62
     0
100
AcDbPoint
 10
131.6071016225027
 20
41.64357616671863
 30
0.0
  0
ENDBLK
  5
295
330
289
100
AcDbEntity
  8
0
100
AcDbBlockEnd
  0
BLOCK
  5
2A2
330
296
100
AcDbEntity
  8
0
100
AcDbBlockBegin
  2
*D13
 70
     1
 10
0.0
 20
0.0
 30
0.0
  3
*D13
  1

  0
LINE
  5
31F
330
296
100
AcDbEntity
  8
AM_REFDIM
 62
     0
370
    -2
100
AcDbLine
 10
122.0698089133405
 20
39.64357616671865
 30
0.0
 11
132.8871016225027
 21
39.64357616671865
 31
0.0
  0
LINE
  5
320
330
296
100
AcDbEntity
  8
AM_REFDIM
 62
     0
370
    -2
100
AcDbLine
 10
122.0698089133405
 20
41.64357616671863
 30
0.0
 11
132.8871016225027
 21
41.64357616671863
 31
0.0
  0
LINE
  5
321
330
296
100
AcDbEntity
  8
AM_REFDIM
 62
     0
370
    -2
100
AcDbLine
 10
131.6071016225027
 20
42.92357616671863
 30
0.0
 11
131.6071016225027
 21
44.20357616671863
 31
0.0
  0
LINE
  5
322
330
296
100
AcDbEntity
  8
AM_REFDIM
 62
     0
370
    -2
100
AcDbLine
 10
131.6071016225027
 20
38.36357616671865
 30
0.0
 11
131.6071016225027
 21
36.92357616671865
 31
0.0
  0
LINE
  5
323
330
296
100
AcDbEntity
  8
AM_REFDIM
 62
     0
370
    -2
100
AcDbLine
 10
131.6071016225027
 20
36.92357616671865
 30
0.0
 11
130.3271016225027
 21
36.92357616671865
 31
0.0
  0
SOLID
  5
324
330
296
100
AcDbEntity
  8
AM_REFDIM
 62
     0
100
AcDbTrace
 10
131.3937682891693
 20
42.92357616671863
 30
0.0
 11
131.820434955836
 21
42.92357616671863
 31
0.0
 12
131.6071016225027
 22
41.64357616671863
 32
0.0
 13
131.6071016225027
 23
41.64357616671863
 33
0.0
  0
SOLID
  5
325
330
296
100
AcDbEntity
  8
AM_REFDIM
 62
     0
100
AcDbTrace
 10
131.3937682891693
 20
38.36357616671865
 30
0.0
 11
131.820434955836
 21
38.36357616671865
 31
0.0
 12
131.6071016225027
 22
39.64357616671865
 32
0.0
 13
131.6071016225027
 23
39.64357616671865
 33
0.0
  0
MTEXT
  5
326
330
296
100
AcDbEntity
  8
AM_REFDIM
 62
     0
100
AcDbMText
 10
126.4490063844075
 20
36.92357616671868
 30
0.0
 40
1.6
 41
0.0
 71
     5
 72
     1
  1
\A1;2.00
  7
ROMANS
 73
     1
 44
1.0
1001
ACAD
1000
MTEXTBEGIN
1070
    73
1070
     1
1070
    44
1040
1.0
1070
    74
1070
     0
1000
MTEXTEND
  0
POINT
  5
327
330
296
100
AcDbEntity
  8
Defpoints
 62
     0
100
AcDbPoint
 10
121.0698089133405
 20
39.64357616671865
 30
0.0
  0
POINT
  5
328
330
296
100
AcDbEntity
  8
Defpoints
 62
     0
100
AcDbPoint
 10
121.0698089133405
 20
41.64357616671863
 30
0.0
  0
POINT
  5
329
330
296
100
AcDbEntity
  8
Defpoints
 62
     0
100
AcDbPoint
 10
131.6071016225027
 20
41.64357616671863
 30
0.0
  0
ENDBLK
  5
2A3
330
296
100
AcDbEntity
  8
0
100
AcDbBlockEnd
  0
BLOCK
  5
2AF
330
2A4
100
AcDbEntity
  8
0
100
AcDbBlockBegin
  2
*D14
 70
     1
 10
0.0
 20
0.0
 30
0.0
  3
*D14
  1

  0
LINE
  5
2A5
330
2A4
100
AcDbEntity
  8
AM_REFDIM
 62
     0
370
    -2
100
AcDbLine
 10
122.0698089133405
 20
39.64357616671865
 30
0.0
 11
139.5217154488064
 21
39.64357616671865
 31
0.0
  0
LINE
  5
2A6
330
2A4
100
AcDbEntity
  8
AM_REFDIM
 62
     0
370
    -2
100
AcDbLine
 10
126.6948089133405
 20
95.64357616671866
 30
0.0
 11
139.5217154488064
 21
95.64357616671866
 31
0.0
  0
LINE
  5
2A7
330
2A4
100
AcDbEntity
  8
AM_REFDIM
 62
     0
370
    -2
100
AcDbLine
 10
138.2417154488064
 20
40.92357616671864
 30
0.0
 11
138.2417154488064
 21
73.63775072891629
 31
0.0
  0
LINE
  5
2A8
330
2A4
100
AcDbEntity
  8
AM_REFDIM
 62
     0
370
    -2
100
AcDbLine
 10
138.2417154488064
 20
94.36357616671866
 30
0.0
 11
138.2417154488064
 21
78.11775072891629
 31
0.0
  0
SOLID
  5
2A9
330
2A4
100
AcDbEntity
  8
AM_REFDIM
 62
     0
100
AcDbTrace
 10
138.028382115473
 20
40.92357616671864
 30
0.0
 11
138.4550487821397
 21
40.92357616671864
 31
0.0
 12
138.2417154488064
 22
39.64357616671865
 32
0.0
 13
138.2417154488064
 23
39.64357616671865
 33
0.0
  0
SOLID
  5
2AA
330
2A4
100
AcDbEntity
  8
AM_REFDIM
 62
     0
100
AcDbTrace
 10
138.0283821154731
 20
94.36357616671866
 30
0.0
 11
138.4550487821397
 21
94.36357616671866
 31
0.0
 12
138.2417154488064
 22
95.64357616671866
 32
0.0
 13
138.2417154488064
 23
95.64357616671866
 33
0.0
  0
MTEXT
  5
2AB
330
2A4
100
AcDbEntity
  8
AM_REFDIM
 62
     0
100
AcDbMText
 10
138.2417154488064
 20
75.87775072891631
 30
0.0
 40
1.6
 41
0.0
 71
     5
 72
     1
  1
\A1;56.00
  7
ROMANS
 73
     1
 44
1.0
1001
ACAD
1000
MTEXTBEGIN
1070
    73
1070
     1
1070
    44
1040
1.0
1070
    74
1070
     0
1000
MTEXTEND
  0
POINT
  5
2AC
330
2A4
100
AcDbEntity
  8
Defpoints
 62
     0
100
AcDbPoint
 10
121.0698089133405
 20
39.64357616671865
 30
0.0
  0
POINT
  5
2AD
330
2A4
100
AcDbEntity
  8
Defpoints
 62
     0
100
AcDbPoint
 10
125.6948089133405
 20
95.64357616671866
 30
0.0
  0
POINT
  5
2AE
330
2A4
100
AcDbEntity
  8
Defpoints
 62
     0
100
AcDbPoint
 10
138.2417154488064
 20
95.64357616671866
 30
0.0
  0
ENDBLK
  5
2B0
330
2A4
100
AcDbEntity
  8
0
100
AcDbBlockEnd
  0
BLOCK
  5
2BC
330
2B1
100
AcDbEntity
  8
0
100
AcDbBlockBegin
  2
*D15
 70
     1
 10
0.0
 20
0.0
 30
0.0
  3
*D15
  1

  0
LINE
  5
2B2
330
2B1
100
AcDbEntity
  8
AM_REFDIM
 62
     0
370
    -2
100
AcDbLine
 10
119.0698089133405
 20
40.64357616671864
 30
0.0
 11
119.0698089133405
 21
35.94511930338188
 31
0.0
  0
LINE
  5
2B3
330
2B1
100
AcDbEntity
  8
AM_REFDIM
 62
     0
370
    -2
100
AcDbLine
 10
27.06980891334052
 20
40.64357616671864
 30
0.0
 11
27.06980891334052
 21
35.94511930338188
 31
0.0
  0
LINE
  5
2B4
330
2B1
100
AcDbEntity
  8
AM_REFDIM
 62
     0
370
    -2
100
AcDbLine
 10
117.7898089133405
 20
37.22511930338188
 30
0.0
 11
80.83361843715003
 21
37.22511930338188
 31
0.0
  0
LINE
  5
2B5
330
2B1
100
AcDbEntity
  8
AM_REFDIM
 62
     0
370
    -2
100
AcDbLine
 10
28.34980891334052
 20
37.22511930338188
 30
0.0
 11
65.30599938953097
 21
37.22511930338188
 31
0.0
  0
SOLID
  5
2B6
330
2B1
100
AcDbEntity
  8
AM_REFDIM
 62
     0
100
AcDbTrace
 10
117.7898089133405
 20
37.43845263671521
 30
0.0
 11
117.7898089133405
 21
37.01178597004855
 31
0.0
 12
119.0698089133405
 22
37.22511930338188
 32
0.0
 13
119.0698089133405
 23
37.22511930338188
 33
0.0
  0
SOLID
  5
2B7
330
2B1
100
AcDbEntity
  8
AM_REFDIM
 62
     0
100
AcDbTrace
 10
28.34980891334052
 20
37.43845263671521
 30
0.0
 11
28.34980891334052
 21
37.01178597004855
 31
0.0
 12
27.06980891334052
 22
37.22511930338188
 32
0.0
 13
27.06980891334052
 23
37.22511930338188
 33
0.0
  0
MTEXT
  5
2B8
330
2B1
100
AcDbEntity
  8
AM_REFDIM
 62
     0
100
AcDbMText
 10
73.06980891334051
 20
37.22511930338188
 30
0.0
 40
1.6
 41
0.0
 71
     5
 72
     1
  1
\A1;92.00 VAW
  7
ROMANS
 73
     1
 44
1.0
1001
ACAD
1000
MTEXTBEGIN
1070
    73
1070
     1
1070
    44
1040
1.0
1070
    74
1070
     0
1000
MTEXTEND
  0
POINT
  5
2B9
330
2B1
100
AcDbEntity
  8
Defpoints
 62
     0
100
AcDbPoint
 10
119.0698089133405
 20
41.64357616671863
 30
0.0
  0
POINT
  5
2BA
330
2B1
100
AcDbEntity
  8
Defpoints
 62
     0
100
AcDbPoint
 10
27.06980891334052
 20
41.64357616671863
 30
0.0
  0
POINT
  5
2BB
330
2B1
100
AcDbEntity
  8
Defpoints
 62
     0
100
AcDbPoint
 10
27.06980891334052
 20
37.22511930338188
 30
0.0
  0
ENDBLK
  5
2BD
330
2B1
100
AcDbEntity
  8
0
100
AcDbBlockEnd
  0
BLOCK
  5
2C9
330
2BE
100
AcDbEntity
  8
0
100
AcDbBlockBegin
  2
*D16
 70
     1
 10
0.0
 20
0.0
 30
0.0
  3
*D16
  1

  0
LINE
  5
2BF
330
2BE
100
AcDbEntity
  8
AM_REFDIM
 62
     0
370
    -2
100
AcDbLine
 10
27.06980891334052
 20
40.64357616671864
 30
0.0
 11
27.06980891334052
 21
35.94511930338188
 31
0.0
  0
LINE
  5
2C0
330
2BE
100
AcDbEntity
  8
AM_REFDIM
 62
     0
370
    -2
100
AcDbLine
 10
25.0698089133405
 20
38.64357616671865
 30
0.0
 11
25.0698089133405
 21
35.94511930338188
 31
0.0
  0
LINE
  5
2C1
330
2BE
100
AcDbEntity
  8
AM_REFDIM
 62
     0
370
    -2
100
AcDbLine
 10
28.34980891334052
 20
37.22511930338188
 30
0.0
 11
29.62980891334052
 21
37.22511930338188
 31
0.0
  0
LINE
  5
2C2
330
2BE
100
AcDbEntity
  8
AM_REFDIM
 62
     0
370
    -2
100
AcDbLine
 10
23.7898089133405
 20
37.22511930338188
 30
0.0
 11
22.5098089133405
 21
37.22511930338188
 31
0.0
  0
SOLID
  5
2C3
330
2BE
100
AcDbEntity
  8
AM_REFDIM
 62
     0
100
AcDbTrace
 10
28.34980891334052
 20
37.43845263671521
 30
0.0
 11
28.34980891334052
 21
37.01178597004855
 31
0.0
 12
27.06980891334052
 22
37.22511930338188
 32
0.0
 13
27.06980891334052
 23
37.22511930338188
 33
0.0
  0
SOLID
  5
2C4
330
2BE
100
AcDbEntity
  8
AM_REFDIM
 62
     0
100
AcDbTrace
 10
23.7898089133405
 20
37.43845263671521
 30
0.0
 11
23.7898089133405
 21
37.01178597004855
 31
0.0
 12
25.0698089133405
 22
37.22511930338188
 32
0.0
 13
25.0698089133405
 23
37.22511930338188
 33
0.0
  0
MTEXT
  5
2C5
330
2BE
100
AcDbEntity
  8
AM_REFDIM
 62
     0
100
AcDbMText
 10
18.63171367524526
 20
37.22511930338188
 30
0.0
 40
1.6
 41
0.0
 71
     5
 72
     1
  1
\A1;2.00
  7
ROMANS
 73
     1
 44
1.0
1001
ACAD
1000
MTEXTBEGIN
1070
    73
1070
     1
1070
    44
1040
1.0
1070
    74
1070
     0
1000
MTEXTEND
  0
POINT
  5
2C6
330
2BE
100
AcDbEntity
  8
Defpoints
 62
     0
100
AcDbPoint
 10
27.06980891334052
 20
41.64357616671863
 30
0.0
  0
POINT
  5
2C7
330
2BE
100
AcDbEntity
  8
Defpoints
 62
     0
100
AcDbPoint
 10
25.0698089133405
 20
39.64357616671865
 30
0.0
  0
POINT
  5
2C8
330
2BE
100
AcDbEntity
  8
Defpoints
 62
     0
100
AcDbPoint
 10
25.0698089133405
 20
37.22511930338188
 30
0.0
  0
ENDBLK
  5
2CA
330
2BE
100
AcDbEntity
  8
0
100
AcDbBlockEnd
  0
BLOCK
  5
2D6
330
2CB
100
AcDbEntity
  8
0
100
AcDbBlockBegin
  2
*D17
 70
     1
 10
0.0
 20
0.0
 30
0.0
  3
*D17
  1

  0
LINE
  5
3A1
330
2CB
100
AcDbEntity
  8
AM_REFDIM
 62
     0
370
    -2
100
AcDbLine
 10
25.0698089133405
 20
38.64357616671865
 30
0.0
 11
25.0698089133405
 21
31.99513696611692
 31
0.0
  0
LINE
  5
3A2
330
2CB
100
AcDbEntity
  8
AM_REFDIM
 62
     0
370
    -2
100
AcDbLine
 10
121.0698089133405
 20
38.64357616671867
 30
0.0
 11
121.0698089133405
 21
31.99513696611692
 31
0.0
  0
LINE
  5
3A3
330
2CB
100
AcDbEntity
  8
AM_REFDIM
 62
     0
370
    -2
100
AcDbLine
 10
26.34980891334051
 20
33.27513696611692
 30
0.0
 11
58.25838034191193
 21
33.27513696611692
 31
0.0
  0
LINE
  5
3A4
330
2CB
100
AcDbEntity
  8
AM_REFDIM
 62
     0
370
    -2
100
AcDbLine
 10
119.7898089133405
 20
33.27513696611692
 30
0.0
 11
87.88123748476904
 21
33.27513696611692
 31
0.0
  0
SOLID
  5
3A5
330
2CB
100
AcDbEntity
  8
AM_REFDIM
 62
     0
100
AcDbTrace
 10
26.34980891334051
 20
33.48847029945025
 30
0.0
 11
26.34980891334051
 21
33.06180363278359
 31
0.0
 12
25.0698089133405
 22
33.27513696611692
 32
0.0
 13
25.0698089133405
 23
33.27513696611692
 33
0.0
  0
SOLID
  5
3A6
330
2CB
100
AcDbEntity
  8
AM_REFDIM
 62
     0
100
AcDbTrace
 10
119.7898089133405
 20
33.48847029945025
 30
0.0
 11
119.7898089133405
 21
33.06180363278359
 31
0.0
 12
121.0698089133405
 22
33.27513696611692
 32
0.0
 13
121.0698089133405
 23
33.27513696611692
 33
0.0
  0
MTEXT
  5
3A7
330
2CB
100
AcDbEntity
  8
AM_REFDIM
 62
     0
100
AcDbMText
 10
73.06980891334048
 20
33.27513696611692
 30
0.0
 40
1.6
 41
0.0
 71
     5
 72
     1
  1
\A1;96.00 (FABRIC WIDTH)
  7
ROMANS
 73
     1
 44
1.0
1001
ACAD
1000
MTEXTBEGIN
1070
    73
1070
     1
1070
    44
1040
1.0
1070
    74
1070
     0
1000
MTEXTEND
  0
POINT
  5
3A8
330
2CB
100
AcDbEntity
  8
Defpoints
 62
     0
100
AcDbPoint
 10
25.0698089133405
 20
39.64357616671865
 30
0.0
  0
POINT
  5
3A9
330
2CB
100
AcDbEntity
  8
Defpoints
 62
     0
100
AcDbPoint
 10
121.0698089133405
 20
39.64357616671867
 30
0.0
  0
POINT
  5
3AA
330
2CB
100
AcDbEntity
  8
Defpoints
 62
     0
100
AcDbPoint
 10
121.0698089133405
 20
33.27513696611692
 30
0.0
  0
ENDBLK
  5
2D7
330
2CB
100
AcDbEntity
  8
0
100
AcDbBlockEnd
  0
BLOCK
  5
2E3
330
2D8
100
AcDbEntity
  8
0
100
AcDbBlockBegin
  2
*D18
 70
     1
 10
0.0
 20
0.0
 30
0.0
  3
*D18
  1

  0
LINE
  5
3AB
330
2D8
100
AcDbEntity
  8
AM_REFDIM
 62
     0
370
    -2
100
AcDbLine
 10
24.6948089133405
 20
38.90477616671865
 30
0.0
 11
24.6948089133405
 21
28.16963320692142
 31
0.0
  0
LINE
  5
3AC
330
2D8
100
AcDbEntity
  8
AM_REFDIM
 62
     0
370
    -2
100
AcDbLine
 10
121.4448089133405
 20
38.90477616671866
 30
0.0
 11
121.4448089133405
 21
28.16963320692142
 31
0.0
  0
LINE
  5
3AD
330
2D8
100
AcDbEntity
  8
AM_REFDIM
 62
     0
370
    -2
100
AcDbLine
 10
25.97480891334051
 20
29.44963320692142
 30
0.0
 11
50.48695177048336
 21
29.44963320692142
 31
0.0
  0
LINE
  5
3AE
330
2D8
100
AcDbEntity
  8
AM_REFDIM
 62
     0
370
    -2
100
AcDbLine
 10
120.1648089133405
 20
29.44963320692142
 30
0.0
 11
95.65266605619765
 21
29.44963320692142
 31
0.0
  0
SOLID
  5
3AF
330
2D8
100
AcDbEntity
  8
AM_REFDIM
 62
     0
100
AcDbTrace
 10
25.97480891334051
 20
29.66296654025475
 30
0.0
 11
25.97480891334051
 21
29.23629987358808
 31
0.0
 12
24.6948089133405
 22
29.44963320692142
 32
0.0
 13
24.6948089133405
 23
29.44963320692142
 33
0.0
  0
SOLID
  5
3B0
330
2D8
100
AcDbEntity
  8
AM_REFDIM
 62
     0
100
AcDbTrace
 10
120.1648089133405
 20
29.66296654025475
 30
0.0
 11
120.1648089133405
 21
29.23629987358808
 31
0.0
 12
121.4448089133405
 22
29.44963320692142
 32
0.0
 13
121.4448089133405
 23
29.44963320692142
 33
0.0
  0
MTEXT
  5
3B1
330
2D8
100
AcDbEntity
  8
AM_REFDIM
 62
     0
100
AcDbMText
 10
73.06980891334048
 20
29.44963320692142
 30
0.0
 40
1.6
 41
0.0
 71
     5
 72
     1
  1
\A1;96.75 (OVERALL LENGTH OF SLAT)
  7
ROMANS
 73
     1
 44
1.0
1001
ACAD
1000
MTEXTBEGIN
1070
    73
1070
     1
1070
    44
1040
1.0
1070
    74
1070
     0
1000
MTEXTEND
  0
POINT
  5
3B2
330
2D8
100
AcDbEntity
  8
Defpoints
 62
     0
100
AcDbPoint
 10
24.6948089133405
 20
39.90477616671865
 30
0.0
  0
POINT
  5
3B3
330
2D8
100
AcDbEntity
  8
Defpoints
 62
     0
100
AcDbPoint
 10
121.4448089133405
 20
39.90477616671866
 30
0.0
  0
POINT
  5
3B4
330
2D8
100
AcDbEntity
  8
Defpoints
 62
     0
100
AcDbPoint
 10
121.4448089133405
 20
29.44963320692142
 30
0.0
  0
ENDBLK
  5
2E4
330
2D8
100
AcDbEntity
  8
0
100
AcDbBlockEnd
  0
BLOCK
  5
2F0
330
2E5
100
AcDbEntity
  8
0
100
AcDbBlockBegin
  2
*D19
 70
     1
 10
0.0
 20
0.0
 30
0.0
  3
*D19
  1

  0
LINE
  5
2E6
330
2E5
100
AcDbEntity
  8
AM_REFDIM
 62
     0
370
    -2
100
AcDbLine
 10
21.1948089133405
 20
101.2835761667186
 30
0.0
 11
21.1948089133405
 21
104.8968511062935
 31
0.0
  0
LINE
  5
2E7
330
2E5
100
AcDbEntity
  8
AM_REFDIM
 62
     0
370
    -2
100
AcDbLine
 10
125.6948089133405
 20
101.2835761667186
 30
0.0
 11
125.6948089133405
 21
104.8968511062935
 31
0.0
  0
LINE
  5
2E8
330
2E5
100
AcDbEntity
  8
AM_REFDIM
 62
     0
370
    -2
100
AcDbLine
 10
22.4748089133405
 20
103.6168511062935
 30
0.0
 11
58.10004700857859
 21
103.6168511062935
 31
0.0
  0
LINE
  5
2E9
330
2E5
100
AcDbEntity
  8
AM_REFDIM
 62
     0
370
    -2
100
AcDbLine
 10
124.4148089133405
 20
103.6168511062935
 30
0.0
 11
88.7895708181024
 21
103.6168511062935
 31
0.0
  0
SOLID
  5
2EA
330
2E5
100
AcDbEntity
  8
AM_REFDIM
 62
     0
100
AcDbTrace
 10
22.4748089133405
 20
103.8301844396268
 30
0.0
 11
22.4748089133405
 21
103.4035177729601
 31
0.0
 12
21.1948089133405
 22
103.6168511062935
 32
0.0
 13
21.1948089133405
 23
103.6168511062935
 33
0.0
  0
SOLID
  5
2EB
330
2E5
100
AcDbEntity
  8
AM_REFDIM
 62
     0
100
AcDbTrace
 10
124.4148089133405
 20
103.8301844396268
 30
0.0
 11
124.4148089133405
 21
103.4035177729601
 31
0.0
 12
125.6948089133405
 22
103.6168511062935
 32
0.0
 13
125.6948089133405
 23
103.6168511062935
 33
0.0
  0
MTEXT
  5
2EC
330
2E5
100
AcDbEntity
  8
AM_REFDIM
 62
     0
100
AcDbMText
 10
73.4448089133405
 20
103.6168511062935
 30
0.0
 40
1.6
 41
0.0
 71
     5
 72
     1
  1
\A1;104.50 (CASE LENGTH)
  7
ROMANS
 73
     1
 44
1.0
1001
ACAD
1000
MTEXTBEGIN
1070
    73
1070
     1
1070
    44
1040
1.0
1070
    74
1070
     0
1000
MTEXTEND
  0
POINT
  5
2ED
330
2E5
100
AcDbEntity
  8
Defpoints
 62
     0
100
AcDbPoint
 10
21.1948089133405
 20
100.2835761667186
 30
0.0
  0
POINT
  5
2EE
330
2E5
100
AcDbEntity
  8
Defpoints
 62
     0
100
AcDbPoint
 10
125.6948089133405
 20
100.2835761667186
 30
0.0
  0
POINT
  5
2EF
330
2E5
100
AcDbEntity
  8
Defpoints
 62
     0
100
AcDbPoint
 10
125.6948089133405
 20
103.6168511062935
 30
0.0
  0
ENDBLK
  5
2F1
330
2E5
100
AcDbEntity
  8
0
100
AcDbBlockEnd
  0
BLOCK
  5
2FD
330
2F2
100
AcDbEntity
  8
0
100
AcDbBlockBegin
  2
*D20
 70
     1
 10
0.0
 20
0.0
 30
0.0
  3
*D20
  1

  0
LINE
  5
2F3
330
2F2
100
AcDbEntity
  8
AM_REFDIM
 62
     0
370
    -2
100
AcDbLine
 10
126.0698089133405
 20
101.0166537223756
 30
0.0
 11
126.0698089133405
 21
109.2141872697165
 31
0.0
  0
LINE
  5
2F4
330
2F2
100
AcDbEntity
  8
AM_REFDIM
 62
     0
370
    -2
100
AcDbLine
 10
20.81980891334049
 20
101.0166537223756
 30
0.0
 11
20.81980891334049
 21
109.2141872697165
 31
0.0
  0
LINE
  5
2F5
330
2F2
100
AcDbEntity
  8
AM_REFDIM
 62
     0
370
    -2
100
AcDbLine
 10
124.7898089133405
 20
107.9341872697165
 30
0.0
 11
106.2752851038167
 21
107.9341872697165
 31
0.0
  0
LINE
  5
2F6
330
2F2
100
AcDbEntity
  8
AM_REFDIM
 62
     0
370
    -2
100
AcDbLine
 10
22.09980891334049
 20
107.9341872697165
 30
0.0
 11
40.61433272286429
 21
107.9341872697165
 31
0.0
  0
SOLID
  5
2F7
330
2F2
100
AcDbEntity
  8
AM_REFDIM
 62
     0
100
AcDbTrace
 10
124.7898089133405
 20
108.1475206030498
 30
0.0
 11
124.7898089133405
 21
107.7208539363831
 31
0.0
 12
126.0698089133405
 22
107.9341872697165
 32
0.0
 13
126.0698089133405
 23
107.9341872697165
 33
0.0
  0
SOLID
  5
2F8
330
2F2
100
AcDbEntity
  8
AM_REFDIM
 62
     0
100
AcDbTrace
 10
22.09980891334049
 20
108.1475206030498
 30
0.0
 11
22.09980891334049
 21
107.7208539363831
 31
0.0
 12
20.81980891334049
 22
107.9341872697165
 32
0.0
 13
20.81980891334049
 23
107.9341872697165
 33
0.0
  0
MTEXT
  5
2F9
330
2F2
100
AcDbEntity
  8
AM_REFDIM
 62
     0
100
AcDbMText
 10
73.4448089133405
 20
107.9341872697165
 30
0.0
 40
1.6
 41
0.0
 71
     5
 72
     1
  1
\A1;105.25 (OVERALL LENGTH OF CASE /W BRACKETS)
  7
ROMANS
 73
     1
 44
1.0
1001
ACAD
1000
MTEXTBEGIN
1070
    73
1070
     1
1070
    44
1040
1.0
1070
    74
1070
     0
1000
MTEXTEND
  0
POINT
  5
2FA
330
2F2
100
AcDbEntity
  8
Defpoints
 62
     0
100
AcDbPoint
 10
126.0698089133405
 20
100.0166537223756
 30
0.0
  0
POINT
  5
2FB
330
2F2
100
AcDbEntity
  8
Defpoints
 62
     0
100
AcDbPoint
 10
20.81980891334049
 20
100.0166537223756
 30
0.0
  0
POINT
  5
2FC
330
2F2
100
AcDbEntity
  8
Defpoints
 62
     0
100
AcDbPoint
 10
20.81980891334049
 20
107.9341872697165
 30
0.0
  0
ENDBLK
  5
2FE
330
2F2
100
AcDbEntity
  8
0
100
AcDbBlockEnd
  0
BLOCK
  5
30A
330
2FF
100
AcDbEntity
  8
0
100
AcDbBlockBegin
  2
*D21
 70
     1
 10
0.0
 20
0.0
 30
0.0
  3
*D21
  1

  0
LINE
  5
300
330
2FF
100
AcDbEntity
  8
AM_REFDIM
 62
     0
370
    -2
100
AcDbLine
 10
127.0758089133405
 20
101.6145761667186
 30
0.0
 11
127.0758089133405
 21
113.138090081308
 31
0.0
  0
LINE
  5
301
330
2FF
100
AcDbEntity
  8
AM_REFDIM
 62
     0
370
    -2
100
AcDbLine
 10
19.81380891334049
 20
101.7335761667186
 30
0.0
 11
19.81380891334049
 21
113.138090081308
 31
0.0
  0
LINE
  5
302
330
2FF
100
AcDbEntity
  8
AM_REFDIM
 62
     0
370
    -2
100
AcDbLine
 10
125.7958089133405
 20
111.858090081308
 30
0.0
 11
89.05623748476903
 21
111.858090081308
 31
0.0
  0
LINE
  5
303
330
2FF
100
AcDbEntity
  8
AM_REFDIM
 62
     0
370
    -2
100
AcDbLine
 10
21.09380891334049
 20
111.858090081308
 30
0.0
 11
57.83338034191192
 21
111.858090081308
 31
0.0
  0
SOLID
  5
304
330
2FF
100
AcDbEntity
  8
AM_REFDIM
 62
     0
100
AcDbTrace
 10
125.7958089133405
 20
112.0714234146413
 30
0.0
 11
125.7958089133405
 21
111.6447567479746
 31
0.0
 12
127.0758089133405
 22
111.858090081308
 32
0.0
 13
127.0758089133405
 23
111.858090081308
 33
0.0
  0
SOLID
  5
305
330
2FF
100
AcDbEntity
  8
AM_REFDIM
 62
     0
100
AcDbTrace
 10
21.09380891334049
 20
112.0714234146413
 30
0.0
 11
21.09380891334049
 21
111.6447567479746
 31
0.0
 12
19.81380891334049
 22
111.858090081308
 32
0.0
 13
19.81380891334049
 23
111.858090081308
 33
0.0
  0
MTEXT
  5
306
330
2FF
100
AcDbEntity
  8
AM_REFDIM
 62
     0
100
AcDbMText
 10
73.4448089133405
 20
111.858090081308
 30
0.0
 40
1.6
 41
0.0
 71
     5
 72
     1
  1
\A1;(ADJUSTABLE HANGERS)
  7
ROMANS
 73
     1
 44
1.0
1001
ACAD
1000
MTEXTBEGIN
1070
    73
1070
     1
1070
    44
1040
1.0
1070
    74
1070
     0
1000
MTEXTEND
  0
POINT
  5
307
330
2FF
100
AcDbEntity
  8
Defpoints
 62
     0
100
AcDbPoint
 10
127.0758089133405
 20
100.6145761667186
 30
0.0
  0
POINT
  5
308
330
2FF
100
AcDbEntity
  8
Defpoints
 62
     0
100
AcDbPoint
 10
19.81380891334049
 20
100.7335761667186
 30
0.0
  0
POINT
  5
309
330
2FF
100
AcDbEntity
  8
Defpoints
 62
     0
100
AcDbPoint
 10
19.81380891334049
 20
111.858090081308
 30
0.0
  0
ENDBLK
  5
30B
330
2FF
100
AcDbEntity
  8
0
100
AcDbBlockEnd
  0
BLOCK
  5
336
330
32B
100
AcDbEntity
  8
0
100
AcDbBlockBegin
  2
*D22
 70
     1
 10
0.0
 20
0.0
 30
0.0
  3
*D22
  1

  0
LINE
  5
386
330
32B
100
AcDbEntity
  8
AM_REFDIM
 62
     0
370
    -2
100
AcDbLine
 10
148.0943664150888
 20
101.0335761667186
 30
0.0
 11
148.0943664150888
 21
107.8958145552703
 31
0.0
  0
LINE
  5
387
330
32B
100
AcDbEntity
  8
AM_REFDIM
 62
     0
370
    -2
100
AcDbLine
 10
152.194366408407
 20
101.0345274921956
 30
0.0
 11
152.194366408407
 21
107.8958145552703
 31
0.0
  0
LINE
  5
388
330
32B
100
AcDbEntity
  8
AM_REFDIM
 62
     0
370
    -2
100
AcDbLine
 10
146.8143664150888
 20
106.6158145552702
 30
0.0
 11
145.5343664150888
 21
106.6158145552702
 31
0.0
  0
LINE
  5
389
330
32B
100
AcDbEntity
  8
AM_REFDIM
 62
     0
370
    -2
100
AcDbLine
 10
153.474366408407
 20
106.6158145552702
 30
0.0
 11
154.754366408407
 21
106.6158145552702
 31
0.0
  0
SOLID
  5
38A
330
32B
100
AcDbEntity
  8
AM_REFDIM
 62
     0
100
AcDbTrace
 10
146.8143664150888
 20
106.8291478886036
 30
0.0
 11
146.8143664150888
 21
106.4024812219369
 31
0.0
 12
148.0943664150888
 22
106.6158145552702
 32
0.0
 13
148.0943664150888
 23
106.6158145552702
 33
0.0
  0
SOLID
  5
38B
330
32B
100
AcDbEntity
  8
AM_REFDIM
 62
     0
100
AcDbTrace
 10
153.474366408407
 20
106.8291478886036
 30
0.0
 11
153.474366408407
 21
106.4024812219369
 31
0.0
 12
152.194366408407
 22
106.6158145552702
 32
0.0
 13
152.194366408407
 23
106.6158145552702
 33
0.0
  0
MTEXT
  5
38C
330
32B
100
AcDbEntity
  8
AM_REFDIM
 62
     0
100
AcDbMText
 10
158.6324616465021
 20
106.6158145552702
 30
0.0
 40
1.6
 41
0.0
 71
     5
 72
     1
  1
\A1;4.10
  7
ROMANS
 73
     1
 44
1.0
1001
ACAD
1000
MTEXTBEGIN
1070
    73
1070
     1
1070
    44
1040
1.0
1070
    74
1070
     0
1000
MTEXTEND
  0
POINT
  5
38D
330
32B
100
AcDbEntity
  8
Defpoints
 62
     0
100
AcDbPoint
 10
148.0943664150888
 20
100.0335761667186
 30
0.0
  0
POINT
  5
38E
330
32B
100
AcDbEntity
  8
Defpoints
 62
     0
100
AcDbPoint
 10
152.194366408407
 20
100.0345274921956
 30
0.0
  0
POINT
  5
38F
330
32B
100
AcDbEntity
  8
Defpoints
 62
     0
100
AcDbPoint
 10
152.194366408407
 20
106.6158145552702
 30
0.0
  0
ENDBLK
  5
337
330
32B
100
AcDbEntity
  8
0
100
AcDbBlockEnd
  0
BLOCK
  5
344
330
339
100
AcDbEntity
  8
0
100
AcDbBlockBegin
  2
*D23
 70
     1
 10
0.0
 20
0.0
 30
0.0
  3
*D23
  1

  0
LINE
  5
372
330
339
100
AcDbEntity
  8
AM_REFDIM
 62
     0
370
    -2
100
AcDbLine
 10
147.3443664150888
 20
100.2835761667186
 30
0.0
 11
143.210564675763
 21
100.2835761667186
 31
0.0
  0
LINE
  5
373
330
339
100
AcDbEntity
  8
AM_REFDIM
 62
     0
370
    -2
100
AcDbLine
 10
149.1942522493498
 20
95.64357616671866
 30
0.0
 11
143.210564675763
 21
95.64357616671866
 31
0.0
  0
LINE
  5
374
330
339
100
AcDbEntity
  8
AM_REFDIM
 62
     0
370
    -2
100
AcDbLine
 10
144.490564675763
 20
101.5635761667186
 30
0.0
 11
144.490564675763
 21
102.8435761667186
 31
0.0
  0
LINE
  5
375
330
339
100
AcDbEntity
  8
AM_REFDIM
 62
     0
370
    -2
100
AcDbLine
 10
144.490564675763
 20
94.36357616671866
 30
0.0
 11
144.490564675763
 21
93.08357616671866
 31
0.0
  0
SOLID
  5
376
330
339
100
AcDbEntity
  8
AM_REFDIM
 62
     0
100
AcDbTrace
 10
144.2772313424297
 20
101.5635761667186
 30
0.0
 11
144.7038980090964
 21
101.5635761667186
 31
0.0
 12
144.490564675763
 22
100.2835761667186
 32
0.0
 13
144.490564675763
 23
100.2835761667186
 33
0.0
  0
SOLID
  5
377
330
339
100
AcDbEntity
  8
AM_REFDIM
 62
     0
100
AcDbTrace
 10
144.2772313424297
 20
94.36357616671866
 30
0.0
 11
144.7038980090964
 21
94.36357616671866
 31
0.0
 12
144.490564675763
 22
95.64357616671866
 32
0.0
 13
144.490564675763
 23
95.64357616671866
 33
0.0
  0
MTEXT
  5
378
330
339
100
AcDbEntity
  8
AM_REFDIM
 62
     0
100
AcDbMText
 10
144.490564675763
 20
97.96357616671864
 30
0.0
 40
1.6
 41
0.0
 71
     5
 72
     1
  1
\A1;4.64
  7
ROMANS
 73
     1
 44
1.0
1001
ACAD
1000
MTEXTBEGIN
1070
    73
1070
     1
1070
    44
1040
1.0
1070
    74
1070
     0
1000
MTEXTEND
  0
POINT
  5
379
330
339
100
AcDbEntity
  8
Defpoints
 62
     0
100
AcDbPoint
 10
148.3443664150888
 20
100.2835761667186
 30
0.0
  0
POINT
  5
37A
330
339
100
AcDbEntity
  8
Defpoints
 62
     0
100
AcDbPoint
 10
150.1942522493498
 20
95.64357616671866
 30
0.0
  0
POINT
  5
37B
330
339
100
AcDbEntity
  8
Defpoints
 62
     0
100
AcDbPoint
 10
144.490564675763
 20
95.64357616671866
 30
0.0
  0
ENDBLK
  5
345
330
339
100
AcDbEntity
  8
0
100
AcDbBlockEnd
  0
BLOCK
  5
35C
330
351
100
AcDbEntity
  8
0
100
AcDbBlockBegin
  2
*D24
 70
     1
 10
0.0
 20
0.0
 30
0.0
  3
*D24
  1

  0
LINE
  5
37C
330
351
100
AcDbEntity
  8
AM_REFDIM
 62
     0
370
    -2
100
AcDbLine
 10
153.164480567464
 20
95.64357616671863
 30
0.0
 11
157.5958956450115
 21
95.64357616671863
 31
0.0
  0
LINE
  5
37D
330
351
100
AcDbEntity
  8
AM_REFDIM
 62
     0
370
    -2
100
AcDbLine
 10
151.8243668411957
 20
100.7335761667186
 30
0.0
 11
157.5958956450115
 21
100.7335761667186
 31
0.0
  0
LINE
  5
37E
330
351
100
AcDbEntity
  8
AM_REFDIM
 62
     0
370
    -2
100
AcDbLine
 10
156.3158956450115
 20
94.36357616671863
 30
0.0
 11
156.3158956450115
 21
93.08357616671862
 31
0.0
  0
LINE
  5
37F
330
351
100
AcDbEntity
  8
AM_REFDIM
 62
     0
370
    -2
100
AcDbLine
 10
156.3158956450115
 20
102.0135761667186
 30
0.0
 11
156.3158956450115
 21
103.2935761667186
 31
0.0
  0
SOLID
  5
380
330
351
100
AcDbEntity
  8
AM_REFDIM
 62
     0
100
AcDbTrace
 10
156.1025623116782
 20
94.36357616671863
 30
0.0
 11
156.5292289783449
 21
94.36357616671863
 31
0.0
 12
156.3158956450115
 22
95.64357616671863
 32
0.0
 13
156.3158956450115
 23
95.64357616671863
 33
0.0
  0
SOLID
  5
381
330
351
100
AcDbEntity
  8
AM_REFDIM
 62
     0
100
AcDbTrace
 10
156.1025623116782
 20
102.0135761667186
 30
0.0
 11
156.5292289783449
 21
102.0135761667186
 31
0.0
 12
156.3158956450115
 22
100.7335761667186
 32
0.0
 13
156.3158956450115
 23
100.7335761667186
 33
0.0
  0
MTEXT
  5
382
330
351
100
AcDbEntity
  8
AM_REFDIM
 62
     0
100
AcDbMText
 10
156.3158956450115
 20
98.18857616671863
 30
0.0
 40
1.6
 41
0.0
 71
     5
 72
     1
  1
\A1;5.09
  7
ROMANS
 73
     1
 44
1.0
1001
ACAD
1000
MTEXTBEGIN
1070
    73
1070
     1
1070
    44
1040
1.0
1070
    74
1070
     0
1000
MTEXTEND
  0
POINT
  5
383
330
351
100
AcDbEntity
  8
Defpoints
 62
     0
100
AcDbPoint
 10
152.164480567464
 20
95.64357616671863
 30
0.0
  0
POINT
  5
384
330
351
100
AcDbEntity
  8
Defpoints
 62
     0
100
AcDbPoint
 10
150.8243668411957
 20
100.7335761667186
 30
0.0
  0
POINT
  5
385
330
351
100
AcDbEntity
  8
Defpoints
 62
     0
100
AcDbPoint
 10
156.3158956450115
 20
100.7335761667186
 30
0.0
  0
ENDBLK
  5
35D
330
351
100
AcDbEntity
  8
0
100
AcDbBlockEnd
  0
ENDSEC
  0
SECTION
  2
ENTITIES
  0
LINE
  5
30
330
2
100
AcDbEntity
  8
AM_VIS
100
AcDbLine
 10
21.13480891334049
 20
100.6145761667186
 30
0.0
 11
20.0638089133405
 21
100.6145761667186
 31
0.0
  0
LINE
  5
32
330
2
100
AcDbEntity
  8
AM_VIS
100
AcDbLine
 10
19.81380891334049
 20
100.7335761667186
 30
0.0
 11
19.81380891334049
 21
100.6145761667186
 31
0.0
  0
ARC
  5
33
330
2
100
AcDbEntity
  8
AM_VIS
100
AcDbCircle
 10
21.13480891334049
 20
100.5545761667186
 30
0.0
 40
0.06
100
AcDbArc
 50
0.0
 51
90.0
  0
LINE
  5
34
330
2
100
AcDbEntity
  8
AM_VIS
100
AcDbLine
 10
21.1948089133405
 20
100.3035761667186
 30
0.0
 11
21.1948089133405
 21
100.5545761667186
 31
0.0
  0
LINE
  5
35
330
2
100
AcDbEntity
  8
AM_VIS
100
AcDbLine
 10
21.1948089133405
 20
100.2835761667186
 30
0.0
 11
21.1948089133405
 21
100.3035761667186
 31
0.0
  0
LINE
  5
36
330
2
100
AcDbEntity
  8
AM_VIS
100
AcDbLine
 10
21.31380891334051
 20
100.3035761667186
 30
0.0
 11
21.31380891334051
 21
100.2835761667186
 31
0.0
  0
LINE
  5
37
330
2
100
AcDbEntity
  8
AM_VIS
100
AcDbLine
 10
125.5758089133405
 20
100.3035761667186
 30
0.0
 11
125.5758089133405
 21
100.2835761667186
 31
0.0
  0
LINE
  5
38
330
2
100
AcDbEntity
  8
AM_VIS
100
AcDbLine
 10
127.0758089133405
 20
100.6145761667186
 30
0.0
 11
127.0758089133405
 21
100.7335761667186
 31
0.0
  0
LINE
  5
39
330
2
100
AcDbEntity
  8
AM_VIS
100
AcDbLine
 10
126.8258089133405
 20
100.6145761667186
 30
0.0
 11
127.0758089133405
 21
100.6145761667186
 31
0.0
  0
LINE
  5
3A
330
2
100
AcDbEntity
  8
AM_VIS
100
AcDbLine
 10
127.0758089133405
 20
100.7335761667186
 30
0.0
 11
126.8258089133405
 21
100.7335761667186
 31
0.0
  0
LINE
  5
3B
330
2
100
AcDbEntity
  8
AM_VIS
100
AcDbLine
 10
126.8258089133405
 20
100.6145761667186
 30
0.0
 11
126.8258089133405
 21
100.7335761667186
 31
0.0
  0
LINE
  5
3C
330
2
100
AcDbEntity
  8
AM_VIS
100
AcDbLine
 10
125.7548089133405
 20
100.6145761667186
 30
0.0
 11
126.8258089133405
 21
100.6145761667186
 31
0.0
  0
LINE
  5
3D
330
2
100
AcDbEntity
  8
AM_VIS
100
AcDbLine
 10
125.5758089133405
 20
100.3035761667186
 30
0.0
 11
125.6948089133405
 21
100.3035761667186
 31
0.0
  0
LINE
  5
3E
330
2
100
AcDbEntity
  8
AM_VIS
100
AcDbLine
 10
125.5758089133405
 20
100.5545761667186
 30
0.0
 11
125.5758089133405
 21
100.3035761667186
 31
0.0
  0
ARC
  5
3F
330
2
100
AcDbEntity
  8
AM_VIS
100
AcDbCircle
 10
125.7548089133405
 20
100.5545761667186
 30
0.0
 40
0.179
100
AcDbArc
 50
90.0
 51
180.0
  0
LINE
  5
40
330
2
100
AcDbEntity
  8
AM_VIS
100
AcDbLine
 10
126.8258089133405
 20
100.7335761667186
 30
0.0
 11
125.7548089133405
 21
100.7335761667186
 31
0.0
  0
ARC
  5
41
330
2
100
AcDbEntity
  8
AM_VIS
100
AcDbCircle
 10
125.7548089133405
 20
100.5545761667186
 30
0.0
 40
0.0600000000000001
100
AcDbArc
 50
90.0
 51
180.0
  0
LINE
  5
42
330
2
100
AcDbEntity
  8
AM_VIS
100
AcDbLine
 10
125.6948089133405
 20
100.2835761667186
 30
0.0
 11
125.6948089133405
 21
100.3035761667186
 31
0.0
  0
LINE
  5
43
330
2
100
AcDbEntity
  8
AM_VIS
100
AcDbLine
 10
125.6948089133405
 20
100.3035761667186
 30
0.0
 11
125.6948089133405
 21
100.5545761667186
 31
0.0
  0
HATCH
  5
44
330
2
100
AcDbEntity
  8
AMV_2_HATCH
100
AcDbHatch
 10
0.0
 20
0.0
 30
0.0
210
0.0
220
0.0
230
-1.0
  2
ANSI31
 70
     0
 71
     0
 91
        2
 92
        0
 93
        4
 72
     1
 10
-121.0698089133405
 20
95.64357616671866
 11
-25.06980891334051
 21
95.64357616671866
 72
     1
 10
-25.06980891334051
 20
95.64357616671868
 11
-25.06980891334051
 21
39.64357616671865
 72
     1
 10
-25.06980891334052
 20
39.64357616671864
 11
-121.0698089133405
 21
39.64357616671864
 72
     1
 10
-121.0698089133405
 20
39.64357616671867
 11
-121.0698089133405
 21
95.64357616671866
 97
        0
 92
        0
 93
        4
 72
     1
 10
-119.0698089133405
 20
41.64357616671863
 11
-27.06980891334052
 21
41.64357616671863
 72
     1
 10
-27.06980891334052
 20
41.64357616671863
 11
-27.06980891334052
 21
93.64357616671863
 72
     1
 10
-27.0698089133405
 20
93.64357616671863
 11
-119.0698089133405
 21
93.64357616671863
 72
     1
 10
-119.0698089133405
 20
93.64357616671863
 11
-119.0698089133405
 21
41.64357616671863
 97
        0
 75
     0
 76
     1
 52
0.0
 41
8.0
 77
     0
 78
     1
 53
45.0
 43
62.9301910866595
 44
67.64357616671865
 45
-0.7071067811865475
 46
0.7071067811865476
 79
     0
 98
        1
 10
0.0
 20
0.0
  0
LINE
  5
4B
330
2
100
AcDbEntity
  8
AM_VIS
100
AcDbLine
 10
151.5388549505158
 20
41.64357616671863
 30
0.0
 11
151.5388549505158
 21
95.64357616671863
 31
0.0
  0
LINE
  5
4D
330
2
100
AcDbEntity
  8
AM_VIS
100
AcDbLine
 10
151.5448549505157
 20
41.64357616671863
 30
0.0
 11
151.5448549505157
 21
95.64357616671863
 31
0.0
  0
CIRCLE
  5
51
330
2
100
AcDbEntity
  8
AM_VIS
100
AcDbCircle
 10
151.5421049505158
 20
39.90477616671865
 30
0.0
 40
0.25
  0
ARC
  5
52
330
2
100
AcDbEntity
  8
AM_VIS
100
AcDbCircle
 10
149.664365866193
 20
96.22357616671866
 30
0.0
 40
0.5000003192025875
100
AcDbArc
 50
0.0
 51
90.0
  0
ARC
  5
53
330
2
100
AcDbEntity
  8
AM_VIS
100
AcDbCircle
 10
150.2714520909997
 20
96.82959616671864
 30
0.0
 40
0.034999274529363
100
AcDbArc
 50
126.4269650212636
 51
174.7154453074846
  0
ARC
  5
54
330
2
100
AcDbEntity
  8
AM_VIS
100
AcDbCircle
 10
150.174366088091
 20
96.83857616671865
 30
0.0
 40
0.0625011478327649
100
AcDbArc
 50
95.28457325125677
 51
354.7154453074839
  0
ARC
  5
55
330
2
100
AcDbEntity
  8
AM_VIS
100
AcDbCircle
 10
150.1653860566437
 20
96.93566216671866
 30
0.0
 40
0.034999274529363
100
AcDbArc
 50
275.2845732512572
 51
327.4449202962767
  0
LINE
  5
56
330
2
100
AcDbEntity
  8
AM_VIS
100
AcDbLine
 10
148.0943661853956
 20
98.22357616671864
 30
0.0
 11
148.0943661853956
 21
98.87857616671864
 31
0.0
  0
LINE
  5
57
330
2
100
AcDbEntity
  8
AM_VIS
100
AcDbLine
 10
149.664365866193
 20
96.72357648592123
 30
0.0
 11
149.594365866193
 21
96.72357648592123
 31
0.0
  0
LINE
  5
58
330
2
100
AcDbEntity
  8
AM_VIS
100
AcDbLine
 10
150.1643661853956
 20
95.68357616671866
 30
0.0
 11
150.1643661853956
 21
96.22357616671866
 31
0.0
  0
LINE
  5
59
330
2
100
AcDbEntity
  8
AM_VIS
100
AcDbLine
 10
148.0943661853956
 20
99.22857616671866
 30
0.0
 11
148.0943661853956
 21
99.47857616671866
 31
0.0
  0
LINE
  5
5A
330
2
100
AcDbEntity
  8
AM_VIS
100
AcDbLine
 10
148.0943661853956
 20
98.92857616671866
 30
0.0
 11
148.0943661853956
 21
99.17857616671872
 31
0.0
  0
ARC
  5
5B
330
2
100
AcDbEntity
  8
AM_VIS
100
AcDbCircle
 10
148.6793667048628
 20
99.91627726048774
 30
0.0
 40
0.0350000002425366
100
AcDbArc
 50
350.8458159152336
 51
39.71457174004902
  0
ARC
  5
5C
330
2
100
AcDbEntity
  8
AM_VIS
100
AcDbCircle
 10
148.7543672737702
 20
99.97857616104678
 30
0.0
 40
0.06249994
100
AcDbArc
 50
320.2848600641899
 51
219.7145717400553
  0
ARC
  5
5D
330
2
100
AcDbEntity
  8
AM_VIS
100
AcDbCircle
 10
148.8293672248628
 20
99.91627651671866
 30
0.0
 40
0.0350000002425366
100
AcDbArc
 50
140.2848600641884
 51
185.4514923128684
  0
ARC
  5
5E
330
2
100
AcDbEntity
  8
AM_VIS
100
AcDbCircle
 10
150.8993663340549
 20
99.91627667077793
 30
0.0
 40
0.0350000002425366
100
AcDbArc
 50
352.6301700378132
 51
39.71502657624812
  0
ARC
  5
5F
330
2
100
AcDbEntity
  8
AM_VIS
100
AcDbCircle
 10
150.974366408407
 20
99.97857616671865
 30
0.0
 40
0.06249994
100
AcDbArc
 50
320.2845883501587
 51
219.7150265762494
  0
ARC
  5
60
330
2
100
AcDbEntity
  8
AM_VIS
100
AcDbCircle
 10
151.0493660640549
 20
99.91627616671866
 30
0.0
 40
0.0350000002425366
100
AcDbArc
 50
140.2845883501647
 51
187.3694448886128
  0
LINE
  5
61
330
2
100
AcDbEntity
  8
AM_VIS
100
AcDbLine
 10
152.2243668411957
 20
96.28357616671866
 30
0.0
 11
152.194366408407
 21
96.28357616671866
 31
0.0
  0
LINE
  5
62
330
2
100
AcDbEntity
  8
AM_VIS
100
AcDbLine
 10
152.2243668411957
 20
96.40857616671866
 30
0.0
 11
152.2243668411957
 21
96.28357616671863
 31
0.0
  0
LINE
  5
63
330
2
100
AcDbEntity
  8
AM_VIS
100
AcDbLine
 10
152.194366408407
 20
96.40857616671866
 30
0.0
 11
152.2243668411957
 21
96.40857616671866
 31
0.0
  0
LINE
  5
64
330
2
100
AcDbEntity
  8
AM_VIS
100
AcDbLine
 10
150.6343668411957
 20
100.2835761667186
 30
0.0
 11
151.4043668411956
 21
100.2835761667186
 31
0.0
  0
LINE
  5
65
330
2
100
AcDbEntity
  8
AM_VIS
100
AcDbLine
 10
148.3443664150888
 20
100.2835761667186
 30
0.0
 11
149.0943668411956
 21
100.2835761667186
 31
0.0
  0
LINE
  5
66
330
2
100
AcDbEntity
  8
AM_VIS
100
AcDbLine
 10
148.0943664150888
 20
99.55757616671869
 30
0.0
 11
148.0943664150888
 21
100.0335761667186
 31
0.0
  0
LINE
  5
67
330
2
100
AcDbEntity
  8
AM_VIS
100
AcDbLine
 10
148.7643668411957
 20
100.1205699680371
 30
0.0
 11
148.7643668411957
 21
100.1205751261568
 31
0.0
  0
LINE
  5
68
330
2
100
AcDbEntity
  8
AM_VIS
100
AcDbLine
 10
150.9643658411957
 20
100.1207323289619
 30
0.0
 11
150.9643658411957
 21
100.1207248165731
 31
0.0
  0
ARC
  5
69
330
2
100
AcDbEntity
  8
AM_VIS
100
AcDbCircle
 10
150.974366408407
 20
99.97857616671865
 30
0.0
 40
0.1425000000000001
100
AcDbArc
 50
0.0
 51
45.04272237995088
  0
ARC
  5
6A
330
2
100
AcDbEntity
  8
AM_VIS
100
AcDbCircle
 10
150.974366408407
 20
99.97857616671865
 30
0.0
 40
0.1425000000000001
100
AcDbArc
 50
180.0
 51
0.0
  0
ARC
  5
6B
330
2
100
AcDbEntity
  8
AM_VIS
100
AcDbCircle
 10
150.974366408407
 20
99.97857616671865
 30
0.0
 40
0.1425000000000001
100
AcDbArc
 50
134.957277620051
 51
180.0
  0
ARC
  5
6C
330
2
100
AcDbEntity
  8
AM_VIS
100
AcDbCircle
 10
148.752366408407
 20
99.97857616671865
 30
0.0
 40
0.1425
100
AcDbArc
 50
0.0
 51
45.04272238000773
  0
ARC
  5
6D
330
2
100
AcDbEntity
  8
AM_VIS
100
AcDbCircle
 10
148.752366408407
 20
99.97857616671865
 30
0.0
 40
0.1425
100
AcDbArc
 50
180.0
 51
0.0
  0
ARC
  5
6E
330
2
100
AcDbEntity
  8
AM_VIS
100
AcDbCircle
 10
148.752366408407
 20
99.97857616671865
 30
0.0
 40
0.1425
100
AcDbArc
 50
134.9572776199942
 51
180.0
  0
ARC
  5
6F
330
2
100
AcDbEntity
  8
AM_VIS
100
AcDbCircle
 10
150.174366408407
 20
96.84157616671866
 30
0.0
 40
0.1425
100
AcDbArc
 50
180.0
 51
183.4168779509234
  0
ARC
  5
70
330
2
100
AcDbEntity
  8
AM_VIS
100
AcDbCircle
 10
150.174366408407
 20
96.84157616671866
 30
0.0
 40
0.1425
100
AcDbArc
 50
0.0
 51
180.0
  0
ARC
  5
71
330
2
100
AcDbEntity
  8
AM_VIS
100
AcDbCircle
 10
150.174366408407
 20
96.84157616671866
 30
0.0
 40
0.1425
100
AcDbArc
 50
277.9586524839386
 51
0.0
  0
ARC
  5
75
330
2
100
AcDbEntity
  8
AM_VIS
100
AcDbCircle
 10
150.974366408407
 20
99.97857616671865
 30
0.0
 40
0.0780000000000001
100
AcDbArc
 50
0.0
 51
180.0
  0
ARC
  5
76
330
2
100
AcDbEntity
  8
AM_VIS
100
AcDbCircle
 10
150.974366408407
 20
99.97857616671865
 30
0.0
 40
0.0780000000000001
100
AcDbArc
 50
180.0
 51
0.0
  0
ARC
  5
77
330
2
100
AcDbEntity
  8
AM_VIS
100
AcDbCircle
 10
148.752366408407
 20
99.97857616671865
 30
0.0
 40
0.078
100
AcDbArc
 50
0.0
 51
180.0
  0
ARC
  5
78
330
2
100
AcDbEntity
  8
AM_VIS
100
AcDbCircle
 10
148.752366408407
 20
99.97857616671865
 30
0.0
 40
0.078
100
AcDbArc
 50
180.0
 51
0.0
  0
ARC
  5
79
330
2
100
AcDbEntity
  8
AM_VIS
100
AcDbCircle
 10
150.174366408407
 20
96.84157616671866
 30
0.0
 40
0.078
100
AcDbArc
 50
180.0
 51
0.0
  0
ARC
  5
7A
330
2
100
AcDbEntity
  8
AM_VIS
100
AcDbCircle
 10
150.174366408407
 20
96.84157616671866
 30
0.0
 40
0.078
100
AcDbArc
 50
0.0
 51
180.0
  0
LINE
  5
7C
330
2
100
AcDbEntity
  8
AM_VIS
100
AcDbLine
 10
152.194366408407
 20
100.0345274921956
 30
0.0
 11
152.194366408407
 21
95.67346200766165
 31
0.0
  0
ARC
  5
7D
330
2
100
AcDbEntity
  8
AM_VIS
100
AcDbCircle
 10
151.9457074478039
 20
100.0349172061156
 30
0.0
 40
0.2486592659948798
100
AcDbArc
 50
359.9102025340398
 51
90.08979746595938
  0
LINE
  5
7E
330
2
100
AcDbEntity
  8
AM_VIS
100
AcDbLine
 10
148.34341508293
 20
100.2835761667186
 30
0.0
 11
151.945317733884
 21
100.2835761667186
 31
0.0
  0
ARC
  5
7F
330
2
100
AcDbEntity
  8
AM_VIS
100
AcDbCircle
 10
148.752366408407
 20
99.97861991893699
 30
0.0
 40
0.1424690428043404
100
AcDbArc
 50
45.03028974633195
 51
134.9697102536701
  0
ARC
  5
80
330
2
100
AcDbEntity
  8
AM_VIS
100
AcDbCircle
 10
150.974366408407
 20
99.9786199189365
 30
0.0
 40
0.1424690428048233
100
AcDbArc
 50
45.0302897464105
 51
134.9697102535875
  0
ARC
  5
81
330
2
100
AcDbEntity
  8
AM_VIS
100
AcDbCircle
 10
150.1743664083867
 20
96.84157616670745
 30
0.0
 40
0.1424999999783779
100
AcDbArc
 50
183.4168779469034
 51
277.9586524952049
  0
ARC
  5
82
330
2
100
AcDbEntity
  8
AM_VIS
100
AcDbCircle
 10
149.6670484872
 20
96.22625824551178
 30
0.0
 40
0.4973185319905913
100
AcDbArc
 50
359.9102025341343
 51
90.08979746584644
  0
LINE
  5
83
330
2
100
AcDbEntity
  8
AM_VIS
100
AcDbLine
 10
150.164366408407
 20
95.67346200766165
 30
0.0
 11
150.164366408407
 21
96.22547881767266
 31
0.0
  0
LINE
  5
84
330
2
100
AcDbEntity
  8
AM_VIS
100
AcDbLine
 10
149.6662690593612
 20
96.72357616671868
 30
0.0
 11
149.5886584555446
 21
96.72357616671868
 31
0.0
  0
ARC
  5
85
330
2
100
AcDbEntity
  8
AM_VIS
100
AcDbCircle
 10
149.5863201720277
 20
98.21552993033941
 30
0.0
 40
1.491955595971916
100
AcDbArc
 50
179.9102025341577
 51
270.0897974658431
  0
LINE
  5
86
330
2
100
AcDbEntity
  8
AM_VIS
100
AcDbLine
 10
148.094366408407
 20
98.21786821385629
 30
0.0
 11
148.094366408407
 21
100.0345274921956
 31
0.0
  0
ARC
  5
87
330
2
100
AcDbEntity
  8
AM_VIS
100
AcDbCircle
 10
148.34302536901
 20
100.0349172061156
 30
0.0
 40
0.2486592659948789
100
AcDbArc
 50
89.9102025340399
 51
180.089797465961
  0
ARC
  5
88
330
2
100
AcDbEntity
  8
AM_VIS
100
AcDbCircle
 10
152.1645273331349
 20
95.67341524199074
 30
0.0
 40
0.0298391119191141
100
AcDbArc
 50
269.9102025330626
 51
0.0897974669502588
  0
LINE
  5
89
330
2
100
AcDbEntity
  8
AM_VIS
100
AcDbLine
 10
152.164480567464
 20
95.64357616671866
 30
0.0
 11
150.1942522493498
 21
95.64357616671866
 31
0.0
  0
ARC
  5
8A
330
2
100
AcDbEntity
  8
AM_VIS
100
AcDbCircle
 10
150.1942054836793
 20
95.67341524199092
 30
0.0
 40
0.0298391119192862
100
AcDbArc
 50
179.9102025333862
 51
270.0897974662283
  0
LINE
  5
8B
330
2
100
AcDbEntity
  8
AM_VIS
100
AcDbLine
 10
150.8243668411957
 20
100.6145761667186
 30
0.0
 11
150.8243668411957
 21
100.5545761667186
 31
0.0
  0
LINE
  5
8C
330
2
100
AcDbEntity
  8
AM_VIS
100
AcDbLine
 10
148.9043668411957
 20
100.5545761667186
 30
0.0
 11
148.9043668411957
 21
100.6145761667186
 31
0.0
  0
LINE
  5
8D
330
2
100
AcDbEntity
  8
AM_VIS
100
AcDbLine
 10
149.1543668411956
 20
100.7335761667186
 30
0.0
 11
148.9043668411957
 21
100.7335761667186
 31
0.0
  0
LINE
  5
8E
330
2
100
AcDbEntity
  8
AM_VIS
100
AcDbLine
 10
148.9043668411957
 20
100.6145761667186
 30
0.0
 11
149.1543668411956
 21
100.6145761667186
 31
0.0
  0
LINE
  5
8F
330
2
100
AcDbEntity
  8
AM_VIS
100
AcDbLine
 10
150.5743668411957
 20
100.6145761667186
 30
0.0
 11
150.8243668411958
 21
100.6145761667186
 31
0.0
  0
LINE
  5
90
330
2
100
AcDbEntity
  8
AM_VIS
100
AcDbLine
 10
150.8243668411957
 20
100.7335761667186
 30
0.0
 11
150.5743668411957
 21
100.7335761667186
 31
0.0
  0
LINE
  5
91
330
2
100
AcDbEntity
  8
AM_VIS
100
AcDbLine
 10
150.6043668411957
 20
100.2835761667186
 30
0.0
 11
150.6043668411957
 21
100.3035761667186
 31
0.0
  0
LINE
  5
92
330
2
100
AcDbEntity
  8
AM_VIS
100
AcDbLine
 10
148.9043668411957
 20
100.3035761667186
 30
0.0
 11
148.9043668411957
 21
100.5545761667186
 31
0.0
  0
LINE
  5
93
330
2
100
AcDbEntity
  8
AM_VIS
100
AcDbLine
 10
149.1243668411956
 20
100.3035761667186
 30
0.0
 11
148.9043668411957
 21
100.3035761667186
 31
0.0
  0
LINE
  5
94
330
2
100
AcDbEntity
  8
AM_VIS
100
AcDbLine
 10
149.1243668411956
 20
100.2835761667186
 30
0.0
 11
149.1243668411956
 21
100.3035761667186
 31
0.0
  0
LINE
  5
95
330
2
100
AcDbEntity
  8
AM_VIS
100
AcDbLine
 10
150.8243668411957
 20
100.3035761667186
 30
0.0
 11
150.6043668411957
 21
100.3035761667186
 31
0.0
  0
LINE
  5
96
330
2
100
AcDbEntity
  8
AM_VIS
100
AcDbLine
 10
150.8243668411957
 20
100.3035761667186
 30
0.0
 11
150.8243668411957
 21
100.5545761667186
 31
0.0
  0
LINE
  5
97
330
2
100
AcDbEntity
  8
AM_VIS
100
AcDbLine
 10
148.9043668411957
 20
100.6145761667186
 30
0.0
 11
148.9043668411957
 21
100.7335761667186
 31
0.0
  0
LINE
  5
98
330
2
100
AcDbEntity
  8
AM_VIS
100
AcDbLine
 10
150.5743668411957
 20
100.7335761667186
 30
0.0
 11
149.1543668411956
 21
100.7335761667186
 31
0.0
  0
LINE
  5
99
330
2
100
AcDbEntity
  8
AM_VIS
100
AcDbLine
 10
150.5743668411957
 20
100.6145761667186
 30
0.0
 11
149.1543668411956
 21
100.6145761667186
 31
0.0
  0
LINE
  5
9A
330
2
100
AcDbEntity
  8
AM_VIS
100
AcDbLine
 10
150.8243668411957
 20
100.7335761667186
 30
0.0
 11
150.8243668411957
 21
100.6145761667186
 31
0.0
  0
DIMENSION
  5
CC
330
2
100
AcDbEntity
  8
AM_REFDIM
100
AcDbDimension
  2
*D11
 10
131.6071016225027
 20
95.64357616671866
 30
0.0
 11
136.7651968605979
 21
99.47775222866352
 31
0.0
 70
   160
  1
<>\PBLK.
 71
     5
 42
2.000000000000027
  3
Standard
100
AcDbAlignedDimension
 13
121.0698089133405
 23
93.64357616671863
 33
0.0
 14
125.6948089133405
 24
95.64357616671866
 34
0.0
 50
90.0
100
AcDbRotatedDimension
1001
ACAD
1000
DSTYLE
1002
{
1070
   144
1040
1.0
1002
}
  0
DIMENSION
  5
DC
330
2
100
AcDbEntity
  8
AM_REFDIM
100
AcDbDimension
  2
*D12
 10
131.6071016225027
 20
41.64357616671863
 30
0.0
 11
131.6071016225027
 21
67.64357616671865
 31
0.0
 70
    32
  1
<>\PVAH
 71
     5
 42
51.99999999999999
  3
Standard
100
AcDbAlignedDimension
 13
121.0698089133405
 23
93.64357616671863
 33
0.0
 14
121.0698089133405
 24
41.64357616671863
 34
0.0
 50
90.0
100
AcDbRotatedDimension
1001
ACAD
1000
DSTYLE
1002
{
1070
   144
1040
1.0
1002
}
  0
DIMENSION
  5
EA
330
2
100
AcDbEntity
  8
AM_REFDIM
100
AcDbDimension
  2
*D13
 10
131.6071016225027
 20
41.64357616671863
 30
0.0
 11
126.4490063844075
 21
36.92357616671868
 31
0.0
 70
   160
 71
     5
 42
1.999999999999985
  3
Standard
100
AcDbAlignedDimension
 13
121.0698089133405
 23
39.64357616671865
 33
0.0
 14
121.0698089133405
 24
41.64357616671863
 34
0.0
 50
90.0
100
AcDbRotatedDimension
1001
ACAD
1000
DSTYLE
1002
{
1070
   144
1040
1.0
1002
}
  0
DIMENSION
  5
F9
330
2
100
AcDbEntity
  8
AM_REFDIM
100
AcDbDimension
  2
*D14
 10
138.2417154488064
 20
95.64357616671866
 30
0.0
 11
138.2417154488064
 21
75.87775072891631
 31
0.0
 70
   160
 71
     5
 42
56.00000000000001
  3
Standard
100
AcDbAlignedDimension
 13
121.0698089133405
 23
39.64357616671865
 33
0.0
 14
125.6948089133405
 24
95.64357616671866
 34
0.0
 50
90.0
100
AcDbRotatedDimension
1001
ACAD
1000
DSTYLE
1002
{
1070
   144
1040
1.0
1002
}
  0
DIMENSION
  5
107
330
2
100
AcDbEntity
  8
AM_REFDIM
100
AcDbDimension
  2
*D15
 10
27.06980891334052
 20
37.22511930338188
 30
0.0
 11
73.06980891334051
 21
37.22511930338188
 31
0.0
 70
    32
  1
<> VAW
 71
     5
 42
91.99999999999995
  3
Standard
100
AcDbAlignedDimension
 13
119.0698089133405
 23
41.64357616671863
 33
0.0
 14
27.06980891334052
 24
41.64357616671863
 34
0.0
100
AcDbRotatedDimension
1001
ACAD
1000
DSTYLE
1002
{
1070
   144
1040
1.0
1002
}
  0
DIMENSION
  5
115
330
2
100
AcDbEntity
  8
AM_REFDIM
100
AcDbDimension
  2
*D16
 10
25.0698089133405
 20
37.22511930338188
 30
0.0
 11
18.63171367524526
 21
37.22511930338188
 31
0.0
 70
    32
 71
     5
 42
2.000000000000016
  3
Standard
100
AcDbAlignedDimension
 13
27.06980891334052
 23
41.64357616671863
 33
0.0
 14
25.0698089133405
 24
39.64357616671865
 34
0.0
100
AcDbRotatedDimension
1001
ACAD
1000
DSTYLE
1002
{
1070
   144
1040
1.0
1002
}
  0
DIMENSION
  5
123
330
2
100
AcDbEntity
  8
AM_REFDIM
100
AcDbDimension
  2
*D17
 10
121.0698089133405
 20
33.27513696611692
 30
0.0
 11
73.06980891334048
 21
33.27513696611692
 31
0.0
 70
    32
  1
<> (FABRIC WIDTH)
 71
     5
 42
96.0
  3
Standard
100
AcDbAlignedDimension
 13
25.0698089133405
 23
39.64357616671865
 33
0.0
 14
121.0698089133405
 24
39.64357616671867
 34
0.0
100
AcDbRotatedDimension
1001
ACAD
1000
DSTYLE
1002
{
1070
   144
1040
1.0
1002
}
  0
DIMENSION
  5
131
330
2
100
AcDbEntity
  8
AM_REFDIM
100
AcDbDimension
  2
*D18
 10
121.4448089133405
 20
29.44963320692142
 30
0.0
 11
73.06980891334048
 21
29.44963320692142
 31
0.0
 70
    32
  1
<> (OVERALL LENGTH OF SLAT)
 71
     5
 42
96.75
  3
Standard
100
AcDbAlignedDimension
 13
24.6948089133405
 23
39.90477616671865
 33
0.0
 14
121.4448089133405
 24
39.90477616671866
 34
0.0
100
AcDbRotatedDimension
1001
ACAD
1000
DSTYLE
1002
{
1070
   144
1040
1.0
1002
}
  0
DIMENSION
  5
13F
330
2
100
AcDbEntity
  8
AM_REFDIM
100
AcDbDimension
  2
*D19
 10
125.6948089133405
 20
103.6168511062935
 30
0.0
 11
73.4448089133405
 21
103.6168511062935
 31
0.0
 70
    32
  1
<> (CASE LENGTH)
 71
     5
 42
104.5
  3
Standard
100
AcDbAlignedDimension
 13
21.1948089133405
 23
100.2835761667186
 33
0.0
 14
125.6948089133405
 24
100.2835761667186
 34
0.0
100
AcDbRotatedDimension
1001
ACAD
1000
DSTYLE
1002
{
1070
   144
1040
1.0
1002
}
  0
DIMENSION
  5
14D
330
2
100
AcDbEntity
  8
AM_REFDIM
100
AcDbDimension
  2
*D20
 10
20.81980891334049
 20
107.9341872697165
 30
0.0
 11
73.4448089133405
 21
107.9341872697165
 31
0.0
 70
    32
  1
<> (OVERALL LENGTH OF CASE /W BRACKETS)
 71
     5
 42
105.25
  3
Standard
100
AcDbAlignedDimension
 13
126.0698089133405
 23
100.0166537223756
 33
0.0
 14
20.81980891334049
 24
100.0166537223756
 34
0.0
100
AcDbRotatedDimension
1001
ACAD
1000
DSTYLE
1002
{
1070
   144
1040
1.0
1002
}
  0
DIMENSION
  5
15B
330
2
100
AcDbEntity
  8
AM_REFDIM
100
AcDbDimension
  2
*D21
 10
19.81380891334049
 20
111.858090081308
 30
0.0
 11
73.4448089133405
 21
111.858090081308
 31
0.0
 70
    32
  1
(ADJUSTABLE HANGERS)
 71
     5
 42
107.262
  3
Standard
100
AcDbAlignedDimension
 13
127.0758089133405
 23
100.6145761667186
 33
0.0
 14
19.81380891334049
 24
100.7335761667186
 34
0.0
100
AcDbRotatedDimension
1001
ACAD
1000
DSTYLE
1002
{
1070
   144
1040
1.0
1002
}
  0
LINE
  5
169
330
2
100
AcDbEntity
  8
AM_HID
  6
Continuous
 62
     2
100
AcDbLine
 10
27.06980891334052
 20
93.64357616671863
 30
0.0
 11
25.06980891334052
 21
93.64357616671863
 31
0.0
  0
LINE
  5
16C
330
2
100
AcDbEntity
  8
AM_HID
  6
Continuous
 62
     2
100
AcDbLine
 10
121.0698089133405
 20
93.64357616671869
 30
0.0
 11
119.0698089133405
 21
93.64357616671869
 31
0.0
  0
LINE
  5
16D
330
2
100
AcDbEntity
  8
AM_HID
  6
Continuous
 62
     2
100
AcDbLine
 10
25.06980891334054
 20
41.64357616671863
 30
0.0
 11
27.06980891334054
 21
41.64357616671863
 31
0.0
  0
LINE
  5
16E
330
2
100
AcDbEntity
  8
AM_HID
  6
Continuous
 62
     2
100
AcDbLine
 10
119.0698089133405
 20
41.64357616671863
 30
0.0
 11
121.0698089133405
 21
41.64357616671863
 31
0.0
  0
LINE
  5
16F
330
2
100
AcDbEntity
  8
AM_VIS
100
AcDbLine
 10
121.0698089133405
 20
95.64357616671866
 30
0.0
 11
121.0698089133405
 21
39.64357616671867
 31
0.0
  0
LINE
  5
170
330
2
100
AcDbEntity
  8
AM_VIS
100
AcDbLine
 10
121.0698089133405
 20
39.64357616671864
 30
0.0
 11
25.06980891334054
 21
39.64357616671864
 31
0.0
  0
LINE
  5
171
330
2
100
AcDbEntity
  8
AM_VIS
100
AcDbLine
 10
25.06980891334051
 20
39.64357616671865
 30
0.0
 11
25.06980891334051
 21
95.64357616671868
 31
0.0
  0
LINE
  5
172
330
2
100
AcDbEntity
  8
AM_VIS
100
AcDbLine
 10
25.06980891334051
 20
95.64357616671866
 30
0.0
 11
121.0698089133405
 21
95.64357616671866
 31
0.0
  0
LINE
  5
173
330
2
100
AcDbEntity
  8
AM_VIS
100
AcDbLine
 10
119.0698089133405
 20
93.64357616671863
 30
0.0
 11
119.0698089133405
 21
41.64357616671863
 31
0.0
  0
LINE
  5
174
330
2
100
AcDbEntity
  8
AM_VIS
100
AcDbLine
 10
27.0698089133405
 20
93.64357616671863
 30
0.0
 11
119.0698089133405
 21
93.64357616671863
 31
0.0
  0
LINE
  5
175
330
2
100
AcDbEntity
  8
AM_VIS
100
AcDbLine
 10
27.06980891334052
 20
41.64357616671863
 30
0.0
 11
27.06980891334052
 21
93.64357616671863
 31
0.0
  0
LINE
  5
176
330
2
100
AcDbEntity
  8
AM_VIS
100
AcDbLine
 10
119.0698089133405
 20
41.64357616671863
 30
0.0
 11
27.0698089133405
 21
41.64357616671863
 31
0.0
  0
LINE
  5
177
330
2
100
AcDbEntity
  8
AM_VIS
100
AcDbLine
 10
24.81780891334051
 20
40.15477616671865
 30
0.0
 11
24.81780891334051
 21
39.90477616671865
 31
0.0
  0
LINE
  5
178
330
2
100
AcDbEntity
  8
AM_VIS
100
AcDbLine
 10
24.81780891334051
 20
39.90477616671865
 30
0.0
 11
24.81780891334051
 21
39.65477616671865
 31
0.0
  0
LINE
  5
179
330
2
100
AcDbEntity
  8
AM_VIS
100
AcDbLine
 10
24.6948089133405
 20
39.85505785759546
 30
0.0
 11
24.6948089133405
 21
39.95449447584185
 31
0.0
  0
LINE
  5
17A
330
2
100
AcDbEntity
  8
AM_VIS
100
AcDbLine
 10
24.81780891334051
 20
39.65477616671865
 30
0.0
 11
25.06980891334052
 21
39.65477616671865
 31
0.0
  0
LINE
  5
17C
330
2
100
AcDbEntity
  8
AM_VIS
100
AcDbLine
 10
24.81780891334051
 20
40.15477616671865
 30
0.0
 11
25.06980891334052
 21
40.15477616671865
 31
0.0
  0
ARC
  5
17E
330
2
100
AcDbEntity
  8
AM_VIS
100
AcDbCircle
 10
24.97849448635095
 20
39.91818338021344
 30
0.0
 40
0.286
100
AcDbArc
 50
124.1829802260995
 51
172.7059343887849
  0
ARC
  5
17F
330
2
100
AcDbEntity
  8
AM_VIS
100
AcDbCircle
 10
24.97849448635095
 20
39.89136895322387
 30
0.0
 40
0.286
100
AcDbArc
 50
187.294065611215
 51
235.8170197739009
  0
LINE
  5
182
330
2
100
AcDbEntity
  8
AM_VIS
100
AcDbLine
 10
121.3218089133405
 20
39.65477616671865
 30
0.0
 11
121.3218089133405
 21
39.90477616671866
 31
0.0
  0
LINE
  5
183
330
2
100
AcDbEntity
  8
AM_VIS
100
AcDbLine
 10
121.3218089133405
 20
39.90477616671866
 30
0.0
 11
121.3218089133405
 21
40.15477616671865
 31
0.0
  0
LINE
  5
184
330
2
100
AcDbEntity
  8
AM_VIS
100
AcDbLine
 10
121.4448089133405
 20
39.95449447584186
 30
0.0
 11
121.4448089133405
 21
39.85505785759547
 31
0.0
  0
LINE
  5
185
330
2
100
AcDbEntity
  8
AM_VIS
100
AcDbLine
 10
121.3218089133405
 20
40.15477616671865
 30
0.0
 11
121.0698089133405
 21
40.15477616671865
 31
0.0
  0
LINE
  5
187
330
2
100
AcDbEntity
  8
AM_VIS
100
AcDbLine
 10
121.3218089133405
 20
39.65477616671865
 30
0.0
 11
121.0698089133405
 21
39.65477616671865
 31
0.0
  0
ARC
  5
189
330
2
100
AcDbEntity
  8
AM_VIS
100
AcDbCircle
 10
121.1611233403301
 20
39.89136895322389
 30
0.0
 40
0.286
100
AcDbArc
 50
304.1829802260995
 51
352.7059343887842
  0
ARC
  5
18A
330
2
100
AcDbEntity
  8
AM_VIS
100
AcDbCircle
 10
121.1611233403301
 20
39.91818338021345
 30
0.0
 40
0.286
100
AcDbArc
 50
7.294065611215763
 51
55.8170197739009
  0
LINE
  5
18F
330
2
100
AcDbEntity
  8
AM_VIS
100
AcDbLine
 10
125.6948089133405
 20
98.92857616671866
 30
0.0
 11
125.6948089133405
 21
99.17857616671872
 31
0.0
  0
LINE
  5
190
330
2
100
AcDbEntity
  8
AM_VIS
100
AcDbLine
 10
125.6948089133405
 20
98.92857616671866
 30
0.0
 11
21.19480891334052
 21
98.92857616671866
 31
0.0
  0
LINE
  5
191
330
2
100
AcDbEntity
  8
AM_VIS
100
AcDbLine
 10
21.1948089133405
 20
99.17857616671872
 30
0.0
 11
21.1948089133405
 21
98.92857616671866
 31
0.0
  0
LINE
  5
192
330
2
100
AcDbEntity
  8
AM_VIS
100
AcDbLine
 10
125.6948089133405
 20
99.17857616671872
 30
0.0
 11
21.19480891334052
 21
99.17857616671872
 31
0.0
  0
LINE
  5
193
330
2
100
AcDbEntity
  8
AM_VIS
100
AcDbLine
 10
125.6948089133405
 20
99.22857616671866
 30
0.0
 11
125.6948089133405
 21
99.47857616671866
 31
0.0
  0
LINE
  5
194
330
2
100
AcDbEntity
  8
AM_VIS
100
AcDbLine
 10
125.6948089133405
 20
99.22857616671866
 30
0.0
 11
21.19480891334052
 21
99.22857616671866
 31
0.0
  0
LINE
  5
195
330
2
100
AcDbEntity
  8
AM_VIS
100
AcDbLine
 10
21.1948089133405
 20
99.47857616671866
 30
0.0
 11
21.1948089133405
 21
99.22857616671866
 31
0.0
  0
LINE
  5
196
330
2
100
AcDbEntity
  8
AM_VIS
100
AcDbLine
 10
125.6948089133405
 20
99.47857616671866
 30
0.0
 11
21.19480891334052
 21
99.47857616671866
 31
0.0
  0
LINE
  5
197
330
2
100
AcDbEntity
  8
AM_VIS
100
AcDbLine
 10
125.6948089133405
 20
95.68357616671866
 30
0.0
 11
125.6948089133405
 21
96.22357616671866
 31
0.0
  0
LINE
  5
198
330
2
100
AcDbEntity
  8
AM_VIS
100
AcDbLine
 10
125.6948089133405
 20
95.68357616671866
 30
0.0
 11
21.19480891334052
 21
95.68357616671866
 31
0.0
  0
LINE
  5
199
330
2
100
AcDbEntity
  8
AM_VIS
100
AcDbLine
 10
21.1948089133405
 20
96.22357616671866
 30
0.0
 11
21.1948089133405
 21
95.68357616671866
 31
0.0
  0
LINE
  5
19A
330
2
100
AcDbEntity
  8
AM_VIS
100
AcDbLine
 10
125.6948089133405
 20
96.22357616671866
 30
0.0
 11
125.6948089133405
 21
96.72357648592123
 31
0.0
  0
LINE
  5
19B
330
2
100
AcDbEntity
  8
AM_VIS
100
AcDbLine
 10
125.6948089133405
 20
96.22357616671866
 30
0.0
 11
21.19480891334052
 21
96.22357616671866
 31
0.0
  0
LINE
  5
19C
330
2
100
AcDbEntity
  8
AM_VIS
100
AcDbLine
 10
21.1948089133405
 20
96.72357648592123
 30
0.0
 11
21.1948089133405
 21
96.22357616671866
 31
0.0
  0
LINE
  5
19D
330
2
100
AcDbEntity
  8
AM_VIS
100
AcDbLine
 10
125.6948089133405
 20
96.72357648592123
 30
0.0
 11
21.19480891334052
 21
96.72357648592123
 31
0.0
  0
LINE
  5
19E
330
2
100
AcDbEntity
  8
AM_VIS
100
AcDbLine
 10
21.1948089133405
 20
98.87857616671864
 30
0.0
 11
125.6948089133405
 21
98.87857616671864
 31
0.0
  0
LINE
  5
19F
330
2
100
AcDbEntity
  8
AM_VIS
100
AcDbLine
 10
125.6948089133405
 20
98.22357616671864
 30
0.0
 11
125.6948089133405
 21
98.87857616671864
 31
0.0
  0
LINE
  5
1A0
330
2
100
AcDbEntity
  8
AM_VIS
100
AcDbLine
 10
125.6948089133405
 20
98.22357616671864
 30
0.0
 11
21.19480891334052
 21
98.22357616671864
 31
0.0
  0
LINE
  5
1A1
330
2
100
AcDbEntity
  8
AM_VIS
100
AcDbLine
 10
21.1948089133405
 20
98.87857616671864
 30
0.0
 11
21.1948089133405
 21
98.22357616671864
 31
0.0
  0
LINE
  5
1A2
330
2
100
AcDbEntity
  8
AM_VIS
100
AcDbLine
 10
125.6948089133405
 20
95.64357616671866
 30
0.0
 11
121.0698089133405
 21
95.64357616671866
 31
0.0
  0
LINE
  5
1A3
330
2
100
AcDbEntity
  8
AM_VIS
100
AcDbLine
 10
25.06980891334051
 20
95.64357616671866
 30
0.0
 11
21.19480891334051
 21
95.64357616671866
 31
0.0
  0
LINE
  5
1A4
330
2
100
AcDbEntity
  8
AM_VIS
100
AcDbLine
 10
125.6948089133405
 20
99.49257616671864
 30
0.0
 11
21.19480891334052
 21
99.49257616671864
 31
0.0
  0
LINE
  5
1A5
330
2
100
AcDbEntity
  8
AM_VIS
100
AcDbLine
 10
125.6948089133405
 20
99.55757616671869
 30
0.0
 11
125.6948089133405
 21
100.0335761667186
 31
0.0
  0
LINE
  5
1A6
330
2
100
AcDbEntity
  8
AM_VIS
100
AcDbLine
 10
125.6948089133405
 20
99.55757616671869
 30
0.0
 11
21.19480891334052
 21
99.55757616671869
 31
0.0
  0
LINE
  5
1A7
330
2
100
AcDbEntity
  8
AM_VIS
100
AcDbLine
 10
21.1948089133405
 20
100.0335761667186
 30
0.0
 11
21.1948089133405
 21
99.55757616671869
 31
0.0
  0
LINE
  5
1A8
330
2
100
AcDbEntity
  8
AM_VIS
100
AcDbLine
 10
125.6948089133405
 20
100.0335761667186
 30
0.0
 11
21.19480891334052
 21
100.0335761667186
 31
0.0
  0
LINE
  5
1A9
330
2
100
AcDbEntity
  8
AM_VIS
100
AcDbLine
 10
125.6948089133405
 20
100.2835761667186
 30
0.0
 11
21.19480891334052
 21
100.2835761667186
 31
0.0
  0
LINE
  5
1AA
330
2
100
AcDbEntity
  8
AM_VIS
100
AcDbLine
 10
125.8991070372343
 20
96.74144993653866
 30
0.0
 11
125.6948089133405
 21
96.72357616671831
 31
0.0
  0
ARC
  5
1AB
330
2
100
AcDbEntity
  8
AM_VIS
100
AcDbCircle
 10
125.8828089133405
 20
96.92773869243865
 30
0.0
 40
0.187
100
AcDbArc
 50
274.9999907241821
 51
359.9998935717102
  0
LINE
  5
1AC
330
2
100
AcDbEntity
  8
AM_VIS
100
AcDbLine
 10
125.9017597331111
 20
98.23574469857634
 30
0.0
 11
125.9032890636834
 21
96.74145421663077
 31
0.0
  0
LINE
  5
1AD
330
2
100
AcDbEntity
  8
AM_VIS
100
AcDbLine
 10
125.8991070372343
 20
98.23574198367822
 30
0.0
 11
126.0698089133405
 21
98.23574198367822
 31
0.0
  0
LINE
  5
1AE
330
2
100
AcDbEntity
  8
AM_VIS
100
AcDbLine
 10
125.8991070372343
 20
98.23574198367657
 30
0.0
 11
125.8991070372349
 21
100.0166537222866
 31
0.0
  0
LINE
  5
1AF
330
2
100
AcDbEntity
  8
AM_VIS
100
AcDbLine
 10
125.8991070372343
 20
98.23574198367657
 30
0.0
 11
125.6948089133405
 21
98.21786821385623
 31
0.0
  0
LINE
  5
1B0
330
2
100
AcDbEntity
  8
AM_VIS
100
AcDbLine
 10
125.899107037235
 20
100.0166537222866
 30
0.0
 11
125.6948089133405
 21
100.034527492196
 31
0.0
  0
ARC
  5
1B1
330
2
100
AcDbEntity
  8
AM_VIS
100
AcDbCircle
 10
124.9349435246019
 20
100.14117805959
 30
0.0
 40
0.9721715844817847
100
AcDbArc
 50
352.6408319827385
 51
7.359168017574795
  0
LINE
  5
1B2
330
2
100
AcDbEntity
  8
AM_VIS
100
AcDbLine
 10
125.8991070372343
 20
95.66144993653866
 30
0.0
 11
125.6948089133405
 21
95.64357616671831
 31
0.0
  0
LINE
  5
1B3
330
2
100
AcDbEntity
  8
AM_VIS
100
AcDbLine
 10
125.6948089133405
 20
95.67346200766165
 30
0.0
 11
125.6948089133405
 21
95.64357616671866
 31
0.0
  0
LINE
  5
1B4
330
2
100
AcDbEntity
  8
AM_VIS
100
AcDbLine
 10
125.6948089133405
 20
100.2835761667186
 30
0.0
 11
125.6948089133405
 21
100.0345274921956
 31
0.0
  0
LINE
  5
1B5
330
2
100
AcDbEntity
  8
AM_VIS
100
AcDbLine
 10
125.6948089133405
 20
98.21786821385629
 30
0.0
 11
125.6948089133405
 21
100.0345274921956
 31
0.0
  0
LINE
  5
1B6
330
2
100
AcDbEntity
  8
AM_VIS
100
AcDbLine
 10
125.6948089133405
 20
98.21786821385629
 30
0.0
 11
125.6948089133405
 21
96.72357616671868
 31
0.0
  0
LINE
  5
1B7
330
2
100
AcDbEntity
  8
AM_VIS
100
AcDbLine
 10
125.6948089133405
 20
95.67346200766165
 30
0.0
 11
125.6948089133405
 21
96.22357616671866
 31
0.0
  0
LINE
  5
1B8
330
2
100
AcDbEntity
  8
AM_VIS
100
AcDbLine
 10
125.8991070372343
 20
95.69133577748166
 30
0.0
 11
125.6948089133405
 21
95.67346200766134
 31
0.0
  0
LINE
  5
1B9
330
2
100
AcDbEntity
  8
AM_VIS
100
AcDbLine
 10
125.6948089133405
 20
96.22547881767266
 30
0.0
 11
125.8991070372343
 21
96.24335258747194
 31
0.0
  0
LINE
  5
1BA
330
2
100
AcDbEntity
  8
AM_VIS
100
AcDbLine
 10
125.9017062517901
 20
96.24334513297547
 30
0.0
 11
125.9031350057753
 21
96.74151939845705
 31
0.0
  0
SPLINE
  5
1BB
330
2
100
AcDbEntity
  8
AM_VIS
100
AcDbSpline
210
0.0
220
0.0
230
1.0
 70
     8
 71
     3
 72
    19
 73
    15
 74
     0
 42
0.0000000001
 43
0.0000000001
 40
0.0000088257670189
 40
0.0000088257670189
 40
0.0000088257670189
 40
0.0000088257670189
 40
0.08333333333333
 40
0.1666666666667
 40
0.25
 40
0.3333333333333001
 40
0.4166666666667001
 40
0.5
 40
0.5833333333333001
 40
0.6666666666667003
 40
0.75
 40
0.8333333333332999
 40
0.9166666666667
 40
0.9999848446619449
 40
0.9999848446619449
 40
0.9999848446619449
 40
0.9999848446619449
 10
126.0698089133333
 20
96.83308112799736
 30
0.0
 10
126.069808867675
 20
96.82685731664358
 30
0.0
 10
126.0693776990611
 20
96.81447616733841
 30
0.0
 10
126.0678541654099
 20
96.79641298526563
 30
0.0
 10
126.0659091268907
 20
96.77918077882566
 30
0.0
 10
126.0639833044319
 20
96.76294592362966
 30
0.0
 10
126.0624968321784
 20
96.74804377528566
 30
0.0
 10
126.061763619236
 20
96.73465606571966
 30
0.0
 10
126.0619518890695
 20
96.72317689760266
 30
0.0
 10
126.0630011707738
 20
96.71376332291666
 30
0.0
 10
126.0647429017242
 20
96.70634335178164
 30
0.0
 10
126.0668946487531
 20
96.70112643230069
 30
0.0
 10
126.0689968634206
 20
96.69854874739288
 30
0.0
 10
126.0698087656761
 20
96.69925590608617
 30
0.0
 10
126.0698089133001
 20
96.70044804117253
 30
0.0
  0
LINE
  5
1BC
330
2
100
AcDbEntity
  8
AM_HID
100
AcDbLine
 10
126.0698089133203
 20
96.70044869179372
 30
0.0
 11
126.0698089133203
 21
96.70044804117253
 31
0.0
  0
LINE
  5
1BD
330
2
100
AcDbEntity
  8
AM_HID
100
AcDbLine
 10
125.9448089133405
 20
100.0732224895205
 30
0.0
 11
125.9448089133405
 21
100.0438875897248
 31
0.0
  0
ARC
  5
1BE
330
2
100
AcDbEntity
  8
AM_VIS
100
AcDbCircle
 10
125.8828089133405
 20
100.0794139883556
 30
0.0
 40
0.187
100
AcDbArc
 50
0.0
 51
84.99999999999797
  0
LINE
  5
1BF
330
2
100
AcDbEntity
  8
AM_VIS
100
AcDbLine
 10
125.8991070372343
 20
100.2657023968986
 30
0.0
 11
125.6948089133405
 21
100.2835761667189
 31
0.0
  0
ARC
  5
1C0
330
2
100
AcDbEntity
  8
AM_VIS
100
AcDbCircle
 10
126.0398086005237
 20
95.70387432339364
 30
0.0
 40
0.03
100
AcDbArc
 50
275.0005997180795
 51
0.0000522684858639
  0
LINE
  5
1C1
330
2
100
AcDbEntity
  8
AM_VIS
100
AcDbLine
 10
126.0052867700983
 20
95.6707394594604
 30
0.0
 11
126.034865244201
 21
95.67332724062898
 31
0.0
  0
LINE
  5
1C2
330
2
100
AcDbEntity
  8
AM_VIS
100
AcDbLine
 10
125.9531556864738
 20
95.66617858062626
 30
0.0
 11
125.981239385001
 21
95.66863558587746
 31
0.0
  0
LINE
  5
1C3
330
2
100
AcDbEntity
  8
AM_VIS
100
AcDbLine
 10
125.8991070372343
 20
95.66144993653882
 30
0.0
 11
125.9244754124024
 21
95.66366938177809
 31
0.0
  0
ELLIPSE
  5
1C4
330
2
100
AcDbEntity
  8
AM_VIS
100
AcDbEllipse
 10
125.8964923649458
 20
95.69133577748166
 30
0.0
 11
-0.0026146722824297
 21
0.0298858409427524
 31
0.0
210
0.0
220
0.0
230
1.0
 40
0.0868265938642484
 41
3.141592653587299
 42
4.704792783820531
  0
LINE
  5
1C5
330
2
100
AcDbEntity
  8
AM_VIS
100
AcDbLine
 10
125.8991070378317
 20
95.69133576934831
 30
0.0
 11
126.0698089148343
 21
95.70387433042469
 31
0.0
  0
LINE
  5
1C6
330
2
100
AcDbEntity
  8
AM_VIS
100
AcDbLine
 10
125.8991070372343
 20
95.69133577748166
 30
0.0
 11
125.8991070372343
 21
96.24335258747166
 31
0.0
  0
LINE
  5
1C7
330
2
100
AcDbEntity
  8
AM_VIS
100
AcDbLine
 10
125.8991071196901
 20
96.24335255930537
 30
0.0
 11
126.0698085595109
 21
96.24335258809368
 31
0.0
  0
LINE
  5
1C8
330
2
100
AcDbEntity
  8
AM_VIS
100
AcDbLine
 10
126.0698089133405
 20
95.70387435076163
 30
0.0
 11
126.0698089133405
 21
96.24335258809365
 31
0.0
  0
LINE
  5
1C9
330
2
100
AcDbEntity
  8
AM_VIS
100
AcDbLine
 10
126.0698090029624
 20
96.43936672692007
 30
0.0
 11
126.0698090029624
 21
96.34190574038994
 31
0.0
  0
LINE
  5
1CA
330
2
100
AcDbEntity
  8
AM_VIS
100
AcDbLine
 10
126.0698088495011
 20
96.620635425563
 30
0.0
 11
126.0698088495011
 21
96.53399511447451
 31
0.0
  0
LINE
  5
1CB
330
2
100
AcDbEntity
  8
AM_VIS
100
AcDbLine
 10
126.0698088811537
 20
96.90212243186095
 30
0.0
 11
126.0698088811537
 21
96.87448631844087
 31
0.0
  0
LINE
  5
1CC
330
2
100
AcDbEntity
  8
AM_HID
100
AcDbLine
 10
126.06980892971
 20
96.90992309860192
 30
0.0
 11
126.06980892971
 21
96.90212243186095
 31
0.0
  0
LINE
  5
1CD
330
2
100
AcDbEntity
  8
AM_VIS
100
AcDbLine
 10
126.0698088480837
 20
96.92622567534616
 30
0.0
 11
126.0698088480837
 21
96.90992309860192
 31
0.0
  0
LINE
  5
1CE
330
2
100
AcDbEntity
  8
AM_HID
100
AcDbLine
 10
126.0698087577604
 20
96.92773834508166
 30
0.0
 11
126.0698087577604
 21
96.9262256753462
 31
0.0
  0
LINE
  5
1CF
330
2
100
AcDbEntity
  8
AM_VIS
100
AcDbLine
 10
126.0698089133405
 20
97.8664431833687
 30
0.0
 11
126.0698089133405
 21
96.9806479042522
 31
0.0
  0
LINE
  5
1D0
330
2
100
AcDbEntity
  8
AM_VIS
100
AcDbLine
 10
126.0698089133405
 20
98.23574198367657
 30
0.0
 11
126.0698089133405
 21
98.04914755547862
 31
0.0
  0
LINE
  5
1D1
330
2
100
AcDbEntity
  8
AM_VIS
100
AcDbLine
 10
126.0698089133405
 20
98.23574198367657
 30
0.0
 11
126.0698089133405
 21
100.0166537223756
 31
0.0
  0
LINE
  5
1D2
330
2
100
AcDbEntity
  8
AM_VIS
100
AcDbLine
 10
126.0698089133405
 20
100.0306060943017
 30
0.0
 11
126.0698089133405
 21
100.0166537223756
 31
0.0
  0
LINE
  5
1D3
330
2
100
AcDbEntity
  8
AM_HID
100
AcDbLine
 10
126.0698089133405
 20
100.0438941295154
 30
0.0
 11
126.0698089133405
 21
100.0306060943017
 31
0.0
  0
LINE
  5
1D4
330
2
100
AcDbEntity
  8
AM_VIS
100
AcDbLine
 10
126.0698089133405
 20
100.0558064381221
 30
0.0
 11
126.0698089133405
 21
100.0438941295154
 31
0.0
  0
LINE
  5
1D5
330
2
100
AcDbEntity
  8
AM_HID
100
AcDbLine
 10
126.0698089133405
 20
100.0657431161328
 30
0.0
 11
126.0698089133405
 21
100.0558064381221
 31
0.0
  0
LINE
  5
1D6
330
2
100
AcDbEntity
  8
AM_VIS
100
AcDbLine
 10
126.0698089133405
 20
100.0732173747645
 30
0.0
 11
126.0698089133405
 21
100.0657431161328
 31
0.0
  0
LINE
  5
1D7
330
2
100
AcDbEntity
  8
AM_VIS
100
AcDbLine
 10
126.0698089133405
 20
100.0794139883556
 30
0.0
 11
126.0698089133405
 21
100.0778503749883
 31
0.0
  0
LINE
  5
1D8
330
2
100
AcDbEntity
  8
AM_VIS
100
AcDbLine
 10
126.0698089133405
 20
98.04914755547862
 30
0.0
 11
126.0698089133405
 21
97.8664431833687
 31
0.0
  0
LINE
  5
1D9
330
2
100
AcDbEntity
  8
AM_VIS
100
AcDbLine
 10
126.0698089133403
 20
96.98064790425215
 30
0.0
 11
126.0698089133403
 21
96.92773834508166
 31
0.0
  0
LINE
  5
1DA
330
2
100
AcDbEntity
  8
AM_VIS
100
AcDbLine
 10
126.0698089133404
 20
100.0778503749883
 30
0.0
 11
126.0698089133404
 21
100.0732173747645
 31
0.0
  0
LINE
  5
1DB
330
2
100
AcDbEntity
  8
AM_VIS
100
AcDbLine
 10
126.0698089133404
 20
100.0657431161328
 30
0.0
 11
126.0698089133404
 21
100.0558064381221
 31
0.0
  0
LINE
  5
1DC
330
2
100
AcDbEntity
  8
AM_VIS
100
AcDbLine
 10
126.0698089133405
 20
100.0438941295154
 30
0.0
 11
126.0698089133405
 21
100.0306060943017
 31
0.0
  0
LINE
  5
1DD
330
2
100
AcDbEntity
  8
AM_HID
100
AcDbLine
 10
125.9448089133405
 20
98.05113726701264
 30
0.0
 11
125.9448089133405
 21
97.86867961447796
 31
0.0
  0
LINE
  5
1DE
330
2
100
AcDbEntity
  8
AM_HID
100
AcDbLine
 10
125.9448089133405
 20
100.0778543699744
 30
0.0
 11
125.9448089133405
 21
100.0732224895205
 31
0.0
  0
LINE
  5
1DF
330
2
100
AcDbEntity
  8
AM_VIS
100
AcDbLine
 10
126.0698089345153
 20
96.70044804117218
 30
0.0
 11
126.0698089345153
 21
96.62063542556204
 31
0.0
  0
LINE
  5
1E0
330
2
100
AcDbEntity
  8
AM_VIS
100
AcDbLine
 10
126.0698089417127
 20
96.5339951144743
 30
0.0
 11
126.0698089417127
 21
96.43936672692042
 31
0.0
  0
LINE
  5
1E1
330
2
100
AcDbEntity
  8
AM_VIS
100
AcDbLine
 10
126.069808701229
 20
96.34190574039021
 30
0.0
 11
126.069808701229
 21
96.24335258809269
 31
0.0
  0
ARC
  5
1E2
330
2
100
AcDbEntity
  8
AM_HID
100
AcDbCircle
 10
125.8822957884741
 20
96.92776828064603
 30
0.0
 40
0.1875129584560314
100
AcDbArc
 50
353.1232070178203
 51
359.9421460065804
  0
LINE
  5
1E3
330
2
100
AcDbEntity
  8
AM_VIS
100
AcDbLine
 10
126.0698086310814
 20
96.9275789408428
 30
0.0
 11
126.0698086310814
 21
96.92622567534453
 31
0.0
  0
LINE
  5
1E4
330
2
100
AcDbEntity
  8
AM_VIS
100
AcDbLine
 10
126.0698089962946
 20
96.90992309860185
 30
0.0
 11
126.0698089962946
 21
96.90212243185991
 31
0.0
  0
LINE
  5
1E5
330
2
100
AcDbEntity
  8
AM_VIS
100
AcDbLine
 10
126.0698089111997
 20
96.87448631844087
 30
0.0
 11
126.0698089111997
 21
96.83308112799736
 31
0.0
  0
LINE
  5
1E6
330
2
100
AcDbEntity
  8
AM_VIS
100
AcDbLine
 10
125.9244754124023
 20
95.66366938177834
 30
0.0
 11
125.9531556864738
 21
95.66617858062622
 31
0.0
  0
LINE
  5
1E7
330
2
100
AcDbEntity
  8
AM_VIS
100
AcDbLine
 10
125.981239385003
 20
95.66863558587751
 30
0.0
 11
126.0052867700982
 21
95.67073945946088
 31
0.0
  0
LINE
  5
1E8
330
2
100
AcDbEntity
  8
AM_HID
100
AcDbLine
 10
21.25680891334049
 20
96.12857616671863
 30
0.0
 11
21.25680891334049
 21
96.26857616671863
 31
0.0
  0
ARC
  5
1E9
330
2
100
AcDbEntity
  8
AM_VIS
100
AcDbCircle
 10
21.95467362127267
 20
100.141178059585
 30
0.0
 40
0.9721709092839931
100
AcDbArc
 50
172.6408268427025
 51
187.3591731569247
  0
LINE
  5
1EA
330
2
100
AcDbEntity
  8
AM_VIS
100
AcDbLine
 10
20.99051078944672
 20
100.2657023968986
 30
0.0
 11
21.19480891334047
 21
100.2835761667189
 31
0.0
  0
LINE
  5
1EB
330
2
100
AcDbEntity
  8
AM_VIS
100
AcDbLine
 10
20.9905107894459
 20
100.0166537222776
 30
0.0
 11
21.19480891334044
 21
100.034527492196
 31
0.0
  0
LINE
  5
1EC
330
2
100
AcDbEntity
  8
AM_VIS
100
AcDbLine
 10
20.99051078944672
 20
98.23574198367657
 30
0.0
 11
21.19480891334048
 21
98.21786821385623
 31
0.0
  0
LINE
  5
1ED
330
2
100
AcDbEntity
  8
AM_VIS
100
AcDbLine
 10
20.99051078944672
 20
98.23574198367657
 30
0.0
 11
20.99051078944594
 21
100.0166537222776
 31
0.0
  0
LINE
  5
1EE
330
2
100
AcDbEntity
  8
AM_VIS
100
AcDbLine
 10
20.99051078944669
 20
98.23574198367836
 30
0.0
 11
20.81980891334051
 21
98.23574198367836
 31
0.0
  0
LINE
  5
1EF
330
2
100
AcDbEntity
  8
AM_VIS
100
AcDbLine
 10
20.98632878239478
 20
96.7414542165757
 30
0.0
 11
20.98785810038205
 21
98.23574469854705
 31
0.0
  0
ARC
  5
1F0
330
2
100
AcDbEntity
  8
AM_VIS
100
AcDbCircle
 10
21.0068089133405
 20
96.92773872060866
 30
0.0
 40
0.187
100
AcDbArc
 50
180.0001150594228
 51
265.0000100280695
  0
LINE
  5
1F1
330
2
100
AcDbEntity
  8
AM_VIS
100
AcDbLine
 10
20.9905107894467
 20
96.74144993653866
 30
0.0
 11
21.19480891334048
 21
96.72357616671831
 31
0.0
  0
LINE
  5
1F2
330
2
100
AcDbEntity
  8
AM_VIS
100
AcDbLine
 10
21.1948089133405
 20
96.22547881767266
 30
0.0
 11
20.99051078944672
 21
96.2433525874699
 31
0.0
  0
LINE
  5
1F3
330
2
100
AcDbEntity
  8
AM_VIS
100
AcDbLine
 10
21.1948089133405
 20
95.67346200766165
 30
0.0
 11
21.1948089133405
 21
96.22357616671866
 31
0.0
  0
LINE
  5
1F4
330
2
100
AcDbEntity
  8
AM_VIS
100
AcDbLine
 10
21.1948089133405
 20
98.21786821385629
 30
0.0
 11
21.1948089133405
 21
96.72357616671868
 31
0.0
  0
LINE
  5
1F5
330
2
100
AcDbEntity
  8
AM_VIS
100
AcDbLine
 10
21.1948089133405
 20
98.21786821385629
 30
0.0
 11
21.1948089133405
 21
100.0345274921956
 31
0.0
  0
LINE
  5
1F6
330
2
100
AcDbEntity
  8
AM_VIS
100
AcDbLine
 10
21.1948089133405
 20
100.2835761667186
 30
0.0
 11
21.1948089133405
 21
100.0345274921956
 31
0.0
  0
LINE
  5
1F7
330
2
100
AcDbEntity
  8
AM_VIS
100
AcDbLine
 10
20.9905107894467
 20
95.66144993653866
 30
0.0
 11
21.19480891334047
 21
95.64357616671831
 31
0.0
  0
LINE
  5
1F8
330
2
100
AcDbEntity
  8
AM_VIS
100
AcDbLine
 10
20.9905107894467
 20
95.69133577748166
 30
0.0
 11
21.19480891334047
 21
95.67346200766134
 31
0.0
  0
LINE
  5
1F9
330
2
100
AcDbEntity
  8
AM_VIS
100
AcDbLine
 10
21.1948089133405
 20
95.67346200766165
 30
0.0
 11
21.1948089133405
 21
95.64357616671866
 31
0.0
  0
ELLIPSE
  5
1FA
330
2
100
AcDbEntity
  8
AM_VIS
100
AcDbEllipse
 10
20.9931254617312
 20
95.69133577748166
 30
0.0
 11
0.0026146722824297
 21
0.0298858409427524
 31
0.0
210
0.0
220
0.0
230
1.0
 40
0.0868265938642452
 41
1.578392523347408
 42
3.141592653590542
  0
LINE
  5
1FB
330
2
100
AcDbEntity
  8
AM_VIS
100
AcDbLine
 10
20.85299857741235
 20
95.67348069618832
 30
0.0
 11
20.86183692290548
 21
95.67270744115331
 31
0.0
  0
LINE
  5
1FC
330
2
100
AcDbEntity
  8
AM_HID
100
AcDbLine
 10
20.86183692290547
 20
95.67270744115331
 30
0.0
 11
20.8755865581159
 21
95.67150450394462
 31
0.0
  0
LINE
  5
1FD
330
2
100
AcDbEntity
  8
AM_VIS
100
AcDbLine
 10
20.8755865581159
 20
95.67150450394462
 30
0.0
 11
20.89435202917567
 21
95.6698627379613
 31
0.0
  0
LINE
  5
1FE
330
2
100
AcDbEntity
  8
AM_VIS
100
AcDbLine
 10
20.91742384868652
 20
95.66784421530732
 30
0.0
 11
20.94285200469769
 21
95.66561953992176
 31
0.0
  0
LINE
  5
1FF
330
2
100
AcDbEntity
  8
AM_VIS
100
AcDbLine
 10
20.96811463621889
 20
95.66340934605326
 30
0.0
 11
20.9905107894467
 21
95.66144993653876
 31
0.0
  0
ARC
  5
200
330
2
100
AcDbEntity
  8
AM_VIS
100
AcDbCircle
 10
20.8498091229696
 20
95.70387433242165
 30
0.0
 40
0.03
100
AcDbArc
 50
179.9999649734249
 51
264.9995981087202
  0
ARC
  5
201
330
2
100
AcDbEntity
  8
AM_VIS
100
AcDbCircle
 10
21.0068089133405
 20
100.0794139883556
 30
0.0
 40
0.187
100
AcDbArc
 50
95.000000000002
 51
180.0
  0
LINE
  5
202
330
2
100
AcDbEntity
  8
AM_HID
100
AcDbLine
 10
21.00140525729006
 20
98.23574198367866
 30
0.0
 11
20.99051078944672
 21
98.23574198367866
 31
0.0
  0
ARC
  5
203
330
2
100
AcDbEntity
  8
AM_HID
100
AcDbCircle
 10
21.0068089133405
 20
100.0794124883646
 30
0.0
 40
0.062
100
AcDbArc
 50
94.99987918946027
 51
179.9986138200629
  0
LINE
  5
204
330
2
100
AcDbEntity
  8
AM_HID
100
AcDbLine
 10
20.9448089133405
 20
100.0732233345979
 30
0.0
 11
20.9448089133405
 21
100.0438873492492
 31
0.0
  0
SPLINE
  5
205
330
2
100
AcDbEntity
  8
AM_VIS
100
AcDbSpline
210
0.0
220
0.0
230
1.0
 70
     8
 71
     3
 72
    19
 73
    15
 74
     0
 42
0.0000000001
 43
0.0000000001
 40
0.0000116920216358
 40
0.0000116920216358
 40
0.0000116920216358
 40
0.0000116920216358
 40
0.08333333333333
 40
0.1666666666667
 40
0.25
 40
0.3333333333333001
 40
0.4166666666667001
 40
0.5
 40
0.5833333333333001
 40
0.6666666666667003
 40
0.75
 40
0.8333333333332999
 40
0.9166666666667
 40
1.0
 40
1.0
 40
1.0
 40
1.0
 10
20.81980891335321
 20
96.83308113873072
 30
0.0
 10
20.81980897377206
 20
96.82685982739343
 30
0.0
 10
20.82023969192583
 20
96.81448568609562
 30
0.0
 10
20.8217619691704
 20
96.79643034974965
 30
0.0
 10
20.82370560538951
 20
96.77920688742467
 30
0.0
 10
20.82563100697411
 20
96.76297640624769
 30
0.0
 10
20.82711795737471
 20
96.74808016287563
 30
0.0
 10
20.82785324590539
 20
96.73469177538564
 30
0.0
 10
20.8276680466527
 20
96.72321498953863
 30
0.0
 10
20.82662227066741
 20
96.71379634990266
 30
0.0
 10
20.8248821978391
 20
96.70636559369969
 30
0.0
 10
20.8227289806228
 20
96.70113599606864
 30
0.0
 10
20.82062344087569
 20
96.69854869651066
 30
0.0
 10
20.8198090091553
 20
96.69925406818265
 30
0.0
 10
20.8198090091553
 20
96.70044869127865
 30
0.0
  0
LINE
  5
206
330
2
100
AcDbEntity
  8
AM_VIS
100
AcDbLine
 10
20.9864827514237
 20
96.74151937737669
 30
0.0
 11
20.98791151317752
 21
96.24334513275563
 31
0.0
  0
LINE
  5
207
330
2
100
AcDbEntity
  8
AM_VIS
100
AcDbLine
 10
20.99051070011814
 20
96.24335255696891
 30
0.0
 11
20.8198092966616
 21
96.24335258814266
 31
0.0
  0
LINE
  5
208
330
2
100
AcDbEntity
  8
AM_VIS
100
AcDbLine
 10
20.9905107894467
 20
95.69133577748166
 30
0.0
 11
20.9905107894467
 21
96.24335258746969
 31
0.0
  0
LINE
  5
209
330
2
100
AcDbEntity
  8
AM_VIS
100
AcDbLine
 10
20.8198089121801
 20
95.7038743349639
 30
0.0
 11
20.99051078905298
 21
95.69133577212156
 31
0.0
  0
LINE
  5
20A
330
2
100
AcDbEntity
  8
AM_VIS
100
AcDbLine
 10
20.81980891334051
 20
95.70387435076163
 30
0.0
 11
20.81980891334051
 21
96.24335258814266
 31
0.0
  0
LINE
  5
20B
330
2
100
AcDbEntity
  8
AM_VIS
100
AcDbLine
 10
20.81980891334051
 20
100.0306044806564
 30
0.0
 11
20.81980891334051
 21
100.0166537223756
 31
0.0
  0
LINE
  5
20C
330
2
100
AcDbEntity
  8
AM_HID
100
AcDbLine
 10
20.81980891334051
 20
100.0438929717573
 30
0.0
 11
20.81980891334051
 21
100.0306044806564
 31
0.0
  0
LINE
  5
20D
330
2
100
AcDbEntity
  8
AM_VIS
100
AcDbLine
 10
20.81980891334051
 20
100.0558059111708
 30
0.0
 11
20.81980891334051
 21
100.0438929717573
 31
0.0
  0
LINE
  5
20E
330
2
100
AcDbEntity
  8
AM_HID
100
AcDbLine
 10
20.81980891334051
 20
100.0657431864726
 30
0.0
 11
20.81980891334051
 21
100.0558059111708
 31
0.0
  0
LINE
  5
20F
330
2
100
AcDbEntity
  8
AM_VIS
100
AcDbLine
 10
20.81980891334051
 20
100.0732178299761
 30
0.0
 11
20.81980891334051
 21
100.0657431864726
 31
0.0
  0
LINE
  5
210
330
2
100
AcDbEntity
  8
AM_VIS
100
AcDbLine
 10
20.81980891334051
 20
100.0794139883556
 30
0.0
 11
20.81980891334051
 21
100.0778507516582
 31
0.0
  0
LINE
  5
211
330
2
100
AcDbEntity
  8
AM_VIS
100
AcDbLine
 10
20.81980891334051
 20
98.23574198367657
 30
0.0
 11
20.81980891334051
 21
100.0166537223756
 31
0.0
  0
LINE
  5
212
330
2
100
AcDbEntity
  8
AM_VIS
100
AcDbLine
 10
20.81980891334051
 20
97.86644948801395
 30
0.0
 11
20.81980891334051
 21
96.98064582800848
 31
0.0
  0
LINE
  5
213
330
2
100
AcDbEntity
  8
AM_VIS
100
AcDbLine
 10
20.81980891334051
 20
98.23574198367657
 30
0.0
 11
20.81980891334051
 21
98.04915440622997
 31
0.0
  0
LINE
  5
214
330
2
100
AcDbEntity
  8
AM_VIS
100
AcDbLine
 10
20.81980894599605
 20
96.90193858691571
 30
0.0
 11
20.81980894599605
 21
96.87449488450235
 31
0.0
  0
LINE
  5
215
330
2
100
AcDbEntity
  8
AM_HID
100
AcDbLine
 10
20.81980889642412
 20
96.91006122962466
 30
0.0
 11
20.81980889642412
 21
96.90193858691571
 31
0.0
  0
LINE
  5
216
330
2
100
AcDbEntity
  8
AM_VIS
100
AcDbLine
 10
20.81980898681207
 20
96.92646088774621
 30
0.0
 11
20.81980898681207
 21
96.91006122962466
 31
0.0
  0
LINE
  5
217
330
2
100
AcDbEntity
  8
AM_HID
100
AcDbLine
 10
20.81980907033198
 20
96.92773834508166
 30
0.0
 11
20.81980907033198
 21
96.92646088774624
 31
0.0
  0
LINE
  5
218
330
2
100
AcDbEntity
  8
AM_VIS
100
AcDbLine
 10
20.81980882177546
 20
96.43951131459406
 30
0.0
 11
20.81980882177546
 21
96.34197006697357
 31
0.0
  0
LINE
  5
219
330
2
100
AcDbEntity
  8
AM_VIS
100
AcDbLine
 10
20.81980896472654
 20
96.62063650055157
 30
0.0
 11
20.81980896472654
 21
96.53401943719156
 31
0.0
  0
LINE
  5
21A
330
2
100
AcDbEntity
  8
AM_VIS
100
AcDbLine
 10
20.81980891334046
 20
100.0778507516582
 30
0.0
 11
20.81980891334046
 21
100.0732178299761
 31
0.0
  0
LINE
  5
21B
330
2
100
AcDbEntity
  8
AM_VIS
100
AcDbLine
 10
20.81980891334048
 20
100.0657431864726
 30
0.0
 11
20.81980891334048
 21
100.0558059111708
 31
0.0
  0
LINE
  5
21C
330
2
100
AcDbEntity
  8
AM_VIS
100
AcDbLine
 10
20.81980891334051
 20
100.0438929717573
 30
0.0
 11
20.81980891334051
 21
100.0306044806564
 31
0.0
  0
LINE
  5
21D
330
2
100
AcDbEntity
  8
AM_VIS
100
AcDbLine
 10
20.81980891334054
 20
98.04915440622997
 30
0.0
 11
20.81980891334054
 21
97.86644948801395
 31
0.0
  0
LINE
  5
21E
330
2
100
AcDbEntity
  8
AM_VIS
100
AcDbLine
 10
20.94285200469769
 20
95.66561953992188
 30
0.0
 11
20.96811463621888
 21
95.66340934605308
 31
0.0
  0
LINE
  5
21F
330
2
100
AcDbEntity
  8
AM_VIS
100
AcDbLine
 10
20.89435202917567
 20
95.66986273796144
 30
0.0
 11
20.91742384868651
 21
95.66784421530741
 31
0.0
  0
LINE
  5
220
330
2
100
AcDbEntity
  8
AM_VIS
100
AcDbLine
 10
20.86183692290545
 20
95.67270744115326
 30
0.0
 11
20.87558655811591
 21
95.67150450394493
 31
0.0
  0
LINE
  5
221
330
2
100
AcDbEntity
  8
AM_VIS
100
AcDbLine
 10
20.84719424105814
 20
95.67398850981886
 30
0.0
 11
20.85299857741239
 21
95.67348069618867
 31
0.0
  0
LINE
  5
222
330
2
100
AcDbEntity
  8
AM_HID
100
AcDbLine
 10
20.94480891334053
 20
98.051142086773
 30
0.0
 11
20.94480891334053
 21
97.86868319379276
 31
0.0
  0
LINE
  5
223
330
2
100
AcDbEntity
  8
AM_HID
100
AcDbLine
 10
20.94480891334049
 20
100.0438873492492
 30
0.0
 11
20.94480891334049
 21
100.0305978269712
 31
0.0
  0
LINE
  5
224
330
2
100
AcDbEntity
  8
AM_VIS
100
AcDbLine
 10
20.81980891719271
 20
96.87449488450235
 30
0.0
 11
20.81980891719271
 21
96.83308113873072
 31
0.0
  0
CIRCLE
  5
225
330
2
100
AcDbEntity
  8
AM_HID
100
AcDbCircle
 10
21.00676393884841
 20
96.92774164107021
 30
0.0
 40
0.1869557402602556
  0
LINE
  5
226
330
2
100
AcDbEntity
  8
AM_VIS
100
AcDbLine
 10
20.81980881835824
 20
96.91006122962463
 30
0.0
 11
20.81980881835824
 21
96.90193858691436
 31
0.0
  0
LINE
  5
227
330
2
100
AcDbEntity
  8
AM_VIS
100
AcDbLine
 10
20.81980914855962
 20
96.34197006697384
 30
0.0
 11
20.81980914855962
 21
96.24335258814113
 31
0.0
  0
LINE
  5
228
330
2
100
AcDbEntity
  8
AM_VIS
100
AcDbLine
 10
20.81980888437195
 20
96.53401943719135
 30
0.0
 11
20.81980888437195
 21
96.4395113145944
 31
0.0
  0
LINE
  5
229
330
2
100
AcDbEntity
  8
AM_VIS
100
AcDbLine
 10
21.31380891334051
 20
100.3035761667186
 30
0.0
 11
21.19480891334051
 21
100.3035761667186
 31
0.0
  0
LINE
  5
22A
330
2
100
AcDbEntity
  8
AM_VIS
100
AcDbLine
 10
21.31380891334051
 20
100.5545761667186
 30
0.0
 11
21.31380891334051
 21
100.3035761667186
 31
0.0
  0
ARC
  5
22B
330
2
100
AcDbEntity
  8
AM_VIS
100
AcDbCircle
 10
21.13480891334049
 20
100.5545761667186
 30
0.0
 40
0.179
100
AcDbArc
 50
0.0
 51
90.0
  0
LINE
  5
22C
330
2
100
AcDbEntity
  8
AM_VIS
100
AcDbLine
 10
20.0638089133405
 20
100.7335761667186
 30
0.0
 11
21.1348089133405
 21
100.7335761667186
 31
0.0
  0
LINE
  5
22D
330
2
100
AcDbEntity
  8
AM_VIS
100
AcDbLine
 10
20.0638089133405
 20
100.7335761667186
 30
0.0
 11
19.81380891334049
 21
100.7335761667186
 31
0.0
  0
LINE
  5
22E
330
2
100
AcDbEntity
  8
AM_VIS
100
AcDbLine
 10
20.0638089133405
 20
100.7335761667186
 30
0.0
 11
20.0638089133405
 21
100.6145761667186
 31
0.0
  0
LINE
  5
22F
330
2
100
AcDbEntity
  8
AM_VIS
100
AcDbLine
 10
19.81380891334049
 20
100.6145761667186
 30
0.0
 11
20.0638089133405
 21
100.6145761667186
 31
0.0
  0
LINE
  5
240
330
2
100
AcDbEntity
  8
AM_VIS
100
AcDbLine
 10
151.5388549505158
 20
41.64357616671863
 30
0.0
 11
151.2946356735299
 21
39.94025795004612
 31
0.0
  0
LINE
  5
241
330
2
100
AcDbEntity
  8
AM_VIS
100
AcDbLine
 10
151.5448549505157
 20
41.64357616671863
 30
0.0
 11
151.7896952500993
 21
39.93940337498231
 31
0.0
  0
DIMENSION
  5
32A
330
2
100
AcDbEntity
  8
AM_REFDIM
100
AcDbDimension
  2
*D22
 10
152.194366408407
 20
106.6158145552702
 30
0.0
 11
158.6324616465021
 21
106.6158145552702
 31
0.0
 70
   160
 71
     5
 42
4.099999993318191
  3
Standard
100
AcDbAlignedDimension
 13
148.0943664150888
 23
100.0335761667186
 33
0.0
 14
152.194366408407
 24
100.0345274921956
 34
0.0
100
AcDbRotatedDimension
  0
DIMENSION
  5
338
330
2
100
AcDbEntity
  8
AM_REFDIM
100
AcDbDimension
  2
*D23
 10
144.490564675763
 20
95.64357616671866
 30
0.0
 11
144.490564675763
 21
97.96357616671864
 31
0.0
 70
   160
 71
     5
 42
4.639999999999943
  3
Standard
100
AcDbAlignedDimension
 13
148.3443664150888
 23
100.2835761667186
 33
0.0
 14
150.1942522493498
 24
95.64357616671866
 34
0.0
 50
90.0
100
AcDbRotatedDimension
  0
DIMENSION
  5
350
330
2
100
AcDbEntity
  8
AM_REFDIM
100
AcDbDimension
  2
*D24
 10
156.3158956450115
 20
100.7335761667186
 30
0.0
 11
156.3158956450115
 21
98.18857616671863
 31
0.0
 70
    32
 71
     5
 42
5.089999999999946
  3
Standard
100
AcDbAlignedDimension
 13
152.164480567464
 23
95.64357616671863
 33
0.0
 14
150.8243668411957
 24
100.7335761667186
 34
0.0
 50
90.0
100
AcDbRotatedDimension
  0
ENDSEC
  0
SECTION
  2
OBJECTS
  0
DICTIONARY
  5
8
330
0
100
AcDbDictionary
281
     1
  3
ACAD_COLOR
350
2B
  3
ACAD_GROUP
350
27
  3
ACAD_LAYOUT
350
C
  3
ACAD_MATERIAL
350
2A
  3
ACAD_MLINESTYLE
350
28
  3
ACAD_PLOTSETTINGS
350
29
  3
ACAD_PLOTSTYLENAME
350
7
  3
ACAD_TABLESTYLE
350
2C
  3
ACDBHEADERROUNDTRIPXREC
350
3C3
  3
AcDbVariableDictionary
350
231
  3
DWGPROPS
350
3C2
  0
DICTIONARY
  5
14
330
13
100
AcDbDictionary
280
     1
281
     1
  3
ACAD_LAYERSTATES
360
15
  0
DICTIONARY
  5
3
330
2
100
AcDbDictionary
280
     1
281
     1
  0
DICTIONARY
  5
2B
102
{ACAD_REACTORS
330
8
102
}
330
8
100
AcDbDictionary
281
     1
  0
DICTIONARY
  5
27
102
{ACAD_REACTORS
330
8
102
}
330
8
100
AcDbDictionary
281
     1
  0
DICTIONARY
  5
C
102
{ACAD_REACTORS
330
8
102
}
330
8
100
AcDbDictionary
281
     1
  3
Layout2
350
10
  3
Model
350
B
  0
DICTIONARY
  5
2A
102
{ACAD_REACTORS
330
8
102
}
330
8
100
AcDbDictionary
281
     1
  0
DICTIONARY
  5
28
102
{ACAD_REACTORS
330
8
102
}
330
8
100
AcDbDictionary
281
     1
  3
Standard
350
2E
  0
DICTIONARY
  5
29
102
{ACAD_REACTORS
330
8
102
}
330
8
100
AcDbDictionary
281
     1
  0
ACDBDICTIONARYWDFLT
  5
7
102
{ACAD_REACTORS
330
8
102
}
330
8
100
AcDbDictionary
281
     1
  3
Normal
350
6
100
AcDbDictionaryWithDefault
340
6
  0
DICTIONARY
  5
2C
102
{ACAD_REACTORS
330
8
102
}
330
8
100
AcDbDictionary
281
     1
  3
Standard
350
2F
  0
DICTIONARY
  5
3C3
102
{ACAD_REACTORS
330
8
102
}
330
8
100
AcDbDictionary
281
     1
  0
DICTIONARY
  5
231
102
{ACAD_REACTORS
330
8
102
}
330
8
100
AcDbDictionary
281
     1
  3
CTABLESTYLE
350
232
  3
DIMASSOC
350
234
  3
HIDETEXT
350
233
  3
PROJECTNAME
350
235
  0
XRECORD
  5
3C2
102
{ACAD_REACTORS
330
8
102
}
330
8
100
AcDbXrecord
280
     1
  1
DWGPROPS COOKIE
  2

  3

  4

  6

  7

  8

  9

300
=
301
=
302
=
303
=
304
=
305
=
306
=
307
=
308
=
309
=
 40
0.548265150462963
 41
2452558.713648322
 42
2454520.503536505
  1

 90
        0
  0
DICTIONARY
  5
15
102
{ACAD_REACTORS
330
14
102
}
330
14
100
AcDbDictionary
281
     1
  0
LAYOUT
  5
10
102
{ACAD_XDICTIONARY
360
11
102
}
102
{ACAD_REACTORS
330
C
102
}
330
C
100
AcDbPlotSettings
  1

  2
\\DALITE03\PR00109
  4
Letter
  6

 40
6.349999904632567
 41
4.233341693878172
 42
6.349990844726562
 43
4.23333740234375
 44
215.8999938964844
 45
279.3999938964844
 46
0.0
 47
0.0
 48
0.0
 49
0.0
140
0.0
141
0.0
142
1.0
143
1.0
 70
   688
 72
     0
 73
     1
 74
     5
  7
acad2.ctb
 75
    16
147
1.0
148
0.0
149
0.0
100
AcDbLayout
  1
Layout2
 70
     1
 71
     1
 10
-0.1666668268639272
 20
-0.2499999962453767
 11
10.83333293284018
 21
8.249999763458731
 12
0.0
 22
0.0
 32
0.0
 14
0.0000000034034002
 24
0.0000000081379028
 34
0.0
 15
10.52000001705071
 25
7.940000016434177
 35
0.0
146
0.0
 13
0.0
 23
0.0
 33
0.0
 16
1.0
 26
0.0
 36
0.0
 17
0.0
 27
1.0
 37
0.0
 76
     0
330
D
  0
LAYOUT
  5
B
102
{ACAD_XDICTIONARY
360
3C4
102
}
102
{ACAD_REACTORS
330
C
102
}
330
C
100
AcDbPlotSettings
  1

  2
\\DALITE03\PR00109
  4

  6

 40
0.0
 41
0.0
 42
0.0
 43
0.0
 44
0.0
 45
0.0
 46
0.0
 47
0.0
 48
0.0
 49
0.0
140
0.0
141
0.0
142
1.0
143
1.0
 70
  1712
 72
     0
 73
     0
 74
     0
  7
acad2.ctb
 75
     0
147
1.0
148
0.0
149
0.0
100
AcDbLayout
  1
Model
 70
     1
 71
     0
 10
0.0
 20
0.0
 11
12.0
 21
9.0
 12
0.0
 22
0.0
 32
0.0
 14
0.0
 24
0.0
 34
0.0
 15
0.0
 25
0.0
 35
0.0
146
0.0
 13
0.0
 23
0.0
 33
0.0
 16
1.0
 26
0.0
 36
0.0
 17
0.0
 27
1.0
 37
0.0
 76
     0
330
2
  0
MLINESTYLE
  5
2E
102
{ACAD_REACTORS
330
28
102
}
330
28
100
AcDbMlineStyle
  2
STANDARD
 70
     0
  3

 62
   256
 51
90.0
 52
90.0
 71
     2
 49
0.5
 62
   256
  6
BYLAYER
 49
-0.5
 62
   256
  6
BYLAYER
  0
ACDBPLACEHOLDER
  5
6
102
{ACAD_REACTORS
330
7
102
}
330
7
  0
TABLESTYLE
  5
2F
102
{ACAD_REACTORS
330
2C
102
}
330
2C
100
AcDbTableStyle
  3
Standard
 70
     0
 71
     0
 40
0.06
 41
0.06
280
     0
281
     0
  7
STANDARD
140
0.18
170
     2
 62
     0
 63
     7
283
     0
274
    -2
284
     1
 64
     0
275
    -2
285
     1
 65
     0
276
    -2
286
     1
 66
     0
277
    -2
287
     1
 67
     0
278
    -2
288
     1
 68
     0
279
    -2
289
     1
 69
     0
  7
STANDARD
140
0.25
170
     5
 62
     0
 63
     7
283
     0
274
    -2
284
     1
 64
     0
275
    -2
285
     1
 65
     0
276
    -2
286
     1
 66
     0
277
    -2
287
     1
 67
     0
278
    -2
288
     1
 68
     0
279
    -2
289
     1
 69
     0
  7
STANDARD
140
0.18
170
     5
 62
     0
 63
     7
283
     0
274
    -2
284
     1
 64
     0
275
    -2
285
     1
 65
     0
276
    -2
286
     1
 66
     0
277
    -2
287
     1
 67
     0
278
    -2
288
     1
 68
     0
279
    -2
289
     1
 69
     0
  0
DICTIONARYVAR
  5
232
102
{ACAD_REACTORS
330
231
102
}
330
231
100
DictionaryVariables
280
     0
  1
STANDARD
  0
DICTIONARYVAR
  5
234
102
{ACAD_REACTORS
330
231
102
}
330
231
100
DictionaryVariables
280
     0
  1
1
  0
DICTIONARYVAR
  5
233
102
{ACAD_REACTORS
330
231
102
}
330
231
100
DictionaryVariables
280
     0
  1
1
  0
DICTIONARYVAR
  5
235
102
{ACAD_REACTORS
330
231
102
}
330
231
100
DictionaryVariables
280
     0
  1

  0
DICTIONARY
  5
11
330
10
100
AcDbDictionary
280
     1
281
     1
  3
ACAD_XREC_ROUNDTRIP
360
3C6
  3
ADSK_XREC_LAYOUTTHUMBNAIL
360
12
  0
DICTIONARY
  5
3C4
330
B
100
AcDbDictionary
280
     1
281
     1
  3
ACAD_XREC_ROUNDTRIP
360
3C5
  0
XRECORD
  5
3C6
102
{ACAD_REACTORS
330
11
102
}
330
11
100
AcDbXrecord
280
     1
102
SHADEPLOT
 70
     0
102
SHADEPLOTRESLEVEL
 70
     2
102
SHADEPLOTCUSTOMDPI
 70
   300
  0
XRECORD
  5
12
102
{ACAD_REACTORS
330
11
102
}
330
11
100
AcDbXrecord
280
     1
310
28000000B40000008B0000000100080000000000BC610000000000000000000000010000000000000000000000000000FFFFFF000000000000000000000000000000000000000000000000000000000000000000330000006600000099000000CC000000FF00000000330000333300006633000099330000CC330000FF3300
310
0000660000336600006666000099660000CC660000FF66000000990000339900006699000099990000CC990000FF99000000CC000033CC000066CC000099CC0000CCCC0000FFCC000000FF000033FF000066FF000099FF0000CCFF0000FFFF000000003300330033006600330099003300CC003300FF003300003333003333
310
33006633330099333300CC333300FF33330000663300336633006666330099663300CC663300FF66330000993300339933006699330099993300CC993300FF99330000CC330033CC330066CC330099CC3300CCCC3300FFCC330000FF330033FF330066FF330099FF3300CCFF3300FFFF330000006600330066006600660099
310
006600CC006600FF00660000336600333366006633660099336600CC336600FF33660000666600336666006666660099666600CC666600FF66660000996600339966006699660099996600CC996600FF99660000CC660033CC660066CC660099CC6600CCCC6600FFCC660000FF660033FF660066FF660099FF6600CCFF6600
310
FFFF660000009900330099006600990099009900CC009900FF00990000339900333399006633990099339900CC339900FF33990000669900336699006666990099669900CC669900FF66990000999900339999006699990099999900CC999900FF99990000CC990033CC990066CC990099CC9900CCCC9900FFCC990000FF99
310
0033FF990066FF990099FF9900CCFF9900FFFF99000000CC003300CC006600CC009900CC00CC00CC00FF00CC000033CC003333CC006633CC009933CC00CC33CC00FF33CC000066CC003366CC006666CC009966CC00CC66CC00FF66CC000099CC003399CC006699CC009999CC00CC99CC00FF99CC0000CCCC0033CCCC0066CC
310
CC0099CCCC00CCCCCC00FFCCCC0000FFCC0033FFCC0066FFCC0099FFCC00CCFFCC00FFFFCC000000FF003300FF006600FF009900FF00CC00FF00FF00FF000033FF003333FF006633FF009933FF00CC33FF00FF33FF000066FF003366FF006666FF009966FF00CC66FF00FF66FF000099FF003399FF006699FF009999FF00CC
310
99FF00FF99FF0000CCFF0033CCFF0066CCFF0099CCFF00CCCCFF00FFCCFF0000FFFF0033FFFF0066FFFF0099FFFF00CCFFFF00FFFFFF00000000000D0D0D001A1A1A00282828003535350043434300505050005D5D5D006B6B6B00787878008686860093939300A1A1A100AEAEAE00BBBBBB00C9C9C900D6D6D600E4E4E400
310
F1F1F100FFFFFF0000000000000000000000000000000000000000000000000000000000000000000000000000000000F5F5F5F5F5F5F5F5F5F5F5F5F5F5F5F5F5F5F5F5F5F5F5F5F5F5F5F5F5F5F5F5F5F5F5F5F5F5F5F5F5F5F5F5F5F5F5F5F5F5F5F5F5F5F5F5F5F5F5F5F5F5F5F5F5F5F5F5F5F5F5F5F5F5F5F5F5F5F5
310
F5F5F5F5F5F5F5F5F5F5F5F5F5F5F5F5F5F5F5F5F5F5F5F5F5F5F5F5F5F5F5F5F5F5F5F5F5F5F5F5F5F5F5F5F5F5F5F5F5F5F5F5F5F5F5F5F5F5F5F5F5F5F5F5F5F5F5F5F5F5F5F5F5F5F5F5F5F5F5F5F5F5F5F5F5F5F5F5F5F5F5F5F5F5F5F5F5F5F5F5F5F5E2E2E2E2E2E2E2E2E2E2E2E2E2E2E2E2E2E2E2E2E2E2E2E2E2
310
E2E2E2E2E2E2E2E2E2E2E2E2E2E2E2E2E2E2E2E2E2E2E2E2E2E2E2E2E2E2E2E2E2E2E2E2E2E2E2E2E2E2E2E2E2E2E2E2E2E2E2E2E2E2E2E2E2E2E2E2E2E2E2E2E2E2E2E2E2E2E2E2E2E2E2E2E2E2E2E2E2E2E2E2E2E2E2E2E2E2E2E2E2E2E2E2E2E2E2E2E2E2E2E2E2E2E2E2E2E2E2E2E2E2E2E2E2E2E2E2E2E2E2E2E2E2E2
310
E2E2E2E2E2E2E2E2E2E2E2E2E2E2E2E2E2E2E2E2E2E2E2E2E2F5F5F5E2E2E2E2E2E2E2E2E2E2E2E2E2E2E2E2E2E2E2E2E2E2E2E2E2E2E2E2E2E2E2E2E2E2E2E2E2E2E2E2E2E2E2E2E2E2E2E2E2E2E2E2E2E2E2E2E2E2E2E2E2E2E2E2E2E2E2E2E2E2E2E2E2E2E2E2E2E2E2E2E2E2E2E2E2E2E2E2E2E2E2E2E2E2E2E2E2E2E2
310
E2E2E2E2E2E2E2E2E2E2E2E2E2E2E2E2E2E2E2E2E2E2E2E2E2E2E2E2E2E2E2E2E2E2E2E2E2E2E2E2E2E2E2E2E2E2E2E2E2E2E2E2E2E2E2E2E2E2E2E2E2E2E2E2E2E2E2E2E2E2E2E2E2E2E2E2E2E2F5F5F5E2E2E2E2E2E2E2E2E2E2E2E2E2E2E2E2E2E2E2E2E2E2E2E2E2E2E2E2E2E2E2E2E2E2E2E2E2E2E2E2E2E2E2E2E2E2
310
E2E2E2E2E2E2E2E2E2E2E2E2E2E2E2E2E2E2E2E2E2E2E2E2E2E2E2E2E2E2E2E2E2E2E2E2E2E2E2E2E2E2E2E2E2E2E2E2E2E2E2E2E2E2E2E2E2E2E2E2E2E2E2E2E2E2E2E2E2E2E2E2E2E2E2E2E2E2E2E2E2E2E2E2E2E2E2E2E2E2E2E2E2E2E2E2E2E2E2E2E2E2E2E2E2E2E2E2E2E2E2E2E2E2E2E2E2E2E2E2E2E2E2E2E2E2E2
310
E2E2E2E2F5F5F5E2E2C3F5F5F5F5F5F5F5E2E2E2E2E2E2E2E2E2F5F5F5F5F5F5F5F5F5F5F5F5F5F5F5F5E2E2E2E2E2E2E2E2E2F5F5F5F5F5F5F5F5F5F5F5F5F5F5F5F5E2E2E2E2E2E2E2E2F5F5F5F5F5F5F5F5F5F5F5F5F5F5F5F5E2E2E2E2E2E2E2E2E2F5F5F5F5F5F5F5F5F5F5F5F5F5F5F5F5E2E2E2E2E2E2E2E2F5F5F5
310
F5F5F5F5F5F5F5F5F5F5F5F5F5E2E2E2E2E2E2E2E2E2F5F5F5F5F5F5F5F5F5F5F5F5F5F5F5F5E2E2E2E2E2E2E2E2E2F5F5F5F5F5F5F5F5E2E2F5F5F5E2E2F5E2E2E2E2E2E2E2E2E2E2E2E2E2E2E2E2E2E2E2E2E2E2E2E2E2E2E2E2E2E2E2E2E2E2E2E2E2E2E2E2E2E2E2E2E2E2E2E2E2E2E2E2E2E2E2E2E2E2E2E2E2E2E2E2
310
E2E2E2E2E2E2E2E2E2E2E2E2E2E2E2E2E2E2E2E2E2E2E2E2E2E2E2E2E2E2E2E2E2E2E2E2E2E2E2E2E2E2E2E2E2E2E2E2E2E2E2E2E2E2E2E2E2E2E2E2E2E2E2E2E2E2E2E2E2E2E2E2E2E2E2E2E2E2E2E2E2E2E2E2E2E2E2E2E2E2E2E2E2E2E2E2E2E2E2E2E2E2E2E2E2E2E2F5E2E2F5F5F5E2E2F5E2E22D2D2D2D2D2D2D2D2D
310
2D2D2D2D2D2D2D2D2D2D2D2D2D2D2D2D2D2D2D2D2D2D2D2D2D2D2D2D2D2D2D2D2D2D2D2D2D2D2D2D2D2D2D2D2D2D2D2D2D2D2D2D2D2D2D2D2D2D2D2D2D2D2D2D2D2D2D2D2D2D2D2D2D2D2D2D2D2D2D2D2D2D2D2D2D2D2D2D2D2D2D2D2D2D2D2D2D2D2D2D2D2D2D2D2D2D2D2D2D2D2D2D2D2D2D2D2D2D2D2D2D2D2D2D2D2D2D
310
2D2D2D2D2D2D2D2D2D2D2DDCDC2D2D2D2D2D2D2D2D2D2D2D2D2D2D2DE2E2E2E2E2F5E2E2F5F5F5E2E2F5E2E22DE2E2E2E2E2E2E2E2E2E2E2E2E2E2E2E2E2E2E2E2E2E2E2E2E2E2E2E2E2E2E2E2E2E2E2E2E2E2E2E2E2E2E2E2E2E2E2E2E2E2E2E2E2E2E2E2E2E2E2E2E2E2E2E2E2E2E2E2E2E2E2E2E2E2E2E2E2E2E2E2E2E2
310
E2E2E2E2E2E2E2E2E2E2E2E22DE2E2E2E2E2E2E2E2E2E2E2E2C3C3C3C3C3C3C3C3C3C3C3C3C3C3E2C3C3C3E2E2E2E2E2E2E2E2E2E2E22DE2E2E2E2DCDCDCDCDCDCDCDCDCDCE2DCDCDCDCDCDCDCDCE2E22DE2E2E2E2E2F5E2E2F5F5F5E2E2F5E2E22DE2E2E2E2E2E2E2E2E2E2E2E2E2E2E2E2E2E2E2E2E2E2E2E2E2E2E2E2E2
310
E2E2E2E2E2E2E2E2E2E2E2E2E2E2E2E2E2E2E2E2E2E2E2E2E2E2E2E2E2E2E2E2E2E2E2E2E2E2E2E2E2E2E2E2E2E2E2E2E2E2E2E2E2E2E2E2E2E2E2E2E2E2E2E2E22DE2E2E2E2E2E2E2E2E2E2E2E2C3C3C3C3C3C3C3C3C3C3C3C3C3E2E2C3C3C3E2E2E2E2E2E2E2E2E2E2E22DE2E2E2E2DCDCDCDCDCDCDCDCDCDCDCDCDCDCDC
310
DCDCDCDCE2E22DE2E2E2E2E2F5E2E2F5F5F5E2E2F5E2E22DE2E2E2C3C3C3C3E2E2C3C3E2E2C3C3C3C3C3C3C3C3C3E2C3C3E2C3C3C3C3E2C3C3C3C3C3C3C3E2E2E2E2E2E2E2E2E2E2E2E2E2E2E2E2E2E2E2E2E2E2E2E2E2E2E2E2E2E2E2E2E2E2E2E2E2E2E2E2E2E2E2E2E2E2E2E2E2E2E2E2E2E2E2E22DE2E2E2C3C3E2C3E2
310
C3C3C3C3C3C3E2C3C3C3C3C3C3C3C3C3C3C3E2E2C3C3C3C3C3E2C3C3C3C3C3C3E22DE2E2E2E2DCDCDCDCDCDCDCDCDCDCDCE2DCDCDCDCDCDCDCE2E22DE2E2E2E2E2F5E2E2F5F5F5E2E2F5E2E22DE2E2C3C3C3C3C3C3E2C3C3E2C3C3C3C3C3C3C3C3C3C3E2C3C3C3C3C3C3E2C3C3C3C3C3C3C3C3E2E2E2E2E2E2E2E2E2E2E2E2
310
E2E2E2E2E2E2E2E2E2E2E2E2E2E2E2E2E2E2E2E2E2E2E2E2E2E2E2E2E2E2E2E2E2E2E2E2E2E2E2E2E2E2E2E22DE2E2E2C3C3C3C3C3C3E2C3C3C3C3E2C3C3C3E2C3C3C3C3C3C3C3E2E2C3C3E2C3E2E2C3C3C3C3E2E2E22DC3C3C3C3DCDCDCDCDCDCDCDCDCDCDCDCDCDCDCDCDCDCDCDCE22DE2E2E2E2E2F5E2E2F5F5F5E2E2F5
310
E2E22DE2E2E2C3C3C3C3E2E2E2E2E2E2C3C3C3C3C3C3C3C3C3E2C3C3C3C3C3C3E2C3C3C3C3C3C3C3C3C3E2E2E2E2E2E2E2E2E2E2E2E2E2E2E2E2E2E2E2E2E2E2E2E2E2E2E2E2E2E2E2E2E2E2E2E2E2E2E2E2E2E2E2E2E2E2E2E2E2E2E2E2E2E2E22DE2E2E2C3C3C3E2E2C3E2C3C3C3C3E2C3C3C3C3C3C3C3C3C3C3C3E2E2C3
310
C3C3C3E2E2C3C3C3C3C3E2E22DC3C3C3C3DCDCE2E2DCDCE2E2E2E2E2DCE2E2E2DCE2E2E2E2E22DE2E2E2E2E2F5E2E2F5F5F5E2E2F5E2E22DE2E2E2C3C3C3C3E2E2C3C3E2E2C3C3C3C3C3C3C3C3C3E2C3C3C3C3C3C3E2C3C3C3C3C3C3C3C3C3E2E2E2E2E2E2E2E2E2E2E2E2E2E2E2E2E2E2E2E2E2E2E2E2E2E2E2E2E2E2E2E2
310
E2E2E2E2E2E2E2E2E2E2E2E2E2E2E2E2E2E2E2E2E2E2E22D2D2D2D2D2D2D2D2D2D2D2D2D2D2D2D2D2D2D2D2D2D2D2D2DC32D2D2D2D2D2D2D2D2D2D2D2D2D2D2D2D2D2D2D2D2DC32D2D2D2D2D2D2D2D2D2D2D2D2D2D2D2D2DC32D2D2DE2E2E2E2E2F5E2E2F5F5F5E2E2E2E2E22DE2E2C3C3C3C3C3E2E2E2E2E2C3C3C3C3C3C3
310
C3C3C3C3E2C3C3C3C3C3C3E2C3C3C3C3C3C3C3C3C3E2E2E2E2E2E2E2E2E2E2E2E2E2E2E2E2E2E2E2E2E2E2E2E2E2E2E2E2E2E2E2E2E2E2E2E2E2E2E2E2E2E2E2E2E2E2E2E2E2E2E2E2E2E2E22DE2E2E2E2E2C3C3C3C3C3C3C3C3C3C3C3C3C3C3C3C3C3C3C3C3C3C3C3C3C3E2C3C3C3E2C3C3E2C3C3C3E2E2C3C3E2C3C3C3C3
310
E2C3C3C3C3C3C3C3E2C3C3C3C3C3C3E2E22DE2E2E2E2E2E2E2E2F5F5F5E2E2E2E2E22DE2E2C3C3C3C3C3E2E2C3C3E2E2C3C3C3C3C3C3C3E2C3C3C3C3C3C3C3C3E2C3C3C3C3C3C3E2E2C3C3C3E2C3C3C3C3E2E2E2E2E2E2E2E2E2E2E2E2E2E2E2E2E2E2E2E2E2E2E2E2E2E2E2E2E2E2E2E2E2E2E2E2E2E2E2E2E2E2E2E2E2E2
310
E2E22DE2E2E2E2E2C3C3E2C3C3C3C3C3C3C3C3C3C3C3C3C3C3C3C3C3E2C3C3C3C3E2C3C3C3E2E2C3E2C3C3C3E2E2C3C3E2C3C3C3C3E2C3C3C3C3C3C3C3E2C3C3C3C3C3C3E2E22DE2E2E2E2E2E2E2E2F5F5F5E2E2E2E2E22DE2E2C3C3C3C3C3E2E2C3C3E2E2C3C3C3E2C3C3E2E2C3C3E2C3C3C3C3C3E2C3C3C3C3C3C3C3E2C3
310
C3C3E2C3C3C3C3C3E2E2E2E2E2E2E2E2E2E2E2E2E2E2E2E2E2E2E2E2E2E2E2E2E2E2E2E2E2E2E2E2E2E2E2E2E2E2E2E2E2E2E2E2E2E2E2C3C3C3C3C3C3C3C3C3C3C3C3C3C3C3C3C3C3C3C3C3C3C3C3C3C3E2C3C3C3C3E2C3C3C3E2C3C3E2C3C3C3E2C3C3C3E2C3C3C3C3E2C3C3C3C3C3C3C3E2C3C3C3C3C3C3E2E22DE2E2E2
310
E2E2E2E2E2F5F5F5E2E2E2E2E22DE2E2C3C3C3C3C3E2E2E2E2E2C3C3C3C3C3C3C3E2E2C3C3E2C3C3C3C3C3E2C3C3C3C3C3C3E2E2C3C3C3E2C3C3C3C3C3E2E2E2E2E2E2E2E2E2E2E2E2E2E2E2E2E2E2E2E2E2E2E2E2E2E2E2E2E2E2E2E2E2E2E2E2E2E2E2E2E2E2E2E2E2E2E2C3C3C3C3C3C3C3C3C3C3C3C3C3C3C3C3C3C3C3
310
C3C3C3C3C3C3C3E2C3C3C3C3E2C3C3C3C3E2E2E2C3C3C3C3C3C3C3E2C3C3C3C3C3C3C3C3C3C3C3C3E2C3C3C3C3C3C3E2E22DE2E2E2E2E2E2E2E2F5F5F5E2E2E2E2E22DE2E2C3C3C3C3E2E2C3C3E2C3C3C3C3C3C3C3C3C3C3E2C3C3C3C3C3C3C3E2E2E2E2E2E2E2E2E2E2E2E2E2E2E2E2E2E2E2E2E2E2E2E2E2E2E2E2E2E2E2
310
E2E2E2E2E2E2E2E2E2E2E2E2E2E2E2E2E2E2E2E2E2E2E2E2E2E2E2E2E2E2E2E2E2E22D2D2D2D2D2D2D2D2D2D2D2D2D2D2D2D2D2D2D2D2D2D2D2D2D2D2D2D2D2D2D2D2D2D2DC32D2D2D2D2DC3C32D2D2D2DC32D2DC3C32D2D2D2D2D2D2D2D2D2D2D2D2DC32D2D2DE2E2E2E2E2E2E2E2F5F5F5E2E2E2E2E22DE2E2C3C3C3C3E2
310
E2E2E2E2C3C3C3C3E2C3C3C3C3C3E2C3C3C3C3C3C3C3E2E2E2E2E2E2E2E2E2E2E2E2E2E2E2E2E2E2E2E2E2E2E2E2E2E2E2E2E2E2E2E2E2E2E2E2E2E2E2E2E2E2E2E2E2E2E2E2E2E2E2E2E2E2E2E2E2E2E2E2E2E2E2E2E22DE2E2C3C3C3C3C3E2E22DE2E2C3C3C3C3E2E2E22DC3C3C3C3C3C3C3C3C3C3C3C3C32DE2E2E2E2E2
310
E2E2E2E22DE2E2E2E2E2E2E2E2E2E2E2E2E22DE2E2E2C3C3C3C3E2E22DE2E2E2E2E2E2E2E2F5F5F5E2E2E2E2E22DE2E2C3E2C3C3C3C3C3C3C3E2E2E2E2E2E2E2E2E2E2E2E2E2E2E2E2E2E2E2E2E2E2E2E2E2E2E2E2E2E2E2E2E2E2E2E2E2E2E2E2E2E2E2E2E2E2E2E2E2E2E2E2E2E2E2E2E2E2E2E2E2E2E2E2E2E2E2E2E2E2
310
E2E2E2E2E2E2E2E2E2E2E2E2E22DE2C3C3E2E2C3C3C3E22DE2E2C3C3C3C3E2E2E22DC3C3C3E2E2C3C3C3E2E2C3C3C32DE2E2E2E2E2E2E2E2E22DE2E2E2E2E2E2E2E2E2E2E2E2E22DE2E2E2C3C3C3C3E2E22DE2E2E2E2E2E2E2E2F5F5F5E2E2E2E2E22DE2E2C3C3C3C3C3C3C3C3C3E2E2E2E2E2E2E2E2E2E2E2E2E2E2E2E2E2
310
E2E2E2E2E2E2E2E2E2E2E2E2E2E2E2E2E2E2E2E2E2E2E2E2E2E2E2E2E2E2E2E2E2E2E2E2E2E2E2E2E2E2E2E2E2E2E2E2E2E2E2E2E2E2E2E2E2E2E2E2E2E2E2E2E2E2C3C3C3C3C3C3E2E2E2E22DC3C3C3C3C3E2C3C3C32DC3C3C3C3E2E2E2E2E2E2E2E2E22DC3C3C3C3C3C3C3C3E22DC3C3C3C3E2E2E2E2E2E2E2E2E22DE2E2
310
E2C3C3C3C3C3E22DE2E2E2E2E2E2E2E2F5F5F5E2E2E2E2E22DE2E2C3E2C3C3C3C3C3C3C3E2E2E2E2E2E2E2E2E2E2E2E2E2E2E2E2E2E2E2E2E2E2E2E2E2E2E2E2E2E2E2E2E2E2E2E2E2E2E2E2E2E2E2E2E2E2E2E2E2E2E2E2E2E2E2E2E2E2E2E2E2E2E2E2E2E2E2E2E2E2E2E2E2E2E2E2E2E2E2E2E2E2E22DC3C3C3C3C32D2D
310
2D2D2DC3C3C3C3C32DC3C32D2DC3C3C3C32D2D2D2D2D2D2D2D2D2DC3C3C3C32DC3C3C32D2DC3C3C3C32D2D2D2D2D2D2D2D2D2D2D2D2D2D2D2D2D2D2D2DE2E2E2E2E2E2E2E2F5F5F5E2E2F5E2E22DE2E2E2E2E2E2E2E2E2E2E2E2E2E2E2E2E2E2E2E2E2E2E2E2E2E2E2E2E2E2E2E2E2E2E2E2E2E2E2E2E2E2E2E2E2E2E2E2E2
310
E2E2E2E2E2E2E2E2E2E2E2E2E2E2E2E2E2E2E2E2E2E2E2E2E2E2E2E2E2E2E2E2E2E2E2E2E2E2E2E2E2E2E2E2E2E2E2E2E2E2E2E2E2E2E2E2E2E2E2E2E2E2E2E2E2E2E2E2E2E2E2E2E2E2E2E2E2E2E2E2E2E2E2E2E2E2E2E2E2E2E2E2E2E2E2E2E2E2E2E2E2E2E2E2E2E2E2E2E2E2E2E2E22DE2E2E2E2E2F5E2E2F5F5F5E2E2
310
F5E2E22DE2E2E2E2E2E2E2E2E2E2E2E2E2E2E2E2E2E2E2E2E2E2E2E2E2E2E2E2E2E2E2E2E2E2E2E2E2E2E2E2E2E2E2E2E2E2E2E2E2E2E2E2E2E2E2E2E2E2E2E2E2E2E2E2E2E2E2E2E2E2E2E2E2E2E2E2E2E2E2E2E2E2E2E2E2E2E2E2E2E2E2E2E2E2E2E2E2E2E2E2E2E2E2E2E2E2E2E2E2E2E2E2E2E2E2E2E2E2E2E2E2E2E2
310
E2E2E2E2E2E2E2E2E2E2E2E2E2E2E2E2E2E2E2E2E2E2E2E2E2E2E2E2E2E2E2E2E2E2E2E2E2E2E22DE2E2E2E2E2F5E2E2F5F5F5E2E2F5E2E22DE2E2E2E2E2E2E2E2E2E2E2E2E2E2E2E2E2E2E2E2E2E2E2E2E2E2E2E2E2E2E2E2E2E2E2E2E2E2E2E2E2E2E2E2E2E2E2E2E2E2E2E2E2E2E2E2E2E2E2E2E2E2E2E2E2E2E2E2E2E2
310
E2E2E2E2E2E2E2E2E2E2E2E2E2E2E2E2E2E2E2E2E2E2E2E2E2E2E2E2E2E2E2E2E2E2E2E2E2E2E2E2E2E2E2E2E2E2E2E2E2E2E2E2E2E2E2E2E2E2E2E2E2E2E2E2E2E2E2E2E2E2E2E2E2E2E2E2E2E2E2E2E2E2E2E2E2E2E2E2E2E2E2E22DE2E2E2E2E2F5E2E2F5F5F5E2E2F5E2E22DE2E2E2E2E2E2E2E2E2E2E2E2E2E2E2E2E2
310
E2E2E2E2E2E2E2E2E2E2E2E2E2E2E2E2E2E2E2E2E2E2E2E2E2E2E2E2E2E2E2E2E2E2E2E2E2E2E2E2E2E2E2E2E2E2E2E2E2E2E2E2E2E2E2E2E2E2E2E2E2E2E2E2E2E2E2E2E2E2E2E2E2E2E2E2E2E2E2E2E2E2E2E2E2E2E2E2E2E2E2E2E2E2E2E2E2E2E2E2E2E2E2E2E2E2E2E2E2E2E2E2E2E2E2E2E2E2E2E2E2E2E2E2E2E2E2
310
E2E2E2E2E2E2E2E2E2E2E2E2E2E2E2E2E2E22DE2E2E2E2E2F5E2E2F5F5F5E2E2F5E2E22DE2E2E2E2E2E2E2E2E2E2E2E2E2E2E2E2E2E2E2E2E2E2E2E2E2E2E2E2E2E2E2E2E2E2E2E2E2E2E2E2E2E2E2E2E2E2E2E2E2E2E2E2E2E2E2E2E2E2E2E2E2E2E2E2E2E2E2E2E2E2E2E2E2E2E2E2E2E2E2E2E2E2E2E2E2E2E2E2E2E2E2
310
E2E2E2E2E2E2E2E2E2E2E2E2E2E2E2E2E2E2E2E2E2E2E2E2E2E2E2E2E2E2E2E2E2E2E2E2E2E2E2E2E2E2E2E2E2E2E2E2E2E2E2E2E2E2E2E2E2E2E2E2E2E2E2E2E2E2E2E2E2E2E22DE2E2E2E2E2F5E2E2F5F5F5E2E2F5E2E22DE2E2E2E2E2E2E2E2E2E2E2E2E2E2E2E2E2E2E2E2E2E2E2E2E2E2E2E2E2E2E2E2E2E2E2E2E2E2
310
E2E2E2E2E2E2E2E2E2E2E2E2E2E2E2E2E2E2E2E2E2E2E2E2E2E2E2E2E2E2E2E2E2E2E2E2E2E2E2E2E2E2E2E2E2E2E2E2E2E2E2E2E2E2E2E2E2E2E2E2E2E2E2E2E2E2E2E2E2E2E2E2E2E2E2E2E2E2E2E2E2E2E2E2E2E2E2E2E2E2E2E2E2E2E2E2E2E2E2E2E2E2E2E2E2E2E2E2E2E2E2E2E2E2E2E2E2E2E2E2E2E2E2E22DE2E2
310
E2E2E2F5E2E2F5F5F5E2E2F5E2E22DE2E2E2E2E2E2E2E2E2E2E2E2E2E2E2E2E2E2E2E2E2E2E2E2E2E2E2E2E2E2E2E2E2E2E2E2E2E2E2E2E2E2E2E2E2E2E2E2E2E2E2E2E2E2E2E2E2E2E2E2E2E2E2E2E2E2E2E2E2E2E2E2E2E2E2E2E2E2E2E2E2E2E2E2E2E2E2E2E2E2E2E2E2E2E2E2E2E2E2E2E2E2E2E2E2E2E2E2E2E2E2E2
310
E2E2E2E2E2E2E2E2E2E2E2E2E2E2E2E2E2E2E2E2E2E2E2E2E2E2E2E2E2E2E2E2E2E2E2E2E2E2E2E2E2E2E2E2E2E2E2E2E2E22DE2E2E2E2E2F5E2E2F5F5F5E2E2F5E2E22DE2E2E2E2E2E2E2E2E2E2E2E2E2E2E2E2E2E2E2E2E2E2E2E2E2E2E2E2E2E2E2E2E2E2E2E2E2E2E2E2E2E2E2E2E2E2E2E2E2E2E2E2E2E2E2E2E2E2E2
310
E2E2E2E2E2E2E2E2E2E2E2E2E2E2E2E2E2E2E2E2E2E2E2E2E2E2E2E2E2E2E2E2E2E2E2E2E2E2E2E2E2E2E2E2E2E2E2E2E2E2E2E2E2E2E2E2E2E2E2E2E2E2E2E2E2E2E2E2E2E2E2E2E2E2E2E2E2E2E2E2E2E2E2E2E2E2E2E2E2E2E2E2E2E2E2E2E2E2E2E2E2E2E22DE2E2E2E2E2F5E2E2F5F5F5E2E2F5E2E22DE2E2E2E2E2E2
310
E2E2E2E2E2E2E2E2E2E2E2E2E2E2E2E2E2E2E2E2E2E2E2E2E2E2E2E2E2E2E2E2E2E2E2E2E2E2E2E2E2E2E2E2E2E2E2E2E2E2E2E2E2E2E2E2E2E2E2E2E2E2E2E2E2E2E2E2E2E2E2E2E2E2E2E2E2E2E2E2E2E2E2E2E2E2E2E2E2E2E2E2E2E2E2E2E2E2E2E2E2E2E2E2E2E2E2E2E2E2E2E2E2E2E2E2E2E2E2E2E2E2E2E2E2E2E2
310
E2E2E2E2E2E2E2E2E2E2E2E2E2E2E2E2E2E2E2E2E2E2E2E2E2E2E2E2E22DE2E2E2E2E2F5E2E2F5F5F5E2E2F5E2E22DE2E2E2E2E2E2E2E2E2E2E2E2E2E2E2E2E2E2E2E2E2E2E2E2E2E2E2E2E2E2E2E2C3E2E2E2E2E2E2E2E2E2E2E2E2E2E2E2E2E2E2E2E2E2E2E2E2E2E2E2E2E2E2E2E2C3E2E2E2E2E2E2E2E2E2E2E2E2E2E2
310
E2E2E2E2E2E2E2E2E2E2E2E2E2E2E2E2E2E2C3E2E2E2E2E2E2E2E2E2E2E2E2E2E2E2E2E2E2E2E2E2E2E2E2C3E2E2E2E2E2E2E2E2E2E2E2E2E2E2E2E2E2E2E2E2E2E2E2E2E2E2E2E2E2E2E2E2E2E2E2E2E2E22DE2E2E2E2E2F5E2E2F5F5F5E2E2F5E2E22DE2E2E2E2E2E2E2E2E2E2E2E2E2E2E2E2E2E2E2E2E2E2E2E2E2E2E2
310
E2E2E2E2E2C3C3C3C3C3C3C3C3C3C3C3C3C3C3C3C3C3C3C3C3C3C3C3C3C3C3C3C3C3C3C3C3E2C3C3C3C3C3C3C3C3C3C3C3C3E2C3C3C3C3C3C3C3C3C3E2C3C3C3E2E2C3C3C3C3C3C3C3C3C3C3C3C3C3C3C3C3C3C3C3C3C3C3C3C3C3C3C3C3C3C3C3E2E2E2E2E2E2E2E2E2E2E2E2E2E2E2E2E2E2E2E2E2E2E2E2E2E2E2E2E2E2
310
E2E2E2E2E2E2E2E22DE2E2E2E2E2F5E2E2F5F5F5E2E2F5E2E22DE2E2E2E2E2E2E2E2E2E2E2E2E2E2E2E2E2E2E2E2E2E2E2E2E2E2E2E2E2E2E2E2C3E2E2E2E2E2E2E2E2E2E2E2E2E2E2E2E2E2E2E2E2E2E2E2C3C3C3C3C3C3C3E2E2C3C3C3C3C3C3C3C3C3E2C3E2E2C3C3C3C3C3C3C3C3C3E2C3C3C3C3E2C3C3E2C3C3C3C3E2
310
E2E2E2E2E2E2E2E2E2E2E2E2E2E2E2E2E2E2E2E2E2E2C3E2E2E2E2E2E2E2E2E2E2E2E2E2E2E2E2E2E2E2E2E2E2E2E2E2E2E2E2E2E2E2E2E2E2E2E2E2E22DE2E2E2E2E2F5E2E2F5F5F5E2E2F5E2E22DE2E2E2E2E2E2E2E2E2E2E2E2E2E2E2E2E2E2E2E2E2E2E2E2E2E2E2E2E2E2E2E2C3E2E2E2E2E2E2E2E2E2E2E2E2E2E2E2
310
E2E2E2E2E2E2E2E2E2E2E2E2E2E2E2E2E2C3E2E2E2E2E2E2E2E2E2E2E2E2E2E2E2E2E2E2E2E2E2E2E2E2E2E2E2E2E2E2E2E2C3E2E2E2E2E2E2E2E2E2E2E2E2E2E2E2E2E2E2E2E2E2E2E2E2C3E2E2E2E2E2E2E2E2E2E2E2E2E2E2E2E2E2E2E2E2E2E2E2E2E2E2E2E2E2E2E2E2E2E2E2E2E2E22DE2E2E2E2E2F5E2E2F5F5F5E2
310
E2F5E2E22DE2E2E2E2E2E2E2E2E2E2E2E2E2E2E2E2E2E2E2E2E2E2E2E2E2E2E2E2E2E2E2E2C3E2E2E2E2E2E2E2E2E2E2E2E2E2E2E2E2E2E2E2E2E2E2E2E2E2E2E2E2E2E2E2C3C3C3C3C3C3C3E2E2C3C3C3C3C3C3C3C3C3E2E2C3C3C3C3C3C3C3C3E2E2E2E2E2E2E2E2E2E2E2E2E2E2E2E2E2E2E2E2E2E2E2E2E2E2E2E2E2E2
310
E2C3E2E2E2E2E2E2E2E2E2E2E2E2E2E2E2E2E2E2E2E2E2E2E2E2E2E2E2E2E2E2E2E2E2E2E2E2E2E22DE2E2E2E2E2F5E2E2F5F5F5E2E2F5E2E22DE2E2E2E2E2E2E2E2E2E2E2E2E2E2E2E2E2E2E2E2E2E2E2E2E2E2E2E2E2E2E2E2C3C3C3C3C3C3C3C3C3C3C3C3C3C3C3C3C3C3C3C3C3C3C3C3C3C3C3C3C3C3C3E2C3C3C3C3C3
310
C3C3E2E2C3C3C3C3C3C3C3C3C3E2E2C3C3C3C3C3C3C3C3C3C3C3C3C3C3C3C3C3C3C3C3C3C3C3C3C3C3C3C3C3C3C3C3C3C3C3C3C3C3C3C3E2E2E2E2E2E2E2E2E2E2E2E2E2E2E2E2E2E2E2E2E2E2E2E2E2E2E2E2E2E2E2E2E2E2E2E2E2E22DE2E2E2E2E2F5E2E2F5F5F5E2E2F5E2E22DE2E2E2E2E2E2E2E2E2E2E2E2E2E2E2E2
310
E2E2E2E2E2E2E2E2E2E2E2E2E2E2E2E2C3E2E2E2E2E2E2E2E2E2E2E2E2E2E2E2E2E2E2E2E2E2E2E2E2E2E2E2E2E2E2E2C3C3C3E2C3C3C3E2E2C3C3C3C3C3C3C3C3C3E2C3C3C3C3C3C3C3C3C3E2E2E2E2E2E2E2E2E2E2E2E2E2E2E2E2E2E2E2E2E2E2E2E2E2E2E2E2E2E2E2C3E2E2E2E2E2E2E2E2E2E2E2E2E2E2E2E2E2E2E2
310
E2E2E2E2E2E2E2E2E2E2E2E2E2E2E2E2E2E2E22DE2E2E2E2E2F5E2E2F5F5F5E2E2F5E2E22DE2E2E2E2E2E2E2E2E2E2E2E2E2E2E2E2E2E2E2E2E2E2E2E2E2E2E2E2E2E2E2E2C3E2C3E2E2E2E2E2E2E2E2E2E2E2E2E2E2E2E2E2E2E2E2E2E2E2E2E2E2E2E2E2E2E2E2E2E2E2E2E2E2E2E2E2E2E2E2E2E2E2E2E2E2E2E2E2E2E2
310
E2E2E2E2E2E2E2E2E2E2E2E2E2E2E2E2E2E2E2E2E2E2E2E2E2E2E2E2E2E2E2C3E2C3E2E2E2E2E2E2E2E2E2E2E2E2E2E2E2E2E2E2E2E2E2E2E2E2E2E2E2E2E2E2E2E2E2E2E2E2E2E22DE2E2E2E2E2F5E2E2F5F5F5E2E2E2E2E22DE2E2E2E2E2E2E2E2E2E2E2E2E2E2E2E2E2E2E2E2E2E2E2C3C3C3C3C3C3C3C3C3C3E2C3C3C3
310
C3C3C3C3C3C3C3C3C3C3C3C3C3C3C3C3C3C3C3C3C3C3C3C3C3C3C3C3C3C3C3C3C3C3C3C3C3C3C3C3C3E2E2C3C3C3C3E2C3C3C3C3C3C3C3C3C3C3C3C3C3C3C3C3C3C3C3C3C3C3C3C3C3C3C3C3C3C3C3C3C3C3C3C3C3E2C3E2E2E2E2E2C3C3C3C3C3E2E2E2E2E2E2E2E2E2E2E2E2E2E2E2E2E2E2E2E2E2E2E2E2E2E2E2E22DE2
310
E2E2E2E2E2E2E2F5F5F5E2E2E2E2E22DE2E2E2E2E2E2E2E2E2E2E2E2E2E2E2E2E2E2E2E2E2E2E2C3C3C3C3C3C3E2E2C3C3E2C3C3E2E2E2E2E2E2E2E2E2E2E2E2E2E2E2E2E2E2E2E2E2E2E2E2E2E2E2E2E2E2E2E2E2E2E2C3C3C3C3C3C3C3E2C3E2C3C3C3C3E2E2E2E2E2E2E2E2E2E2E2E2E2E2E2E2E2E2E2E2E2E2E2E2E2E2
310
E2E2E2E2E2E2E2E2E2C3C3E2C3E2E2E2E2C3C3C3C3C3C3C3C3C3E2E2E2E2E2E2E2E2E2E2E2E2E2E2E2E2E2E2E2E2E2E2E2E2E22DE2E2E2E2E2E2E2E2F5F5F5E2E2E2E2E22DE2E2E2E2E2E2E2E2E2E2E2E2E2E2E2E2E2E2E2E2E2E2E2E2E2E2E2E2E2E2E2E2C3E2C3E2E2E2E2E2E2E2E2E2E2E2E2E2E2E2E2E2E2E2E2E2E2E2
310
E2E2E2E2E2E2E2E2E2E2E2E2E2E2E2E2E2E2E2E2E2E2E2E2E2E2E2E2E2E2E2E2E2E2E2E2E2E2E2E2E2E2E2E2E2E2E2E2E2E2E2E2E2E2E2E2E2E2E2E2E2E2E2C3E2C3E2E2E2E2E2C3C3C3C3C3E2C3C3E2E2E2E2E2E2E2E2E2E2E2E2E2E2E2E2E2E2E2E2E2E2E2E2E22DE2E2E2E2E2E2E2E2F5F5F5E2E2E2E2E22DE2E2E2E2E2
310
E2E2E2E2E2E2E2E2E2E2E2E2E2E2E2E2E2E2E2E2E2E2E2E2E2E2E2C3BEC3C3C3DCC3C3C3DCC3C3C3DCC3C3C3DCC3C3C3DCC3C3C3DCC3C3C3DCC3C3C3DCC3C3C3DCC3C3C3DCC3C3C3DCC3C3C3DCC3C3C3DCC3C3DCC3C3C3DCC3C3C3DCC3C3C3DCC3C3C3DCC3C3C3DCC3C3C3DCC3C3C3DCC3C3C3DCC3C3C3C3C3C3C3C3C3C3C3
310
C3C3C3C3C3C3C3C3C3C3C3C3E2E2E2E2E2E2E2E2E2E2E2E2E2E2E2E2E2E22DE2E2E2E2E2E2E2E2F5F5F5E2E2E2E2E22DE2E2E2E2E2E2E2E2E2E2E2E2E2E2E2E2E2E2E2E2E2E2E2E2E2E2E2E2E2E2E2E2C3C3C3C3C3C3C3C3C3C3C3C3C3C3C3C3C3C3C3C3C3C3C3C3C3C3C3C3C3C3C3C3DCC3C3C3DCC3C3C3DCC3C3C3DCC3C3
310
C3DCC3C3C3DCC3C3C3C3C3C3C3C3C3C3C3C3C3C3C3C3C3C3C3C3C3C3C3C3C3C3C3C3C3C3C3C3C3C3DCC3C3C3C3E2E2E2E2E2E2E2E2E2E2E2E2E2E2E2E2E2E2C3E2E2E2E2E2E2E2E2E2E2E2E2E2E2E2E2E2E2E22DE2E2E2E2E2E2E2E2F5F5F5E2E2E2E2E22DE2E2E2E2E2E2E2E2E2E2E2E2E2E2E2E2E2E2E2E2E2E2E2E2E2E2
310
E2E2E2E2E2E2DCC3C3E2E2E2E2E2E2E2E2E2E2E2E2E2E2E2E2E2E2E2E2E2E2E2E2E2E2E2E2E2E2E2E2E2E2E2E2E2E2E2E2E2E2E2E2E2E2E2E2E2E2E2E2E2E2E2E2E2E2E2E2E2E2E2E2E2E2E2E2E2E2E2E2E2E2E2E2E2E2E2E2E2E2E2E2E2E2C3E2C3C3C3C3C3C3C3C3C3C3C3C3C3C3C3E2E2E2E2C3E2E2E2E2E2E2E2E2E2E2
310
E2E2E2E2E2E2E2E2E22DE2E2E2E2E2E2E2E2F5F5F5E2E2E2E2E22DE2E2E2E2E2E2E2E2E2E2E2E2E2E2E2E2E2E2E2E2E2E2E2E2E2E2E2E2E2E2E2E2C3C3DCE2E2E2E2E2E2E2E2E2E2E2E2E2E2E2E2E2E2E2E2E2E2E2E2E2E2E2E2E2E2E2E2E2E2E2E2E2E2E2E2E2E2E2E2E2E2E2E2E2E2E2E2E2E2E2E2E2E2E2E2E2E2E2E2E2
310
E2E2E2E2E2E2E2E2E2E2E2E2E2E2E2E2E2E2E2E2E2C3C3C3E2E2E2E2E2E2E2E2E2C3E2C3C3E2E2E2E2E2C3E2E2E2E2E2E2E2E2E2E2E2E2E2E2E2E2E2E2E22DE2E2E2E2E2E2E2E2F5F5F5E2E2E2E2E22DE2E2E2E2E2E2E2E2E2E2E2E2E2E2E2E2E2E2E2E2E2E2E2E2E2E2E2E2E2E2E2E2C3E2C3E2E2E2E2E2E2E2E2E2E2E2E2
310
E2E2E2E2E2E2E2E2E2E2E2E2E2E2E2E2E2E2E2E2E2E2E2E2E2E2E2E2E2E2E2E2E2E2E2E2E2E2E2E2E2E2E2E2E2E2E2E2E2E2E2E2E2E2E2E2E2E2E2E2E2E2E2E2E2E2E2E2E2E2E2E2E2E2DCC3C3E2E2E2E2E2E2E2E2E2C3E2E2C3E2E2E2E2E2C3E2E2E2E2E2E2E2E2E2E2E2E2E2E2E2E2E2E2E22DE2E2E2E2E2E2E2E2F5F5F5
310
E2E2E2E2E22DE2E2E2E2E2E2E2E2E2E2E2E2E2E2E2E2E2E2E2E2E2E2E2E2E2E2E2E2E2E2E2E2C3C3C3E2E2E2E2E2E2E2E2E2E2E2E2E2E2E2E2E2E2E2E2E2E2E2E2E2E2E2E2E2E2E2E2E2E2E2E2E2E2E2E2E2E2E2E2E2E2E2E2E2E2E2E2E2E2E2E2E2E2E2E2E2E2E2E2E2E2E2E2E2E2E2E2E2E2E2E2E2E2E2E2E2E2E2E2E2E2
310
C3C3DCE2E2E2E2E2E2E2E2E2C3E2E2E2E2E2E2E2E2C3E2E2E2E2E2E2E2E2E2E2E2E2E2E2E2E2E2E2E22DE2E2E2E2E2E2E2E2F5F5F5E2E2F5E2E22DE2E2E2E2E2E2E2E2E2E2E2E2E2E2E2E2E2E2E2E2E2E2E2E2E2E2E2E2E2E2E2E2DCC3C3E2E2E2E2E2E2E2E2E2E2E2E2E2E2E2E2E2E2E2E2E2E2E2E2E2E2E2E2E2E2E2E2E2
310
E2E2E2E2E2E2E2E2E2E2E2E2E2E2E2E2E2E2E2E2E2E2E2E2E2E2E2E2E2E2E2E2E2E2E2E2E2E2E2E2E2E2E2E2E2E2E2E2E2E2E2E2E2C3E2C3E2E2E2E2E2E2E2E2E2C3E2E2E2E2E2E2E2E2C3E2E2E2E2E2E2E2E2E2E2E2E2E2E2E2E2E2E2E22DE2E2E2E2E2F5E2E2F5F5F5E2E2F5E2E22DE2E2E2E2E2E2E2E2E2E2E2E2E2E2E2
310
E2E2E2E2E2E2E2E2E2E2E2E2E2E2E2E2E2C3C3DCE2E2E2E2E2E2E2E2E2E2E2E2E2E2E2E2E2E2E2E2E2E2E2E2E2E2E2E2E2E2E2E2E2E2E2E2E2E2E2E2E2E2E2E2E2E2E2E2E2E2E2E2E2E2E2E2E2E2E2E2E2E2E2E2E2E2E2E2E2E2E2E2E2E2E2E2E2E2E2E2E2E2E2E2E2E2DCC3C3E2E2E2E2E2E2E2E2E2C3E2E2E2E2E2E2E2E2
310
C3E2E2E2E2E2E2E2E2E2E2E2E2E2E2E2E2E2E2E22DE2E2E2E2E2F5E2E2F5F5F5E2E2F5E2E22DE2E2E2E2E2E2E2E2E2E2E2E2E2E2E2E2E2E2E2E2E2E2E2E2E2E2E2E2E2E2E2E2C3E2C3E2E2E2E2E2E2E2E2E2E2E2E2E2E2E2E2E2E2E2E2E2E2E2E2E2E2E2E2E2E2E2E2E2E2E2E2E2E2E2E2E2E2E2E2E2E2E2E2E2E2E2E2E2E2
310
E2E2E2E2E2E2E2E2E2E2E2E2E2E2E2E2E2E2E2E2E2E2E2E2E2E2E2E2E2E2E2E2C3C3C3E2E2E2E2E2E2E2E2E2C3E2E2E2E2E2E2E2E2C3E2E2E2E2E2E2E2E2E2E2E2E2E2E2E2E2E2E2E22DE2E2E2E2E2F5E2E2F5F5F5E2E2F5E2E22DE2E2E2E2E2E2E2E2E2E2E2E2E2E2E2E2E2E2E2E2E2E2E2E2E2E2E2E2E2E2E2E2DCC3C3E2
310
E2E2E2E2E2E2E2E2E2E2E2E2E2E2E2E2E2E2E2E2E2E2E2E2E2E2E2E2E2E2E2E2E2E2E2E2E2E2E2E2E2E2E2E2E2E2E2E2E2E2E2E2E2E2E2E2E2E2E2E2E2E2E2E2E2E2E2E2E2E2E2E2E2E2E2E2E2E2E2E2E2E2E2E2E2C3C3DCE2E2E2E2E2E2E2E2E2C3E2E2E2E2E2E2E2E2C3E2E2E2E2E2E2E2E2E2E2E2E2E2E2E2E2E2E2E22D
310
E2E2E2E2E2F5E2E2F5F5F5E2E2F5E2E22DE2E2E2E2E2E2E2E2E2E2E2E2E2E2E2E2E2E2E2E2E2E2E2E2E2E2E2E2E2E2E2E2C3C3C3E2E2E2E2E2E2E2E2E2E2E2E2E2E2E2E2E2E2E2E2E2E2E2E2E2E2E2E2E2E2E2E2E2E2E2E2E2E2E2E2E2E2E2E2E2E2E2E2E2E2E2E2E2E2E2E2E2E2E2E2E2E2E2E2E2E2E2E2E2E2E2E2E2E2E2
310
E2E2E2E2E2E2E2E2E2E2E2C3E2C3E2E2E2E2E2E2E2E2E2C3E2E2E2E2E2E2E2E2C3E2E2E2E2E2E2E2E2E2E2E2E2E2E2E2E2E2E2E22DE2E2E2E2E2F5E2E2F5F5F5E2E2F5E2E22DE2E2E2E2E2E2E2E2E2E2E2E2E2E2E2E2E2E2E2E2E2E2E2E2E2E2E2E2E2E2E2E2C3C3DCE2E2E2E2E2E2E2E2E2E2E2E2E2E2E2E2E2E2E2E2E2E2
310
E2E2E2E2E2E2E2E2E2E2E2E2E2E2E2E2E2E2E2E2E2E2E2E2E2E2E2E2E2E2E2E2E2E2E2E2E2E2E2E2E2E2E2E2E2E2E2E2E2E2E2E2E2E2E2E2E2E2E2E2E2E2E2E2DCC3C3E2E2E2E2E2E2E2E2E2C3E2E2E2E2E2E2E2E2C3E2E2E2E2E2E2E2E2E2E2E2E2E2E2E2E2E2E2E22DE2E2E2E2E2F5E2E2F5F5F5E2E2F5E2E22DE2E2E2E2
310
E2E2E2E2E2E2E2E2E2E2E2E2E2E2E2E2E2E2E2E2E2E2E2E2E2E2E2E2C3E2C3E2E2E2E2E2E2E2E2E2E2E2E2E2E2E2E2E2E2E2E2E2E2E2E2E2E2E2E2E2E2E2E2E2E2E2E2E2E2E2E2E2E2E2E2E2E2E2E2E2E2E2E2E2E2E2E2E2E2E2E2E2E2E2E2E2E2E2E2E2E2E2E2E2E2E2E2E2E2E2E2E2E2E2E2E2E2C3C3C3E2E2E2E2E2E2E2
310
E2E2C3E2E2E2E2E2E2E2E2C3E2E2E2E2E2E2E2E2E2E2E2E2E2E2E2E2E2E2E22DE2E2E2E2E2F5E2E2F5F5F5E2E2F5E2E22DE2E2E2E2E2E2E2E2E2E2E2E2E2E2E2E2E2E2E2E2E2E2E2E2E2E2E2E2E2E2E2E2DCC3C3E2E2E2E2E2E2E2E2E2E2E2E2E2E2E2E2E2E2E2E2E2E2E2E2E2E2E2E2E2E2E2E2E2E2E2E2E2E2E2E2E2E2E2
310
E2E2E2E2E2E2E2E2E2E2E2E2E2E2E2E2E2E2E2E2E2E2E2E2E2E2E2E2E2E2E2E2E2E2E2E2E2E2E2E2E2E2E2C3C3DCE2E2E2E2E2E2E2E2E2C3E2E2E2E2E2E2E2E2C3E2E2E2E2E2E2E2E2E2E2E2E2E2E2E2E2E2E2E22DE2E2E2E2E2F5E2E2F5F5F5E2E2F5E2E22DE2E2E2E2E2E2E2E2E2E2E2E2E2E2E2E2E2E2E2E2E2E2E2E2E2
310
E2E2E2E2E2E2E2C3C3C3E2E2E2E2E2E2E2E2E2E2E2E2E2E2E2E2E2E2E2E2E2E2E2E2E2E2E2E2E2E2E2E2E2E2E2E2E2E2E2E2E2E2E2E2E2E2E2E2E2E2E2E2E2E2E2E2E2E2E2E2E2E2E2E2E2E2E2E2E2E2E2E2E2E2E2E2E2E2E2E2E2E2E2E2E2E2C3E2C3E2E2E2E2E2E2E2E2E2C3E2E2E2E2E2E2E2E2C3E2E2E2E2E2E2E2E2E2
310
E2E2E2E2E2E2E2E2E2E22DE2E2E2E2E2F5E2E2F5F5F5E2E2F5E2E22DE2E2E2E2E2E2E2E2E2E2E2E2E2E2E2E2E2E2E2E2E2E2E2E2E2E2E2E2E2E2E2E2C3C3DCE2E2E2E2E2E2E2E2E2E2E2E2E2E2E2E2E2E2E2E2E2E2E2E2E2E2E2E2E2E2E2E2E2E2E2E2E2E2E2E2E2E2E2E2E2E2E2E2E2E2E2E2E2E2E2E2E2E2E2E2E2E2E2E2
310
E2E2E2E2E2E2E2E2E2E2E2E2E2E2E2E2E2E2E2E2E2E2DCC3C3E2E2E2E2E2E2E2E2E2C3E2E2E2E2E2E2E2E2C3E2E2E2E2E2E2E2E2E2E2E2E2E2E2E2E2E2E2E22DE2E2E2E2E2F5E2E2F5F5F5E2E2F5E2E22DE2E2E2E2E2E2E2E2E2E2E2E2E2E2E2E2E2E2E2E2E2E2E2E2E2E2E2E2E2E2E2E2C3E2C3E2E2E2E2E2E2E2E2E2E2E2
310
E2E2E2E2E2E2E2E2E2E2E2E2E2E2E2E2E2E2E2E2E2E2E2E2E2E2E2E2E2E2E2E2E2E2E2E2E2E2E2E2E2E2E2E2E2E2E2E2E2E2E2E2E2E2E2E2E2E2E2E2E2E2E2E2E2E2E2E2E2E2E2E2E2E2E2C3C3DCE2E2E2E2E2E2E2E2E2C3E2E2E2E2E2E2E2E2C3E2E2E2E2E2E2E2E2E2E2E2E2E2E2E2E2E2E2E22DE2E2E2E2E2F5E2E2F5F5
310
F5E2E2F5E2E22DE2E2E2E2E2E2E2E2E2E2E2E2E2E2E2E2E2E2E2E2E2E2E2E2E2E2E2E2E2E2E2E2DCC3C3E2E2E2E2E2E2E2E2E2E2E2E2E2E2E2E2E2E2E2E2E2E2E2E2E2E2E2E2E2E2E2E2E2E2E2E2E2E2E2E2E2E2E2E2E2E2E2E2E2E2E2E2E2E2E2E2E2E2E2E2E2E2E2E2E2E2E2E2E2E2E2E2E2E2E2E2E2E2E2E2E2E2E2E2E2
310
E2C3E2C3E2E2E2E2E2E2E2E2E2C3E2E2E2E2E2E2E2E2C3E2E2E2E2E2E2E2E2E2E2E2E2E2E2E2E2E2E2E22DE2E2E2E2E2F5E2E2F5F5F5E2E2F5E2E22DE2E2E2E2E2E2E2E2E2E2E2E2E2E2E2E2E2E2E2E2E2E2E2E2E2E2E2E2E2E2E2E2C3C3DCE2E2E2E2E2E2E2E2E2E2E2E2E2E2E2E2E2E2E2E2E2E2E2E2E2E2E2E2E2E2E2E2
310
E2E2E2E2E2E2E2E2E2E2E2E2E2E2E2E2E2E2E2E2E2E2E2E2E2E2E2E2E2E2E2E2E2E2E2E2E2E2E2E2E2E2E2E2E2E2E2E2E2E2E2E2E2E2C3C3C3E2E2E2E2E2E2E2E2E2C3E2E2E2E2E2E2E2E2C3E2E2E2E2E2E2E2E2E2E2E2E2E2E2E2E2E2E2E22DE2E2E2E2E2F5E2E2F5F5F5E2E2F5E2E22DE2E2E2E2E2E2E2E2E2E2E2E2E2E2
310
E2E2E2E2E2E2E2E2E2E2E2E2E2E2E2E2E2E2C3E2C3E2E2E2E2E2E2E2E2E2E2E2E2E2E2E2E2E2E2E2E2E2E2E2E2E2E2E2E2E2E2E2E2E2E2E2E2E2E2E2E2E2E2E2E2E2E2E2E2E2E2E2E2E2E2E2E2E2E2E2E2E2E2E2E2E2E2E2E2E2E2E2E2E2E2E2E2E2E2E2E2E2E2E2E2E2E2DCC3C3E2E2E2E2E2E2E2E2E2C3E2E2E2E2E2E2E2
310
E2C3E2E2E2E2E2E2E2E2E2E2E2E2E2E2E2E2E2E2E22DE2E2E2E2E2F5E2E2F5F5F5E2E2F5E2E22DE2E2E2E2E2E2E2E2E2E2E2E2E2E2E2E2E2E2E2E2E2E2E2E2E2E2E2E2E2E2E2E2C3C3C3E2E2E2E2E2E2E2E2E2E2E2E2E2E2E2E2E2E2E2E2E2E2E2E2E2E2E2E2E2E2E2E2E2E2E2E2E2E2E2E2E2E2E2E2E2E2E2E2E2E2E2E2E2
310
E2E2E2E2E2E2E2E2E2E2E2E2E2E2E2E2E2E2E2E2E2E2E2E2E2E2E2E2E2E2E2E2E2C3C3DCE2E2E2E2E2E2E2E2E2C3E2E2E2E2E2E2E2E2C3E2E2E2E2E2E2E2E2E2E2E2E2E2E2E2E2E2E2E22DE2E2E2E2E2F5E2E2F5F5F5E2E2F5E2E22DE2E2E2E2E2E2E2E2E2E2E2E2E2E2E2E2E2E2E2E2E2E2E2E2E2E2E2E2E2E2E2E2DCC3C3
310
E2E2E2E2E2E2E2E2E2E2E2E2E2E2E2E2E2E2E2E2E2E2E2E2E2E2E2E2E2E2E2E2E2E2E2E2E2E2E2E2E2E2E2E2E2E2E2E2E2E2E2E2E2E2E2E2E2E2E2E2E2E2E2E2E2E2E2E2E2E2E2E2E2E2E2E2E2E2E2E2E2E2E2E2E2E2C3E2C3E2E2E2E2E2E2E2E2E2C3E2E2E2E2E2E2E2E2C3E2E2E2E2E2E2E2E2E2E2E2E2E2E2E2E2E2E2E2
310
2DE2E2E2E2E2F5E2E2F5F5F5E2E2F5E2E22DE2E2E2E2E2E2E2E2E2E2E2E2E2E2E2E2E2E2E2E2E2E2E2E2E2E2E2E2E2E2E2E2C3C3DCE2E2E2E2E2E2E2E2E2E2E2E2E2E2E2E2E2E2E2E2E2E2E2E2E2E2E2E2E2E2E2E2E2E2E2E2E2E2E2E2E2E2E2E2E2E2E2E2E2E2E2E2E2E2E2E2E2E2E2E2E2E2E2E2E2E2E2E2E2E2E2E2E2E2
310
E2E2E2E2E2E2E2E2E2E2E2E2DCC3C3E2E2E2E2E2E2E2E2E2C3E2E2E2E2E2E2E2E2C3E2E2E2E2E2E2E2E2E2E2E2E2E2E2E2E2E2E2E22DE2E2E2E2E2F5E2E2F5F5F5E2E2E2E2E22DE2E2E2E2E2E2E2E2E2E2E2E2E2E2E2E2E2E2E2E2E2E2E2E2E2E2E2E2E2E2E2E2C3E2C3E2E2E2E2E2E2E2E2E2E2E2E2E2E2E2E2E2E2E2E2E2
310
E2E2E2E2E2E2E2E2E2E2E2E2E2E2E2E2E2E2E2E2E2E2E2E2E2E2E2E2E2E2E2E2E2E2E2E2E2E2E2E2E2E2E2E2E2E2E2E2E2E2E2E2E2E2E2E2E2E2E2E2E2E2E2E2E2C3C3C3E2E2E2E2E2E2E2E2E2C3E2E2E2E2E2E2E2E2C3E2E2E2E2E2E2E2E2E2E2E2E2E2E2E2E2E2E2E22DE2E2E2E2E2E2E2E2F5F5F5E2E2E2E2E22DE2E2E2
310
E2E2E2E2E2E2E2E2E2E2E2E2E2E2E2E2E2E2E2E2E2E2E2E2E2E2E2E2E2DCC3C3E2E2E2E2E2E2E2E2E2E2E2E2E2E2E2E2E2E2E2E2E2E2E2E2E2E2E2E2E2E2E2E2E2E2E2E2E2E2E2E2E2E2E2E2E2E2E2E2E2E2E2E2E2E2E2E2E2E2E2E2E2E2E2E2E2E2E2E2E2E2E2E2E2E2E2E2E2E2E2E2E2E2E2E2E2E2C3C3DCE2E2E2E2E2E2
310
E2C3C3C3C3C3E2E2E2E2E2E2C3E2E2E2E2E2E2E2E2E2E2E2E2E2E2E2E2E2E2E22DE2E2E2E2E2E2E2E2F5F5F5E2E2E2E2E22DE2E2E2E2E2E2E2E2E2E2E2E2E2E2E2E2E2E2E2E2E2E2E2E2E2E2E2E2E2E2E2E2C3C3C3E2E2E2E2E2E2E2E2E2E2E2E2E2E2E2E2E2E2E2E2E2E2E2E2E2E2E2E2E2E2E2E2E2E2E2E2E2E2E2E2E2E2
310
E2E2E2E2E2E2E2E2E2E2E2E2E2E2E2E2E2E2E2E2E2E2E2E2E2E2E2E2E2E2E2E2E2E2E2E2E2E2E2E2E2E2E2E2C3E2C3E2E2E2E2E2E2E2C3C3C3C3C3E2E2E2E2E2E2E2E2E2E2E2E2E2E2E2E2E2E2E2E2E2E2E2E2E2E22DE2E2E2E2E2E2E2E2F5F5F5E2E2E2E2E22DE2E2E2E2E2E2E2E2E2E2E2E2E2E2E2E2E2E2E2E2E2E2E2E2
310
E2E2E2E2E2E2E2E2C3C3DCE2E2E2E2E2E2E2E2E2E2E2E2E2E2E2E2E2E2E2E2E2E2E2E2E2E2E2E2E2E2E2E2E2E2E2E2E2E2E2E2E2E2E2E2E2E2E2E2E2E2E2E2E2E2E2E2E2E2E2E2E2E2E2E2E2E2E2E2E2E2E2E2E2E2E2E2E2E2E2E2E2E2E2E2E2E2DCC3C3E2E2E2E2E2E2E2C3C3C3C3C3E2E2E2C3C3C3C3C3C3C3E2E2E2E2E2
310
E2E2E2E2E2E2E2E2E2E2E22DE2E2E2E2E2E2E2E2F5F5F5E2E2E2E2E22DE2E2E2E2E2E2E2E2E2E2E2E2E2E2E2E2E2E2E2E2E2E2E2E2E2E2E2E2E2E2E2E2C3E2C3E2E2E2E2E2E2E2E2E2E2E2E2E2E2E2E2E2E2E2E2E2E2E2E2E2E2E2E2E2E2E2E2E2E2E2E2E2E2E2E2E2E2E2E2E2E2E2E2E2E2E2E2E2E2E2E2E2E2E2E2E2E2E2
310
E2E2E2E2E2E2E2E2E2E2E2E2E2E2E2E2E2E2E2E2E2E2E2C3C3C3E2E2E2E2E2E2C3C3C3C3C3C3C3E2E2C3C3C3E2C3C3C3E2E2E2E2E2E2E2E2E2E2E2E2E2E2E2E22DE2E2E2E2E2E2E2E2F5F5F5E2E2E2E2E22DE2E2E2E2E2E2E2E2E2E2E2E2E2E2E2E2E2E2E2E2E2E2E2E2E2E2E2E2E2E2E2E2DCC3C3E2E2E2E2E2E2E2E2E2E2
310
E2E2E2E2E2E2E2E2E2E2E2E2E2E2E2E2E2E2E2E2E2E2E2E2E2E2E2E2E2E2E2E2E2E2E2E2E2E2E2E2E2E2E2E2E2E2E2E2E2E2E2E2E2E2E2E2E2E2E2E2E2E2E2E2E2E2E2E2E2E2E2E2E2E2E2E2C3C3DCE2E2E2E2E2E2C3C3C3C3C3C3C3E2E2E2E2E2E2E2E2E2E2E2E2E2E2E2E2E2E2E2E2E2E2E2E2E22DE2E2E2E2E2E2E2E2F5
310
F5F5E2E2E2E2E22DE2E2E2E2E2E2E2E2E2E2E2E2E2E2E2E2E2E2E2E2E2E2E2E2E2E2E2E2E2E2E2E2C3C3C3E2E2E2E2E2E2E2E2E2E2E2E2E2E2E2E2E2E2E2E2E2E2E2E2E2E2E2E2E2E2E2E2E2E2E2E2E2E2E2E2E2E2E2E2E2E2E2E2E2E2E2E2E2E2E2E2E2E2E2E2E2E2E2E2E2E2E2E2E2E2E2E2E2E2E2E2E2E2E2E2E2E2E2E2
310
E2E2C3E2C3E2E2E2E2E2E2E2E2E2E2E2E2E2E2E2E2E2E2C3E2E2E2E2E2E2E2E2E2E2E2E2E2E2E2E2E2E2E22DE2E2E2E2E2E2E2E2F5F5F5E2E2E2E2E22DE2E2E2E2E2E2E2E2E2E2E2E2E2E2E2E2E2E2E2E2E2E2E2E2E2E2E2E2E2E2E2E2C3C3DCE2E2E2E2E2E2E2E2E2E2E2E2E2E2E2E2E2E2E2E2E2E2E2E2E2E2E2E2E2E2E2
310
E2E2E2E2E2E2E2E2E2E2E2E2E2E2E2E2E2E2E2E2E2E2E2E2E2E2E2E2E2E2E2E2E2E2E2E2E2E2E2E2E2E2E2E2E2E2E2E2E2E2E2E2E2E2E2DCC3C3E2E2E2E2E2E2E2E2E2C3E2E2E2E2E2E2E2E2C3E2E2E2E2E2E2E2E2E2E2E2E2E2E2E2E2E2E2E22DE2E2E2E2E2E2E2E2F5F5F5E2E2E2E2E22DE2E2E2E2E2E2E2E2E2E2E2E2E2
310
E2E2E2E2E2E2E2E2E2E2E2E2E2E2E2E2E2E2E2C3E2C3E2E2E2E2E2E2E2E2E2E2E2E2E2E2E2E2E2E2E2E2E2E2E2E2E2E2E2E2E2E2E2E2E2E2E2E2E2E2E2E2E2E2E2E2E2E2E2E2E2E2E2E2E2E2E2E2E2E2E2E2E2E2E2E2E2E2E2E2E2E2E2E2E2E2E2E2E2E2E2E2E2E2E2E2E2E2C3C3C3E2E2E2E2E2E2E2E2E2C3E2E2E2E2E2E2
310
E2E2C3E2E2E2E2E2E2E2E2E2E2E2E2E2E2E2E2E2E2E22DE2E2E2E2E2E2E2E2F5F5F5E2E2F5E2E22DE2E2E2E2E2E2E2E2E2E2E2E2E2E2E2E2E2E2E2E2E2E2E2E2E2E2E2E2E2E2E2E2DCC3C3E2E2E2E2E2E2E2E2E2E2E2E2E2E2E2E2E2E2E2E2E2E2E2E2E2E2E2E2E2E2E2E2E2E2E2E2E2E2E2E2E2E2E2E2E2E2E2E2E2E2E2E2
310
E2E2E2E2E2E2E2E2E2E2E2E2E2E2E2E2E2E2E2E2E2E2E2E2E2E2E2E2E2E2E2E2E2E2C3C3DCE2E2E2E2E2E2E2E2E2C3E2E2E2E2E2E2E2E2C3E2E2E2E2E2E2E2E2E2E2E2E2E2E2E2E2E2E2E22DE2E2E2E2E2F5E2E2F5F5F5E2E2F5E2E22DE2E2E2E2E2E2E2E2E2E2E2E2E2E2E2E2E2E2E2E2E2E2E2E2E2E2E2E2E2E2E2E2C3C3
310
C3E2E2E2E2E2E2E2E2E2E2E2E2E2E2E2E2E2E2E2E2E2E2E2E2E2E2E2E2E2E2E2E2E2E2E2E2E2E2E2E2E2E2E2E2E2E2E2E2E2E2E2E2E2E2E2E2E2E2E2E2E2E2E2E2E2E2E2E2E2E2E2E2E2E2E2E2E2E2E2E2E2E2E2E2E2E2C3E2C3E2E2E2E2E2E2E2E2E2C3E2E2E2E2E2E2E2E2C3E2E2E2E2E2E2E2E2E2E2E2E2E2E2E2E2E2E2
310
E22DE2E2E2E2E2F5E2E2F5F5F5E2E2F5E2E22DE2E2E2E2E2E2E2E2E2E2E2E2E2E2E2E2E2E2E2E2E2E2E2E2E2E2E2E2E2E2E2E2C3C3DCE2E2E2E2E2E2E2E2E2E2E2E2E2E2E2E2E2E2E2E2E2E2E2E2E2E2E2E2E2E2E2E2E2E2E2E2E2E2E2E2E2E2E2E2E2E2E2E2E2E2E2E2E2E2E2E2E2E2E2E2E2E2E2E2E2E2E2E2E2E2E2E2E2
310
E2E2E2E2E2E2E2E2E2E2E2E2E2DCC3C3E2E2E2E2E2E2E2E2E2C3E2E2E2E2E2E2E2E2C3E2E2E2E2E2E2E2E2E2E2E2E2E2E2E2E2E2E2E22DE2E2E2E2E2F5E2E2F5F5F5E2E2F5E2E22DE2E2E2E2E2E2E2E2E2E2E2E2E2E2E2E2E2E2E2E2E2E2E2E2E2E2E2E2E2E2E2E2C3E2C3E2E2E2E2E2E2E2E2E2E2E2E2E2E2E2E2E2E2E2E2
310
E2E2E2E2E2E2E2E2E2E2E2E2E2E2E2E2E2E2E2E2E2E2E2E2E2E2E2E2E2E2E2E2E2E2E2E2E2E2E2E2E2E2E2E2E2E2E2E2E2E2E2E2E2E2E2E2E2E2E2E2E2E2E2E2E2E2C3C3DCE2E2E2E2E2E2E2E2E2C3E2E2E2E2E2E2E2E2C3E2E2E2E2E2E2E2E2E2E2E2E2E2E2E2E2E2E2E22DE2E2E2E2E2F5E2E2F5F5F5E2E2F5E2E22DE2E2
310
E2E2E2E2E2E2E2E2E2E2E2E2E2E2E2E2E2E2E2E2E2E2E2E2E2E2E2E2E2E2DCC3C3E2E2E2E2E2E2E2E2E2E2E2E2E2E2E2E2E2E2E2E2E2E2E2E2E2E2E2E2E2E2E2E2E2E2E2E2E2E2E2E2E2E2E2E2E2E2E2E2E2E2E2E2E2E2E2E2E2E2E2E2E2E2E2E2E2E2E2E2E2E2E2E2E2E2E2E2E2E2E2E2E2E2E2E2E2E2C3E2C3E2E2E2E2E2
310
E2E2E2E2C3E2E2E2E2E2E2E2E2C3E2E2E2E2E2E2E2E2E2E2E2E2E2E2E2E2E2E2E22DE2E2E2E2E2F5E2E2F5F5F5E2E2F5E2E22DE2E2E2E2E2E2E2E2E2E2E2E2E2E2E2E2E2E2E2E2E2E2E2E2E2E2E2E2E2E2E2E2C3C3DCE2E2E2E2E2E2E2E2E2E2E2E2E2E2E2E2E2E2E2E2E2E2E2E2E2E2E2E2E2E2E2E2E2E2E2E2E2E2E2E2E2
310
E2E2E2E2E2E2E2E2E2E2E2E2E2E2E2E2E2E2E2E2E2E2E2E2E2E2E2E2E2E2E2E2E2E2E2E2E2E2E2E2E2E2E2E2E2C3C3C3E2E2E2E2E2E2E2E2E2C3E2E2E2E2E2E2E2E2C3E2E2E2E2E2E2E2E2E2E2E2E2E2E2E2E2E2E2E22DE2E2E2E2E2F5E2E2F5F5F5E2E2F5E2E22DE2E2E2E2E2E2E2E2E2E2E2E2E2E2E2E2E2E2E2E2E2E2E2
310
E2E2E2E2E2E2E2E2E2C3E2C3E2E2E2E2E2E2E2E2E2E2E2E2E2E2E2E2E2E2E2E2E2E2E2E2E2E2E2E2E2E2E2E2E2E2E2E2E2E2E2E2E2E2E2E2E2E2E2E2E2E2E2E2E2E2E2E2E2E2E2E2E2E2E2E2E2E2E2E2E2E2E2E2E2E2E2E2E2E2E2E2E2E2E2E2E2E2DCC3C3E2E2E2E2E2E2E2E2E2C3E2E2E2E2E2E2E2E2C3E2E2E2E2E2E2E2
310
E2E2E2E2E2E2E2E2E2E2E2E22DE2E2E2E2E2F5E2E2F5F5F5E2E2F5E2E22DE2E2E2E2E2E2E2E2E2E2E2E2E2E2E2E2E2E2E2E2E2E2E2E2E2E2E2E2E2E2E2E2C3C3C3E2E2E2E2E2E2E2E2E2E2E2E2E2E2E2E2E2E2E2E2E2E2E2E2E2E2E2E2E2E2E2E2E2E2E2E2E2E2E2E2E2E2E2E2E2E2E2E2E2E2E2E2E2E2E2E2E2E2E2E2E2E2
310
E2E2E2E2E2E2E2E2E2E2E2E2E2E2E2E2E2E2E2E2E2E2E2E2C3C3DCE2E2E2E2E2E2E2E2E2C3E2E2E2E2E2E2E2E2C3E2E2E2E2E2E2E2E2E2E2E2E2E2E2E2E2E2E2E22DE2E2E2E2E2F5E2E2F5F5F5E2E2F5E2E22DE2E2E2E2E2E2E2E2E2E2E2E2E2E2E2E2E2E2E2E2E2E2E2E2E2E2E2E2E2E2E2E2DCC3C3E2E2E2E2E2E2E2E2E2
310
E2E2E2E2E2E2E2E2E2E2E2E2E2E2E2E2E2E2E2E2E2E2E2E2E2E2E2E2E2E2E2E2E2E2E2E2E2E2E2E2E2E2E2E2E2E2E2E2E2E2E2E2E2E2E2E2E2E2E2E2E2E2E2E2E2E2E2E2E2E2E2E2E2E2E2E2E2C3E2C3E2E2E2E2E2E2E2E2E2C3E2E2E2E2E2E2E2E2C3E2E2E2E2E2E2E2E2E2E2E2E2E2E2E2E2E2E2E22DE2E2E2E2E2F5E2E2
310
F5F5F5E2E2F5E2E22DE2E2E2E2E2E2E2E2E2E2E2E2E2E2E2E2E2E2E2E2E2E2E2E2E2E2E2E2E2E2E2E2C3C3DCE2E2E2E2E2E2E2E2E2E2E2E2E2E2E2E2E2E2E2E2E2E2E2E2E2E2E2E2E2E2E2E2E2E2E2E2E2E2E2E2E2E2E2E2E2E2E2E2E2E2E2E2E2E2E2E2E2E2E2E2E2E2E2E2E2E2E2E2E2E2E2E2E2E2E2E2E2E2E2E2E2E2E2
310
E2E2E2DCC3C3E2E2E2E2E2E2E2E2E2C3E2E2E2E2E2E2E2E2C3E2E2E2E2E2E2E2E2E2E2E2E2E2E2E2E2E2E2E22DE2E2E2E2E2F5E2E2F5F5F5E2E2F5E2E22DE2E2E2E2E2E2E2E2E2E2E2E2E2E2E2E2E2E2E2E2E2E2E2E2E2E2E2E2E2E2E2E2C3E2C3E2E2E2E2E2E2E2E2E2E2E2E2E2E2E2E2E2E2E2E2E2E2E2E2E2E2E2E2E2E2
310
E2E2E2E2E2E2E2E2E2E2E2E2E2E2E2E2E2E2E2E2E2E2E2E2E2E2E2E2E2E2E2E2E2E2E2E2E2E2E2E2E2E2E2E2E2E2E2E2E2E2E2E2E2E2E2E2C3C3C3E2E2E2E2E2E2E2E2E2C3E2E2E2E2E2E2E2E2C3E2E2E2E2E2E2E2E2E2E2E2E2E2E2E2E2E2E2E22DE2E2E2E2E2F5E2E2F5F5F5E2E2F5E2E22DE2E2E2E2E2E2E2E2E2E2E2E2
310
E2E2E2E2E2E2E2E2E2E2E2E2E2E2E2E2E2E2E2E2DCC3C3E2E2E2E2E2E2E2E2E2E2E2E2E2E2E2E2E2E2E2E2E2E2E2E2E2E2E2E2E2E2E2E2E2E2E2E2E2E2E2E2E2E2E2E2E2E2E2E2E2E2E2E2E2E2E2E2E2E2E2E2E2E2E2E2E2E2E2E2E2E2E2E2E2E2E2E2E2E2E2E2E2E2E2E2E2E2C3C3DCE2E2E2E2E2E2E2E2E2C3E2E2E2E2E2
310
E2E2E2C3E2E2E2E2E2E2E2E2E2E2E2E2E2E2E2E2E2E2E22DE2E2E2E2E2F5E2E2F5F5F5E2E2F5E2E22DE2E2E2E2E2E2E2E2E2E2E2E2E2E2E2E2E2E2E2E2E2E2E2E2E2E2E2E2E2E2E2E2C3C3C3E2E2E2E2E2E2E2E2E2E2E2E2E2E2E2E2E2E2E2E2E2E2E2E2E2E2E2E2E2E2E2E2E2E2E2E2E2E2E2E2E2E2E2E2E2E2E2E2E2E2E2
310
E2E2E2E2E2E2E2E2E2E2E2E2E2E2E2E2E2E2E2E2E2E2E2E2E2E2E2E2E2E2E2E2E2E2E2C3E2C3E2E2E2E2E2E2E2E2E2C3E2E2E2E2E2E2E2E2C3E2E2E2E2E2E2E2E2E2E2E2E2E2E2E2E2E2E2E22DE2E2E2E2E2F5E2E2F5F5F5E2E2F5E2E22DE2E2E2E2E2E2E2E2E2E2E2E2E2E2E2E2E2E2E2E2E2E2E2E2E2E2E2E2E2E2E2E2C3
310
C3DCE2E2E2E2E2E2E2E2E2E2E2E2E2E2E2E2E2E2E2E2E2E2E2E2E2E2E2E2E2E2E2E2E2E2E2E2E2E2E2E2E2E2E2E2E2E2E2E2E2E2E2E2E2E2E2E2E2E2E2E2E2E2E2E2E2E2E2E2E2E2E2E2E2E2E2E2E2E2E2E2E2E2E2E2E2E2DCC3C3E2E2E2E2E2E2E2E2E2C3E2E2E2E2E2E2E2E2C3E2E2E2E2E2E2E2E2E2E2E2E2E2E2E2E2E2
310
E2E22DE2E2E2E2E2F5E2E2F5F5F5E2E2F5E2E22DE2E2E2E2E2E2E2E2E2E2E2E2E2E2E2E2E2E2E2E2E2E2E2E2E2E2E2E2E2E2E2E2C3E2C3E2E2E2E2E2E2E2E2E2E2E2E2E2E2E2E2E2E2E2E2E2E2E2E2E2E2E2E2E2E2E2E2E2E2E2E2E2E2E2E2E2E2E2E2E2E2E2E2E2E2E2E2E2E2E2E2E2E2E2E2E2E2E2E2E2E2E2E2E2E2E2E2
310
E2E2E2E2E2E2E2E2E2E2E2E2E2E2C3C3C3E2E2E2E2E2E2E2E2E2C3E2E2E2E2E2E2E2E2C3E2E2E2E2E2E2E2E2E2E2E2E2E2E2E2E2E2E2E22DE2E2E2E2E2F5E2E2F5F5F5E2E2F5E2E22DE2E2E2E2E2E2E2E2E2E2E2E2E2E2E2E2E2E2E2E2E2E2E2E2E2E2E2E2E2E2E2E2DCC3C3E2E2E2E2E2E2E2E2E2E2E2E2E2E2E2E2E2E2E2
310
E2E2E2E2E2E2E2E2E2E2E2E2E2E2E2E2E2E2E2E2E2E2E2E2E2E2E2E2E2E2E2E2E2E2E2E2E2E2E2E2E2E2E2E2E2E2E2E2E2E2E2E2E2E2E2E2E2E2E2E2E2E2E2E2E2E2E2C3C3DCE2E2E2E2E2E2E2E2E2C3E2E2E2E2E2E2E2E2C3E2E2E2E2E2E2E2E2E2E2E2E2E2E2E2E2E2E2E22DE2E2E2E2E2F5E2E2F5F5F5E2E2F5E2E22DE2
310
E2E2E2E2E2E2E2E2E2E2E2E2E2E2E2E2E2E2E2E2E2E2E2E2E2E2E2E2E2E2E2C3C3C3E2E2E2E2E2E2E2E2E2E2E2E2E2E2E2E2E2E2E2E2E2E2E2E2E2E2E2E2E2E2E2E2E2E2E2E2E2E2E2E2E2E2E2E2E2E2E2E2E2E2E2E2E2E2E2E2E2E2E2E2E2E2E2E2E2E2E2E2E2E2E2E2E2E2E2E2E2E2E2E2E2E2E2E2E2E2C3E2C3E2E2E2E2
310
E2E2E2E2E2C3E2E2E2E2E2E2E2E2C3E2E2E2E2E2E2E2E2E2E2E2E2E2E2E2E2E2E2E22DE2E2E2E2E2F5E2E2F5F5F5E2E2E2E2E22DE2E2E2E2E2E2E2E2E2E2E2E2E2E2E2E2E2E2E2E2E2E2E2E2E2E2E2E2E2E2E2E2C3C3DCE2E2E2E2E2E2E2E2E2E2E2E2E2E2E2E2E2E2E2E2E2E2E2E2E2E2E2E2E2E2E2E2E2E2E2E2E2E2E2E2
310
E2E2E2E2E2E2E2E2E2E2E2E2E2E2E2E2E2E2E2E2E2E2E2E2E2E2E2E2E2E2E2E2E2E2E2E2E2E2E2E2E2E2E2E2E2E2DCC3C3E2E2E2E2E2E2E2E2E2C3E2E2E2E2E2E2E2E2C3E2E2E2E2E2E2E2E2E2E2E2E2E2E2E2E2E2E2E22DE2E2E2E2E2E2E2E2F5F5F5E2E2E2E2E22DE2E2E2E2E2E2E2E2E2E2E2E2E2E2E2E2E2E2E2E2E2E2
310
E2E2E2E2E2E2E2E2E2E2C3E2C3E2E2E2E2E2E2E2E2E2E2E2E2E2E2E2E2E2E2E2E2E2E2E2E2E2E2E2E2E2E2E2E2E2E2E2E2E2E2E2E2E2E2E2E2E2E2E2E2E2E2E2E2E2E2E2E2E2E2E2E2E2E2E2E2E2E2E2E2E2E2E2E2E2E2E2E2E2E2E2E2E2E2E2E2E2E2C3C3DCE2E2E2E2E2E2E2E2E2C3E2E2E2E2E2E2E2E2C3E2E2E2E2E2E2
310
E2E2E2E2E2E2E2E2E2E2E2E2E22DE2E2E2E2E2E2E2E2F5F5F5E2E2E2E2E22DE2E2E2E2E2E2E2E2E2E2E2E2E2E2E2E2E2E2E2E2E2E2E2E2E2E2E2E2E2E2E2E2DCC3C3C3DCC3C3C3DCC3C3C3DCC3C3C3DCC3C3C3DCC3C3C3DCC3C3C3DCC3C3C3DCC3C3DCC3C3C3DCC3C3C3DCC3C3C3DCC3C3C3DCC3C3C3DCC3C3C3DCC3C3C3DC
310
C3C3C3DCC3C3C3DCC3C3C3DCC3C3C3DCC3C3C3DCC3C3C3DCC3C3DCC3C3C3C3C3C3C3C3C3C3C3C3E2E2E2E2E2E2E2C3E2E2E2E2E2E2E2E2E2E2E2E2E2E2E2E2E2E2E22DE2E2E2E2E2E2E2E2F5F5F5E2E2E2E2E22DE2E2E2E2E2E2E2E2E2E2E2E2E2E2E2E2E2E2E2E2E2E2E2E2E2E2E2E2E2E2E2E2C3C3C3E2C3C3C3E2C3C3C3
310
E2C3C3C3E2C3C3E2C3C3C3E2C3C3C3E2C3C3C3E2C3C3C3E2C3C3C3E2C3C3C3E2C3C3C3E2C3C3C3E2C3C3C3E2C3C3C3E2C3C3C3E2C3C3C3E2C3C3C3E2C3C3E2C3C3C3E2C3C3C3E2C3C3C3E2C3C3C3E2C3C3E2E2E2E2E2E2E2E2E2E2E2E2E2E2E2E2E2E2C3E2E2E2E2E2E2E2E2E2E2E2E2E2E2E2E2E2E2E22DE2E2E2E2E2E2E2
310
E2F5F5F5E2E2E2E2E22DE2E2E2E2E2E2E2E2E2E2E2E2E2E2E2E2E2E2E2E2E2E2E2E2E2E2E2E2DCDCDCDCC3C3DCC3C3C3DCC3C3C3DCC3C3C3DCC3C3DCC3C3C3DCC3C3C3DCC3C3C3DCC3C3C3DCC3C3C3DCC3C3C3DCC3C3C3DCC3C3C3DCC3C3C3DCC3C3C3DCC3C3C3DCC3C3C3DCC3C3C3DCC3C3DCC3C3C3DCC3C3C3DCC3C3C3DC
310
C3C3C3DCC3C3DCDCDCDCC3C3C3C3C3C3C3C3C3C3C3C3C3C3C3C3C3E2E2E2E2E2E2E2E2E2E2E2E2E2E2E2E2E2E22DE2E2E2E2E2E2E2E2F5F5F5E2E2E2E2E22DE2E2E2E2E2E2E2E2E2E2E2E2E2E2E2E2E2E2E2E2E2E2E2E2E2E2E2E2DCDCDCDCDCDCDCDCDCDCDCDCDCDCDCDCDCDCDCDCDCDCDCDCDCDCDCDCDCDCDCDCDCDCDCDC
310
DCDCDCDCDCDCDCDCDCDCDCDCDCDCDCDCDCDCDCDCDCDCDCDCDCDCDCDCDCDCDCDCDCDCDCDCDCDCDCDCDCDCDCDCDCDCDCDCDCDCDCDCDCDCDCDCDCDCDCDCDCDCDCDCDCE2E2E2E2C3E2E2C3C3E2C3E2E2E2E2E2E2E2E2E2E2E2E2E2E2E2E2E2E2E2E2E2E22DE2E2E2E2E2E2E2E2F5F5F5E2E2E2E2E22DE2E2E2E2E2E2E2E2E2E2E2
310
E2E2E2E2E2E2E2E2E2E2E2E2E2E2E2E2E2BEE2E2E2E2E2E2E2E2E2E2E2E2E2E2E2E2E2E2E2E2E2E2E2E2E2E2E2E2E2E2E2E2E2E2E2E2E2E2E2E2E2E2E2E2E2E2E2E2E2E2E2E2E2E2E2E2E2E2E2E2E2E2E2E2E2E2E2E2E2E2E2E2E2E2E2E2E2E2E2E2E2E2E2E2E2E2E2E2E2E2E2E2E2E2E2E2E2E2E2BEE2E2E2E2C3C3E2C3C3
310
E2C3C3E2E2E2E2E2E2E2E2E2E2E2E2E2E2E2E2E2E2E2E2E22DE2E2E2E2E2E2E2E2F5F5F5E2E2E2E2E22DE2E2E2E2E2E2E2E2E2E2E2E2E2E2E2E2E2E2E2E2E2E2E2E2E2E2E2E2DCDCDCDCDCDCDCDCDCDCDCDCDCDCDCDCDCDCDCDCDCDCDCDCDCDCDCDCDCDCDCDCDCDCDCDCDCDCDCDCDCDCDCDCDCDCDCDCDCDCDCDCDCDCDCDCDC
310
DCDCDCDCDCDCDCDCDCDCDCDCDCDCDCDCDCDCDCDCDCDCDCDCDCDCDCDCDCDCDCDCDCDCDCDCDCDCDCDCDCDCDCDCE2E2E2E2E2E2E2C3C3C3C3C3E2E2E2E2E2E2E2E2E2E2E2E2E2E2E2E2E2E2E2E2E22DE2E2E2E2E2E2E2E2F5F5F5E2E2E2E2E22DE2E2E2E2E2E2E2E2E2E2E2E2E2E2E2E2E2E2E2E2E2E2E2E2E2E2E2E2C3DCDCDC
310
DCDCDCDCDCDCDCDCDCDCDCDCDCDCDCDCDCDCDCDCDCDCDCDCDCDCDCDCDCDCDCDCDCDCDCDCDCDCDCDCDCDCDCDCDCDCDCDCDCDCDCDCDCDCDCDCDCDCDCDCDCDCDCDCDCDCDCDCDCDCDCDCDCDCDCDCDCDCDCDCDCDCDCDCDCDCDCDCDCDCDCDCDCDCDCC3C3E2E2E2E2E2E2E2C3C3C3C3C3E2E2E2E2E2E2E2E2E2E2E2E2E2E2E2E2E2E2
310
E2E2E22DE2E2E2E2E2E2E2E2F5F5F5E2E2F5E2E22DE2E2E2E2E2E2E2E2E2E2E2E2E2E2E2E2E2E2E2E2E2E2E2E2E2E2E2C3C3DCDCDCDCDCDCDCDCDCDCDCDCDCDCDCDCDCDCDCDCDCDCDCDCDCDCDCDCDCDCDCDCDCDCDCDCDCDCDCDCDCDCDCDCDCDCDCDCDCDCDCDCDCDCDCDCDCDCDCDCDCDCDCDCDCDCDCDCDCDCDCDCDCDCDCDCDC
310
DCDCDCDCDCDCDCDCDCDCDCDCDCDCDCDCDCDCDCDCDCC3C3C3E2E2E2E2E2E2C3E2C3C3C3E2E2E2E2E2E2E2E2E2E2E2E2E2E2E2E2E2E2E2E2E22DE2E2E2E2E2F5E2E2F5F5F5E2E2F5E2E22DE2E2E2E2E2E2E2E2E2E2E2E2E2E2E2E2E2E2E2E2E2E2E2E2E2E2E2C3C3E2E2E2E2E2E2E2E2E2E2E2E2E2E2E2E2E2E2E2E2E2E2E2E2
310
E2E2E2E2E2E2E2E2E2E2E2E2E2E2E2E2E2E2E2E2E2C3E2E2E2E2E2E2E2E2E2E2E2E2E2E2E2E2C3E2E2E2E2E2E2E2E2E2E2E2E2E2E2E2E2E2E2E2E2E2E2E2E2E2E2E2E2E2E2E2E2E2E2E2C3C3C3E2E2E2E2E2E2E2E2E2E2E2E2E2E2E2E2E2E2E2E2E2E2E2E2E2E2E2E2E2E2E2E22DE2E2E2E2E2F5E2E2F5F5F5E2E2F5E2E22D
310
E2E2E2E2E2E2E2E2E2E2E2E2E2E2E2E2E2E2E2E2E2E2E2E2E2E2E2C3C3C3C3C3C3C3C3C3C3C3C3C3C3C3C3C3C3C3C3C3C3C3C3C3C3C3C3C3C3C3C3C3C3C3C3E2C3C3C3C3C3C3C3C3E2E2C3C3C3C3C3C3C3E2C3C3C3C3C3C3C3C3C3C3C3C3C3C3C3C3C3C3C3C3C3C3C3C3C3C3C3C3C3C3C3C3C3C3C3C3C3C3C3C3C3C3C3C3C3
310
C3C3C3E2E2E2E2E2E2E2E2E2E2E2E2E2E2E2E2E2E2E2E2E2E2E2E2E2E2E2E2E2E2E2E22DE2E2E2E2E2F5E2E2F5F5F5E2E2F5E2E22DE2E2E2E2E2E2E2E2E2E2E2E2E2E2E2E2E2E2E2E2E2E2E2E2E2E2E2C3C3C3C3E2E2E2E2E2E2E2E2E2E2E2E2E2E2E2E2E2E2E2E2E2E2E2E2E2E2E2E2E2E2E2E2E2C3C3C3C3E2C3C3C3E2E2
310
C3C3C3C3C3C3C3E2C3E2C3C3C3C3C3C3C3C3C3E2E2E2E2E2E2E2E2E2E2E2E2E2E2E2E2E2E2E2E2E2E2E2E2E2E2E2E2E2E2E2E2E2C3C3C3C3E2E2E2E2E2E2E2E2E2E2E2E2E2E2E2E2E2E2E2E2E2E2E2E2E2E2E2E2E2E2E2E22DE2E2E2E2E2F5E2E2F5F5F5E2E2F5E2E22DE2E2E2E2E2E2E2E2E2E2E2E2E2E2E2E2E2E2E2E2E2
310
E2E2E2E2E2E2C3C3E2E2E2E2E2E2E2E2E2E2E2E2E2E2E2E2E2E2E2E2E2E2E2E2E2E2E2E2E2E2E2E2E2E2E2C3E2C3C3E2C3C3C3E2E2C3C3E2C3C3C3C3E2C3E2C3C3C3C3C3C3C3C3E2E2E2E2E2E2E2E2E2E2E2E2E2E2E2E2E2E2E2E2E2E2E2E2E2E2E2E2E2E2E2E2E2E2E2C3C3C3E2E2E2E2E2E2E2E2E2E2E2E2E2E2E2E2E2E2
310
E2E2E2E2E2E2E2E2E2E2E2E2E2E22DE2E2E2E2E2F5E2E2F5F5F5E2E2F5E2E22DE2E2E2E2E2E2E2E2E2E2E2E2E2E2E2E2E2E2E2E2E2E2E2E2E2E2E2C3C3E2E2E2E2E2E2E2E2E2E2E2E2E2E2E2E2E2E2E2E2E2E2E2E2E2E2E2E2C3E2E2E2E2E2E2E2E2E2E2E2E2E2E2E2E2E2E2E2E2E2E2E2E2E2E2E2E2E2E2E2E2E2E2C3E2E2
310
E2E2E2E2E2E2E2E2E2E2E2E2E2E2C3E2E2E2E2E2E2E2E2E2E2E2E2E2E2E2E2E2E2C3C3E2E2E2E2E2E2E2E2E2E2E2E2E2E2E2E2E2E2E2E2E2E2E2E2E2E2E2E2E2E2E2E22DE2E2E2E2E2F5E2E2F5F5F5E2E2F5E2E22DE2E2E2E2E2E2E2E2E2E2E2E2E2E2E2E2E2E2E2E2E2E2E2E2E2E2E2C3C3C3E2E2E2E2E2E2E2E2E2E2E2E2
310
E2E2E2E2E2C3C3C3C3C3C3C3C3E2C3C3C3C3C3C3C3C3C3C3C3C3E2C3C3C3C3C3C3C3C3C3E2C3C3C3E2E2C3C3E2C3C3C3C3E2C3E2C3E2E2C3C3E2C3C3C3C3C3C3C3C3C3C3E2E2E2E2E2E2E2E2E2E2E2E2E2E2E2E2C3E2C3C3E2E2E2E2E2E2E2E2E2E2E2E2E2E2E2E2E2E2E2E2E2E2E2E2E2E2E2E2E2E2E2E22DE2E2E2E2E2F5
310
E2E2F5F5F5E2E2F5E2E22DE2E2E2E2E2E2E2E2E2E2E2E2E2E2E2E2E2E2E2E2E2E2E2E2E2E2E2C3C3C3C3C3C3C3C3C3C3C3C3C3C3C3C3C3C3C3C3C3C3C3C3C3C3C3C3E2C3C3C3C3C3C3C3C3C3C3C3E2E2C3C3C3C3C3C3C3C3C3E2C3C3C3C3E2C3C3C3C3C3C3E2E2E2C3C3C3E2C3C3C3C3C3C3C3E2C3C3C3C3C3E2C3C3C3C3C3
310
C3C3C3C3C3C3C3C3C3C3C3C3C3C3E2E2E2E2E2E2E2E2E2E2E2E2E2E2E2E2E2E2E2E2E2E2E2E2E2E2E2E2E2E2E2E22DE2E2E2E2E2F5E2E2F5F5F5E2E2F5E2E22DE2E2E2E2E2E2E2E2E2E2E2E2E2E2E2E2E2E2E2E2E2E2E2E2E2E2E2C3C3E2E2E2E2E2E2E2E2E2E2E2E2E2E2E2E2E2E2C3C3C3C3E2C3C3C3E2C3C3C3C3C3C3C3
310
C3C3C3C3E2E2C3C3C3C3C3C3C3C3C3E2E2C3C3C3E2C3C3C3C3C3C3C3E2E2C3C3C3E2C3C3C3C3E2C3C3C3C3C3C3C3C3E2E2E2E2E2E2E2E2E2E2E2E2E2E2E2E2E2E2C3C3E2E2E2E2E2E2E2E2E2E2E2E2E2E2E2E2E2E2E2E2E2E2E2E2E2E2E2E2E2E2E2E22DE2E2E2E2E2F5E2E2F5F5F5E2E2F5E2E22DE2E2E2E2E2E2E2E2E2E2
310
E2E2E2E2E2E2E2E2E2E2E2E2E2E2E2E2E2C3E2E2E2E2E2E2E2E2E2E2E2E2E2E2E2E2E2E2E2E2E2E2E2E2E2E2E2E2E2E2E2E2E2E2E2E2C3E2E2E2E2E2E2E2E2E2E2E2E2E2E2E2E2E2E2E2E2E2E2E2E2E2E2C3C3E2E2E2E2E2E2E2E2E2E2E2E2E2E2E2E2E2E2E2E2E2E2E2E2E2E2E2E2E2E2E2E2E2E2E2E2C3E2E2E2E2E2E2E2
310
E2E2E2E2E2E2E2E2E2E2E2E2E2E2E2E2E2E2E2E2E2E2E2E2E22DE2E2E2E2E2F5E2E2F5F5F5E2E2F5E2E22DE2E2E2E2E2E2E2E2E2E2E2E2E2E2E2E2E2E2E2E2E2E2E2E2E2E2E2C3C3C3C3C3C3C3C3C3C3C3C3C3C3C3C3C3C3C3C3C3C3C3C3C3C3C3C3C3C3C3C3C3C3C3C3C3C3C3C3C3C3C3C3C3C3C3C3C3C3C3C3C3E2C3C3C3
310
C3C3C3C3C3C3C3C3C3C3C3C3C3C3C3C3C3C3C3C3C3C3C3C3C3C3C3C3C3C3C3C3C3C3C3C3C3C3C3C3C3C3C3C3C3C3E2E2E2E2E2E2E2E2E2E2E2E2E2E2E2E2E2E2E2E2E2E2E2E2E2E2E2E2E2E2E2E22DE2E2E2E2E2F5E2E2F5F5F5E2E2F5E2E22DE2E2E2E2E2E2E2E2E2E2E2E2E2E2E2E2E2E2E2E2E2E2E2E2E2E2E2C3C3E2E2
310
E2E2E2E2E2E2E2E2E2E2E2E2E2E2E2E2E2E2E2E2E2E2E2E2E2E2E2E2E2E2E2E2C3C3C3C3C3C3C3C3C3C3C3C3C3C3E2C3C3E2C3C3C3C3C3C3C3C3C3C3C3C3E2E2E2E2E2E2E2E2E2E2E2E2E2E2E2E2E2E2E2E2E2E2E2E2E2E2E2E2E2E2E2E2E2E2C3C3C3E2E2E2E2E2E2E2E2E2E2E2E2E2E2E2E2E2E2E2E2E2E2E2E2E2E2E2E2
310
E2E2E2E22DE2E2E2E2E2F5E2E2F5F5F5E2E2F5E2E22DE2E2E2E2E2E2E2E2E2E2E2E2E2E2E2E2E2E2E2E2E2E2E2E2E2E2E2C3E2E2E2E2E2E2E2E2E2E2E2E2E2E2E2E2E2E2E2E2E2E2E2E2E2E2E2E2E2E2E2E2E2E2E2E2C3E2E2E2E2E2E2E2E2E2E2E2E2E2E2E2E2E2E2E2E2E2E2E2E2E2E2C3C3E2E2E2E2E2E2E2E2E2E2E2E2
310
E2E2E2E2E2E2E2E2E2E2E2E2E2E2E2E2E2E2E2E2E2E2E2E2C3E2E2E2E2E2E2E2E2E2E2E2E2E2E2E2E2E2E2E2E2E2E2E2E2E2E2E2E2E2E2E2E22DE2E2E2E2E2F5E2E2F5F5F5E2E2F5E2E22DE2E2E2E2E2E2E2E2E2E2E2E2E2E2E2E2E2E2E2E2E2E2E2E2E2E2E2E2E2E2E2E2E2E2E2E2E2E2E2E2E2E2E2E2E2E2E2E2E2E2E2E2
310
E2E2E2E2E2E2E2E2E2E2E2E2E2E2E2E2E2E2E2E2E2E2E2E2E2E2E2E2E2E2E2E2E2E2E2E2E2E2E2E2E2E2E2E2E2E2E2E2E2E2E2E2E2E2E2E2E2E2E2E2E2E2E2E2E2E2E2E2E2E2E2E2E2E2E2E2E2E2E2E2E2E2E2E2E2E2E2E2E2E2E2E2E2E2E2E2E2E2E2E2E2E2E2E2E2E2E2E2E2E22DE2E2E2E2E2F5E2E2F5F5F5E2E2F5E2E2
310
2DE2E2E2E2E2E2E2E2E2E2E2E2E2E2E2E2E2E2E2E2E2E2E2E2E2E2E2E2E2E2E2E2E2E2E2E2E2E2E2E2E2E2E2E2E2E2E2E2E2E2E2E2E2E2E2E2E2E2E2E2E2E2E2E2E2E2E2E2E2E2E2E2E2E2E2E2E2E2E2E2E2E2E2E2E2E2E2E2E2E2E2E2E2E2E2E2E2E2E2E2E2E2E2E2E2E2E2E2E2E2E2E2E2E2E2E2E2E2E2E2E2E2E2E2E2E2
310
E2E2E2E2E2E2E2E2E2E2E2E2E2E2E2E2E2E2E2E2E2E2E2E2E2E2E2E2E2E2E2E2E2E2E2E22DE2E2E2E2E2F5E2E2F5F5F5E2E2F5E2E22DE2E2E2E2E2E2E2E2E2E2E2E2E2E2E2E2E2E2E2E2E2E2E2E2E2E2E2E2E2E2E2E2E2E2E2E2E2E2E2E2E2E2E2E2E2E2E2E2E2E2E2E2E2E2E2E2E2E2E2E2E2E2E2E2E2E2E2E2E2E2E2E2E2
310
E2E2E2E2E2E2E2E2E2E2E2E2E2E2E2E2E2E2E2E2E2E2E2E2E2E2E2E2E2E2E2E2E2E2E2E2E2E2E2E2E2E2E2E2E2E2E2E2E2E2E2E2E2E2E2E2E2E2E2E2E2E2E2E2E2E2E2E2E2E2E2E2E2E2E2E2E2E2E2E2E2E2E2E2E2E2E2E2E22DE2E2E2E2E2F5E2E2F5F5F5E2E2F5E2E22DE2E2E2E2E2E2E2E2E2E2E2E2E2E2E2E2E2E2E2E2
310
E2E2E2E2E2E2E2E2E2E2E2E2E2E2E2E2E2E2E2E2E2E2E2E2E2E2E2E2E2E2E2E2E2E2E2E2E2E2E2E2E2E2E2E2E2E2E2E2E2E2E2E2E2E2E2E2E2E2E2E2E2E2E2E2E2E2E2E2E2E2E2E2E2E2E2E2E2E2E2E2E2E2E2E2E2E2E2E2E2E2E2E2E2E2E2E2E2E2E2E2E2E2E2E2E2E2E2E2E2E2E2E2E2E2E2E2E2E2E2E2E2E2E2E2E2E2E2
310
E2E2E2E2E2E2E2E2E2E2E2E2E2E2E22DE2E2E2E2E2F5E2E2F5F5F5E2E2E2E2E22DE2E2E2E2E2E2E2E2E2E2E2E2E2E2E2E2E2E2E2E2E2E2E2E2E2E2E2E2E2E2E2E2E2E2E2E2E2E2E2E2E2E2E2E2E2E2E2E2E2E2E2E2E2E2E2E2E2E2E2E2E2E2E2E2E2E2E2E2E2E2E2E2E2E2E2E2E2E2E2E2E2E2E2E2E2E2E2E2E2E2E2E2E2E2
310
E2E2E2E2E2E2E2E2E2E2E2E2E2E2E2E2E2E2E2E2E2E2E2E2E2E2E2E2E2E2E2E2E2E2E2E2E2E2E2E2E2E2E2E2E2E2E2E2E2E2E2E2E2E2E2E2E2E2E2E2E2E2E2E2E2E2E2E22DE2E2E2E2E2E2E2E2F5F5F5E2E2E2E2E22DE2E2E2E2E2E2E2E2E2E2E2E2E2E2E2E2E2E2E2E2E2E2E2E2E2E2E2E2E2E2E2E2E2E2E2E2E2E2E2E2E2
310
E2E2E2E2E2E2E2E2E2E2E2E2E2E2E2E2E2E2E2E2E2E2E2E2E2E2E2E2E2E2E2E2E2E2E2E2E2E2E2E2E2E2E2E2E2E2E2E2E2E2E2E2E2E2E2E2E2E2E2E2E2E2E2E2E2E2E2E2E2E2E2E2E2E2E2E2E2E2E2E2E2E2E2E2E2E2E2E2E2E2E2E2E2E2E2E2E2E2E2E2E2E2E2E2E2E2E2E2E2E2E2E2E2E2E2E2E2E2E2E2E22DE2E2E2E2E2
310
E2E2E2F5F5F5E2E2E2E2E22DE2E2E2E2E2E2E2E2E2E2E2E2E2E2E2E2E2E2E2E2E2E2E2E2E2E2E2E2E2E2E2E2E2E2E2E2E2E2E2E2E2E2E2E2E2E2E2E2E2E2E2E2E2E2E2E2E2E2E2E2E2E2E2E2E2E2E2E2E2E2E2E2E2E2E2E2E2E2E2E2E2E2E2E2E2E2E2E2E2E2E2E2E2E2E2E2E2E2E2E2E2E2E2E2E2E2E2E2E2E2E2E2E2E2E2
310
E2E2E2E2E2E2E2E2E2E2E2E2E2E2E2E2E2E2E2E2E2E2E2E2E2E2E2E2E2E2E2E2E2E2E2E2E2E2E2E2E2E2E2E2E2E2E22DE2E2E2E2E2E2E2E2F5F5F5E2E2E2E2E22DE2E2E2E2E2E2E2E2E2E2E2E2E2E2E2E2E2E2E2E2E2E2E2E2E2E2E2E2E2E2E2E2E2E2E2E2E2E2E2E2E2E2E2E2E2E2E2E2E2E2E2E2E2E2E2E2E2E2E2E2E2E2
310
E2E2E2E2E2E2E2E2E2E2E2E2E2E2E2E2E2E2E2E2E2E2E2E2E2E2E2E2E2E2E2E2E2E2E2E2E2E2E2E2E2E2E2E2E2E2E2E2E2E2E2E2E2E2E2E2E2E2E2E2E2E2E2E2E2E2E2E2E2E2E2E2E2E2E2E2E2E2E2E2E2E2E2E2E2E2E2E2E2E2E2E2E2E2E2E2E2E2E2E22DE2E2E2E2E2E2E2E2F5F5F5E2E2E2E2E22DE2E2E2E2E2E2E2E2E2
310
E2E2E2E2E2E2E2E2E2E2E2E2E2E2E2E2E2E2E2E2E2E2E2E2E2E2E2E2E2E2E2E2E2E2E2E2E2E2E2E2E2E2E2E2E2E2E2E2E2E2E2E2E2E2E2E2E2E2E2E2E2E2E2E2E2E2E2E2E2E2E2E2E2E2E2E2E2E2E2E2E2E2E2E2E2E2E2E2E2E2E2E2E2E2E2E2E2E2E2E2E2E2E2E2E2E2E2E2E2E2E22D2D2D2D2D2D2D2D2D2D2D2D2D2D2D2D
310
2D2D2D2D2D2D2D2D2D2D2D2D2D2D2D2D2D2D2D2D2D2D2D2D2D2D2DE2E2E2E2E2E2E2E2F5F5F5E2E2E2E2E22DE2E2E2E2E2E2E2E2E2E2E2E2E2E2E2E2E2E2E2E2E2E2E2E2E2E2E2E2E2E2E2E2E2E2E2E2E2E2E2E2E2E2E2E2E2E2E2E2E2E2E2E2E2E2E2E2E2E2E2E2E2E2E2E2E2E2E2E2E2E2E2E2E2E2E2E2E2E2E2E2E2E2E2
310
E2E2E2E2E2E2E2E2E2E2E2E2E2E2E2E2E2E2E2E2E2E2E2E2E2E2E2E2E2E2E2E2E2E2E2E2E22DE2E2C3C3E2E2E2C3C3C3E2C3C3C3C32DE2E2E2E2E2E2E2E2E2DCDCE2E2E2E2E2E2E2E2E2E2E2E2E2E22DE2E2E2E2E2E2E2E2F5F5F5E2E2E2E2E22DE2E2E2E2E2E2E2E2E2E2E2E2E2E2E2E2E2E2E2E2E2E2E2E2E2E2E2E2E2E2
310
E2E2E2E2E2E2E2E2E2E2E2E2E2E2E2E2E2E2E2E2E2E2E2E2E2E2E2E2E2E2E2E2E2E2E2E2E2E2E2E2E2E2E2E2E2E2E2E2E2E2E2E2E2E2E2E2E2E2E2E2E2E2E2E2E2E2E2E2E2E2E2E2E2E2E2E2E2E2E2E2E2E2E2E2E2E2E2E2E2E22DE2C3C3C3C3C3C3C3C3C3C3C3C3C3C32DE2E2E2E2DCDCDCDCDCDCDCDCDCDCE2DCDCDCDCDC
310
DCDCDCE2E22DE2E2E2E2E2E2E2E2F5F5F5E2E2E2E2E22DE2E2E2E2E2E2E2E2E2E2E2E2E2E2E2E2E2E2E2E2E2E2E2E2E2E2E2E2E2E2E2E2E2E2E2E2E2E2E2E2E2E2E2E2E2E2E2E2E2E2E2E2E2E2E2E2E2E2E2E2E2E2E2E2E2E2E2E2E2E2E2E2E2E2E2E2E2E2E2E2E2E2E2E2E2E2E2E2E2E2E2E2E2E2E2E2E2E2E2E2E2E2E2E2
310
E2E2E2E2E2E2E2E2E2E2E2E2E2E2E2E22DE2C3C3C3E2E2C3C3C3E2E2C3C3C3C32DE2E2E2E2DCDCDCDCDCDCDCDCDCDCDCDCDCDCDCDCDCDCDCE2E22DE2E2E2E2E2E2E2E2F5F5F5E2E2E2E2E22DE2E2E2E2E2E2E2E2E2E2E2E2E2E2E2E2E2E2E2E2E2E2E2E2E2E2E2E2E2E2E2E2E2E2E2E2E2E2E2E2E2E2E2E2E2E2E2E2E2E2E2
310
E2E2E2E2E2E2E2E2E2E2E2E2E2E2E2E2E2E2E2E2E2E2E2E2E2E2E2E2E2E2E2E2E2E2E2E2E2E2E2E2E2E2E2E2E2E2E2E2E2E2E2E2E2E2E2E2E2E2E2E2E2E2E2E2E2E2E2E2E22D2D2D2D2D2D2D2D2D2D2D2D2D2D2D2D2DE2E2E2E2DCDCDCDCDCDCDCDCDCDCDCE2DCDCDCDCDCDCDCE2E22DE2E2E2E2E2E2E2E2F5F5F5E2E2F5E2
310
E22DE2E2E2E2E2E2E2E2E2E2E2E2E2E2E2E2E2E2E2E2E2E2E2E2E2E2E2E2E2E2E2E2E2E2E2E2E2E2E2E2E2E2E2E2E2E2E2E2E2E2E2E2E2E2E2E2E2E2E2E2E2E2E2E2E2E2E2E2E2E2E2E2E2E2E2E2E2E2E2E2E2E2E2E2E2E2E2E2E2E2E2E2E2E2E2E2E2E2E2E2E2E2E2E2E2E2E2E2E2E2E2E2E2E2E2E2E2E2E2E22DC3C3C3C3
310
C3C3C3C3C3C3C3C3C3C3C32DE2E2E2E2DCDCDCDCDCDCDCDCDCDCDCDCDCDCDCDCDCDCDCDCE22DE2E2E2E2E2F5E2E2F5F5F5E2E2F5E2E22DE2E2E2E2E2E2E2E2E2E2E2E2E2E2E2E2E2E2E2E2E2E2E2E2E2E2E2E2E2E2E2E2E2E2E2E2E2E2E2E2E2E2E2E2E2E2E2E2E2E2E2E2E2E2E2E2E2E2E2E2E2E2E2E2E2E2E2E2E2E2E2E2
310
E2E2E2E2E2E2E2E2E2E2E2E2E2E2E2E2E2E2E2E2E2E2E2E2E2E2E2E2E2E2E2E2E2E2E2E2E2E2E2E2E2E2E2E2E2E2E2E22DC3C3C3C3C3C3C3C3C3C3C3C3C3C3C32DC3C3C3C3DCDCE2E2DCDCE2E2E2E2DCDCE2E2E2DCE2E2E2E2E22DE2E2E2E2E2F5E2E2F5F5F5E2E2F5E2E22DE2E2E2E2E2E2E2E2E2E2E2E2E2E2E2E2E2E2E2
310
E2E2E2E2E2E2E2E2E2E2E2E2E2E2E2E2E2E2E2E2E2E2E2E2E2E2E2E2E2E2E2E2E2E2E2E2E2E2E2E2E2E2E2E2E2E2E2E2E2E2E2E2E2E2E2E2E2E2E2E2E2E2E2E2E2E2E2E2E2E2E2E2E2E2E2E2E2E2E2E2E2E2E2E2E2E2E2E2E2E2E2E2E2E2E2E2E2E2E2E2E22DC3C3C3C3C3C3C3C3C3C3C3C3C3C3C32DC3C3C3C3E2E2E2E2E2
310
E2E2E2E2E2E2E2E2E2E2E2E2E2E2E2E22DE2E2E2E2E2F5E2E2F5F5F5E2E2F5E2E22D2D2D2D2D2D2D2D2D2D2D2D2D2D2D2D2D2D2D2D2D2D2D2D2D2D2D2D2D2D2D2D2D2D2D2D2D2D2D2D2D2D2D2D2D2D2D2D2D2D2D2D2D2D2D2D2D2D2D2D2D2D2D2D2D2D2D2D2D2D2D2D2D2D2D2D2D2D2D2D2D2D2D2D2D2D2D2D2D2D2D2D2D2D
310
2D2D2D2D2D2D2D2D2D2D2D2D2D2D2D2D2D2D2D2D2D2D2D2D2D2D2D2D2D2D2D2D2D2D2D2D2D2D2D2D2D2D2D2DC3C3C32D2D2D2D2D2D2D2D2D2D2D2D2D2D2D2D2D2D2D2D2D2D2DE2E2E2E2E2F5E2E2F5F5F5E2E2F5E2E2E2E2E2E2E2E2E2E2E2E2E2E2E2E2E2E2E2E2E2E2E2E2E2E2E2E2E2E2E2E2E2E2E2E2E2E2E2E2E2E2E2
310
E2E2E2E2E2E2E2E2E2E2E2E2E2E2E2E2E2E2E2E2E2E2E2E2E2E2E2E2E2E2E2E2E2E2E2E2E2E2E2E2E2E2E2E2E2E2E2E2E2E2E2E2E2E2E2E2E2E2E2E2E2E2E2E2E2E2E2E2E2E2E2E2E2E2E2E2E2E2E2E2E2E2E2E2E2E2E2E2E2E2E2E2E2E2E2E2E2E2E2E2E2E2E2E2E2E2E2E2E2E2E2E2E2E2E2E2E2E2E2E2E2E2E2E2E2E2E2
310
E2F5E2E2F5F5F5E2E2F5E2E2E2E2E2E2E2E2E2E2E2E2E2E2E2E2E2E2E2E2E2E2E2E2E2E2E2E2E2E2E2E2E2E2E2E2E2E2E2E2E2E2E2E2E2E2E2E2E2E2E2E2E2E2E2E2E2E2E2E2E2E2E2E2E2E2E2E2E2E2E2E2E2E2E2E2E2E2E2E2E2E2E2E2E2E2E2E2E2E2E2E2E2E2E2E2E2E2E2E2E2E2E2E2E2E2E2E2E2E2E2E2E2E2E2E2E2
310
E2E2E2E2E2E2E2E2E2E2E2E2E2E2E2E2E2E2E2E2E2E2E2E2E2E2E2E2E2E2E2E2E2E2E2E2E2E2E2E2E2E2E2E2E2E2E2E2E2E2E2E2E2E2F5E2E2F5F5F5E2E2F5E2E2E2E2E2E2E2E2E2E2E2E2E2E2E2E2E2E2E2E2E2E2E2E2E2E2E2E2E2E2E2E2E2E2E2E2E2E2E2E2E2E2E2E2E2E2E2E2E2E2E2E2E2E2E2E2E2E2E2E2E2E2E2E2
310
E2E2E2E2E2E2E2E2E2E2E2E2E2E2E2E2E2E2E2E2E2E2E2E2E2E2E2E2E2E2E2E2E2E2E2E2E2E2E2E2E2E2E2E2E2E2E2E2E2E2E2E2E2E2E2E2E2E2E2E2E2E2E2E2E2E2E2E2E2E2E2E2E2E2E2E2E2E2E2E2E2E2E2E2E2E2E2E2E2E2E2E2E2E2E2E2E2E2E2E2E2E2E2E2E2E2E2F5E2E2F5F5F5E2E2F5E2E2E2E2E2E2E2E2E2E2E2
310
E2E2E2E2E2E2E2E2E2E2E2E2E2E2E2E2E2E2E2E2E2E2E2E2E2E2E2E2E2E2E2E2E2E2E2E2E2E2E2E2E2E2E2E2E2E2E2E2E2E2E2E2E2E2E2E2E2E2E2E2E2E2E2E2E2E2E2E2E2E2E2E2E2E2E2E2E2E2E2E2E2E2E2E2E2E2E2E2E2E2E2E2E2E2E2E2E2E2E2E2E2E2E2E2E2E2E2E2E2E2E2E2E2E2E2E2E2E2E2E2E2E2E2E2E2E2E2
310
E2E2E2E2E2E2E2E2E2E2E2E2E2E2E2E2E2E2E2E2E2E2E2E2E2E2E2E2E2E2E2C3E2F5E2E2F5F5F5E2E2F5F5F5F5F5F5F5F5E2E2E2E2E2E2E2E2E2F5F5F5F5F5F5F5F5F5F5F5F5F5F5F5F5E2E2E2E2E2E2E2E2E2F5F5F5F5F5F5F5F5F5F5F5F5F5F5F5F5E2E2E2E2E2E2E2E2F5F5F5F5F5F5F5F5F5F5F5F5F5F5F5F5E2E2E2E2
310
E2E2E2E2E2F5F5F5F5F5F5F5F5F5F5F5F5F5F5F5F5E2E2E2E2E2E2E2E2F5F5F5F5F5F5F5F5F5F5F5F5F5F5F5F5E2E2E2E2E2E2E2E2E2F5F5F5F5F5F5F5F5F5F5F5F5F5F5F5F5E2E2E2E2E2E2E2E2E2F5F5F5F5F5F5F5F5E2E2F5F5F5E2E2E2E2E2E2E2E2E2E2E2E2E2E2E2E2E2E2E2E2E2E2E2E2E2E2E2E2E2E2E2E2E2E2E2
310
E2E2E2E2E2E2E2E2E2E2E2E2E2E2E2E2E2E2E2E2E2E2E2E2E2E2E2E2E2E2E2E2E2E2E2E2E2E2E2E2E2E2E2E2E2E2E2E2E2E2E2E2E2E2E2E2E2E2E2E2E2E2E2E2E2E2E2E2E2E2E2E2E2E2E2E2E2E2E2E2E2E2E2E2E2E2E2E2E2E2E2E2E2E2E2E2E2E2E2E2E2E2E2E2E2E2E2E2E2E2E2E2E2E2E2E2E2E2E2E2E2E2E2E2E2E2E2
310
E2E2E2E2E2E2E2E2E2E2E2E2E2E2E2F5F5F5E2E2E2E2E2E2E2E2E2E2E2E2E2E2E2E2E2E2E2E2E2E2E2E2E2E2E2E2E2E2E2E2E2E2E2E2E2E2E2E2E2E2E2E2E2E2E2E2E2E2E2E2E2E2E2E2E2E2E2E2E2E2E2E2E2E2E2E2E2E2E2E2E2E2E2E2E2E2E2E2E2E2E2E2E2E2E2E2E2E2E2E2E2E2E2E2E2E2E2E2E2E2E2E2E2E2E2E2E2
310
E2E2E2E2E2E2E2E2E2E2E2E2E2E2E2E2E2E2E2E2E2E2E2E2E2E2E2E2E2E2E2E2E2E2E2E2E2E2E2E2E2E2E2E2E2E2E2E2E2E2E2E2E2E2E2E2E2E2E2E2E2E2E2E2E2E2E2E2F5EFF5E2E2E2E2E2E2E2E2E2E2E2E2E2E2E2E2E2E2E2E2E2E2E2E2E2E2E2E2E2E2E2E2E2E2E2E2E2E2E2E2E2E2E2E2E2E2E2E2E2E2E2E2E2E2E2E2
310
E2E2E2E2E2E2E2E2E2E2E2E2E2E2E2E2E2E2E2E2E2E2E2E2E2E2E2E2E2E2E2E2E2E2E2E2E2E2E2E2E2E2E2E2E2E2E2E2E2E2E2E2E2E2E2E2E2E2E2E2E2E2E2E2E2E2E2E2E2E2E2E2E2E2E2E2E2E2E2E2E2E2E2E2E2E2E2E2E2E2E2E2E2E2E2E2E2E2E2E2E2E2E2E2E2E2E2E2E2E2E2E2E2E2E2E2E2E2E2E2E2F5EFF5F5F5F5
310
F5F5F5F5F5F5F5F5F5F5F5F5F5F5F5F5F5F5F5F5F5F5F5F5F5F5F5F5F5F5F5F5F5F5F5F5F5F5F5F5F5F5F5F5F5F5F5F5F5F5F5F5F5F5F5F5F5F5F5F5F5F5F5F5F5F5F5F5F5F5F5F5F5F5F5F5F5F5F5F5F5F5F5F5F5F5F5F5F5F5F5F5F5F5F5F5F5F5F5F5F5F5F5F5F5F5F5F5F5F5F5F5F5F5F5F5F5F5F5F5F5F5F5F5F5F5F5
310
F5F5F5F5F5F5F5F5F5F5F5F5F5F5F5F5F5F5F5F5F5F5F5F5F5F5F5F5F5F5F5F5F5F5F5F5F5F5F5F5F5F5F5F5F5F5F5F5EF
  0
XRECORD
  5
3C5
102
{ACAD_REACTORS
330
3C4
102
}
330
3C4
100
AcDbXrecord
280
     1
102
SHADEPLOT
 70
     0
102
SHADEPLOTRESLEVEL
 70
     2
102
SHADEPLOTCUSTOMDPI
 70
   300
  0
ENDSEC
  0
EOF
