  0
SECTION
  2
HEADER
  9
$ACADVER
  1
AC1015
  9
$ACADMAINTVER
 70
    20
  9
$DWGCODEPAGE
  3
ANSI_1252
  9
$INSBASE
 10
0.0
 20
0.0
 30
0.0
  9
$EXTMIN
 10
-108.6834013367517
 20
-83.66369595278911
 30
-0.0015258207003583
  9
$EXTMAX
 10
1.982382440681533
 20
1.795187464816507
 30
0.0000000349246037
  9
$LIMMIN
 10
0.0
 20
0.0
  9
$LIMMAX
 10
11.0
 20
8.5
  9
$ORTHOMODE
 70
     0
  9
$REGENMODE
 70
     1
  9
$FILLMODE
 70
     1
  9
$QTEXTMODE
 70
     0
  9
$MIRRTEXT
 70
     1
  9
$LTSCALE
 40
0.605
  9
$ATTMODE
 70
     1
  9
$TEXTSIZE
 40
0.2
  9
$TRACEWID
 40
0.05
  9
$TEXTSTYLE
  7
Romans
  9
$CLAYER
  8
0
  9
$CELTYPE
  6
BYLAYER
  9
$CECOLOR
 62
   256
  9
$CELTSCALE
 40
1.0
  9
$DISPSILH
 70
     0
  9
$DIMSCALE
 40
12.0
  9
$DIMASZ
 40
0.1
  9
$DIMEXO
 40
0.0625
  9
$DIMDLI
 40
0.1
  9
$DIMRND
 40
0.0
  9
$DIMDLE
 40
0.0
  9
$DIMEXE
 40
0.1
  9
$DIMTP
 40
0.001
  9
$DIMTM
 40
0.001
  9
$DIMTXT
 40
0.1
  9
$DIMCEN
 40
0.0
  9
$DIMTSZ
 40
0.0
  9
$DIMTOL
 70
     0
  9
$DIMLIM
 70
     0
  9
$DIMTIH
 70
     1
  9
$DIMTOH
 70
     1
  9
$DIMSE1
 70
     0
  9
$DIMSE2
 70
     0
  9
$DIMTAD
 70
     0
  9
$DIMZIN
 70
     0
  9
$DIMBLK
  1

  9
$DIMASO
 70
     1
  9
$DIMSHO
 70
     1
  9
$DIMPOST
  1

  9
$DIMAPOST
  1

  9
$DIMALT
 70
     0
  9
$DIMALTD
 70
     2
  9
$DIMALTF
 40
25.4
  9
$DIMLFAC
 40
1.0
  9
$DIMTOFL
 70
     0
  9
$DIMTVP
 40
0.0
  9
$DIMTIX
 70
     0
  9
$DIMSOXD
 70
     0
  9
$DIMSAH
 70
     0
  9
$DIMBLK1
  1

  9
$DIMBLK2
  1

  9
$DIMSTYLE
  2
STANDARD
  9
$DIMCLRD
 70
     0
  9
$DIMCLRE
 70
     0
  9
$DIMCLRT
 70
     0
  9
$DIMTFAC
 40
1.0
  9
$DIMGAP
 40
0.09
  9
$DIMJUST
 70
     0
  9
$DIMSD1
 70
     0
  9
$DIMSD2
 70
     0
  9
$DIMTOLJ
 70
     1
  9
$DIMTZIN
 70
     0
  9
$DIMALTZ
 70
     0
  9
$DIMALTTZ
 70
     0
  9
$DIMUPT
 70
     0
  9
$DIMDEC
 70
     2
  9
$DIMTDEC
 70
     2
  9
$DIMALTU
 70
     2
  9
$DIMALTTD
 70
     2
  9
$DIMTXSTY
  7
Romans
  9
$DIMAUNIT
 70
     0
  9
$DIMADEC
 70
     0
  9
$DIMALTRND
 40
0.0
  9
$DIMAZIN
 70
     0
  9
$DIMDSEP
 70
    46
  9
$DIMATFIT
 70
     0
  9
$DIMFRAC
 70
     0
  9
$DIMLDRBLK
  1

  9
$DIMLUNIT
 70
     2
  9
$DIMLWD
 70
    -2
  9
$DIMLWE
 70
    -2
  9
$DIMTMOVE
 70
     0
  9
$LUNITS
 70
     2
  9
$LUPREC
 70
     4
  9
$SKETCHINC
 40
0.1
  9
$FILLETRAD
 40
0.0
  9
$AUNITS
 70
     0
  9
$AUPREC
 70
     0
  9
$MENU
  1
acad
  9
$ELEVATION
 40
0.0
  9
$PELEVATION
 40
0.0
  9
$THICKNESS
 40
0.0
  9
$LIMCHECK
 70
     0
  9
$CHAMFERA
 40
0.0
  9
$CHAMFERB
 40
0.0
  9
$CHAMFERC
 40
0.0
  9
$CHAMFERD
 40
0.0
  9
$SKPOLY
 70
     0
  9
$TDCREATE
 40
2444971.791666667
  9
$TDUCREATE
 40
2444972.000000000
  9
$TDUPDATE
 40
2454132.337811273
  9
$TDUUPDATE
 40
2454132.546144607
  9
$TDINDWG
 40
0.0017798380
  9
$TDUSRTIMER
 40
0.0017798380
  9
$USRTIMER
 70
     1
  9
$ANGBASE
 50
0.0
  9
$ANGDIR
 70
     0
  9
$PDMODE
 70
     0
  9
$PDSIZE
 40
0.0
  9
$PLINEWID
 40
0.0
  9
$SPLFRAME
 70
     0
  9
$SPLINETYPE
 70
     6
  9
$SPLINESEGS
 70
     8
  9
$HANDSEED
  5
234
  9
$SURFTAB1
 70
     6
  9
$SURFTAB2
 70
     6
  9
$SURFTYPE
 70
     6
  9
$SURFU
 70
     6
  9
$SURFV
 70
     6
  9
$UCSBASE
  2

  9
$UCSNAME
  2

  9
$UCSORG
 10
0.0
 20
0.0
 30
0.0
  9
$UCSXDIR
 10
1.0
 20
0.0
 30
0.0
  9
$UCSYDIR
 10
0.0
 20
1.0
 30
0.0
  9
$UCSORTHOREF
  2

  9
$UCSORTHOVIEW
 70
     0
  9
$UCSORGTOP
 10
0.0
 20
0.0
 30
0.0
  9
$UCSORGBOTTOM
 10
0.0
 20
0.0
 30
0.0
  9
$UCSORGLEFT
 10
0.0
 20
0.0
 30
0.0
  9
$UCSORGRIGHT
 10
0.0
 20
0.0
 30
0.0
  9
$UCSORGFRONT
 10
0.0
 20
0.0
 30
0.0
  9
$UCSORGBACK
 10
0.0
 20
0.0
 30
0.0
  9
$PUCSBASE
  2

  9
$PUCSNAME
  2

  9
$PUCSORG
 10
0.0
 20
0.0
 30
0.0
  9
$PUCSXDIR
 10
1.0
 20
0.0
 30
0.0
  9
$PUCSYDIR
 10
0.0
 20
1.0
 30
0.0
  9
$PUCSORTHOREF
  2

  9
$PUCSORTHOVIEW
 70
     0
  9
$PUCSORGTOP
 10
0.0
 20
0.0
 30
0.0
  9
$PUCSORGBOTTOM
 10
0.0
 20
0.0
 30
0.0
  9
$PUCSORGLEFT
 10
0.0
 20
0.0
 30
0.0
  9
$PUCSORGRIGHT
 10
0.0
 20
0.0
 30
0.0
  9
$PUCSORGFRONT
 10
0.0
 20
0.0
 30
0.0
  9
$PUCSORGBACK
 10
0.0
 20
0.0
 30
0.0
  9
$USERI1
 70
     0
  9
$USERI2
 70
     0
  9
$USERI3
 70
     0
  9
$USERI4
 70
     0
  9
$USERI5
 70
     0
  9
$USERR1
 40
0.0
  9
$USERR2
 40
0.0
  9
$USERR3
 40
0.0
  9
$USERR4
 40
0.0
  9
$USERR5
 40
0.0
  9
$WORLDVIEW
 70
     1
  9
$SHADEDGE
 70
     3
  9
$SHADEDIF
 70
    70
  9
$TILEMODE
 70
     1
  9
$MAXACTVP
 70
    16
  9
$PINSBASE
 10
0.0
 20
0.0
 30
0.0
  9
$PLIMCHECK
 70
     0
  9
$PEXTMIN
 10
1.000000000000000E+20
 20
1.000000000000000E+20
 30
1.000000000000000E+20
  9
$PEXTMAX
 10
-1.000000000000000E+20
 20
-1.000000000000000E+20
 30
-1.000000000000000E+20
  9
$PLIMMIN
 10
0.0
 20
0.0
  9
$PLIMMAX
 10
12.0
 20
9.0
  9
$UNITMODE
 70
     0
  9
$VISRETAIN
 70
     0
  9
$PLINEGEN
 70
     1
  9
$PSLTSCALE
 70
     0
  9
$TREEDEPTH
 70
  3020
  9
$CMLSTYLE
  2
STANDARD
  9
$CMLJUST
 70
     0
  9
$CMLSCALE
 40
1.0
  9
$PROXYGRAPHICS
 70
     1
  9
$MEASUREMENT
 70
     0
  9
$CELWEIGHT
370
    -1
  9
$ENDCAPS
280
     0
  9
$JOINSTYLE
280
     0
  9
$LWDISPLAY
290
     0
  9
$INSUNITS
 70
     0
  9
$HYPERLINKBASE
  1

  9
$STYLESHEET
  1

  9
$XEDIT
290
     1
  9
$CEPSNTYPE
380
     0
  9
$PSTYLEMODE
290
     1
  9
$FINGERPRINTGUID
  2
{6E62DEEB-564A-482B-828B-B289007AA0FB}
  9
$VERSIONGUID
  2
{9753979C-D272-41BE-A19A-90BA8E6908BC}
  9
$EXTNAMES
290
     1
  9
$PSVPSCALE
 40
0.0
  9
$OLESTARTUP
290
     0
  0
ENDSEC
  0
SECTION
  2
CLASSES
  0
CLASS
  1
IMAGE
  2
AcDbRasterImage
  3
ISM
 90
    32895
280
     0
281
     1
  0
CLASS
  1
DICTIONARYVAR
  2
AcDbDictionaryVar
  3
ObjectDBX Classes
 90
        0
280
     0
281
     0
  0
CLASS
  1
RASTERVARIABLES
  2
AcDbRasterVariables
  3
ISM
 90
    32768
280
     0
281
     0
  0
CLASS
  1
IMAGEDEF
  2
AcDbRasterImageDef
  3
ISM
 90
    32768
280
     0
281
     0
  0
CLASS
  1
IMAGEDEF_REACTOR
  2
AcDbRasterImageDefReactor
  3
ISM
 90
    32769
280
     0
281
     0
  0
CLASS
  1
IDBUFFER
  2
AcDbIdBuffer
  3
ObjectDBX Classes
 90
    32768
280
     0
281
     0
  0
CLASS
  1
SPATIAL_FILTER
  2
AcDbSpatialFilter
  3
ObjectDBX Classes
 90
    32768
280
     0
281
     0
  0
CLASS
  1
SORTENTSTABLE
  2
AcDbSortentsTable
  3
ObjectDBX Classes
 90
    32768
280
     0
281
     0
  0
CLASS
  1
LAYER_INDEX
  2
AcDbLayerIndex
  3
ObjectDBX Classes
 90
    32768
280
     0
281
     0
  0
CLASS
  1
SPATIAL_INDEX
  2
AcDbSpatialIndex
  3
ObjectDBX Classes
 90
    32768
280
     0
281
     0
  0
CLASS
  1
OBJECT_PTR
  2
CAseDLPNTableRecord
  3
ASE-LPNTableRecord
 90
    32769
280
     0
281
     0
  0
CLASS
  1
LAYOUT
  2
AcDbLayout
  3
ObjectDBX Classes
 90
        0
280
     0
281
     0
  0
CLASS
  1
PLOTSETTINGS
  2
AcDbPlotSettings
  3
ObjectDBX Classes
 90
    32768
280
     0
281
     0
  0
CLASS
  1
ACDBDICTIONARYWDFLT
  2
AcDbDictionaryWithDefault
  3
ObjectDBX Classes
 90
        0
280
     0
281
     0
  0
CLASS
  1
ACDBPLACEHOLDER
  2
AcDbPlaceHolder
  3
ObjectDBX Classes
 90
        0
280
     0
281
     0
  0
CLASS
  1
VBA_PROJECT
  2
AcDbVbaProject
  3
acad
 90
    32768
280
     0
281
     0
  0
CLASS
  1
WIPEOUT
  2
AcDbWipeout
  3
"WipeOut|Product Desc: Object Enabler for WipeOut entity^I^I^I^I^I^I|Company: Autodesk, Inc.^I^I^I^I^I^I|WEB Address: www.autodesk.com"
 90
    32895
280
     0
281
     1
  0
CLASS
  1
WIPEOUTVARIABLES
  2
AcDbWipeoutVariables
  3
"WipeOut|Product Desc:     WipeOut Dbx Application|Company:          Autodesk, Inc.|WEB Address:      www.autodesk.com"
 90
    32768
280
     0
281
     0
  0
CLASS
  1
RTEXT
  2
RText
  3
RText|AutoCAD Express Tool|expresstools@autodesk.com
 90
    33791
280
     0
281
     1
  0
CLASS
  1
ARCALIGNEDTEXT
  2
AcDbArcAlignedText
  3
ATEXT|AutoCAD Express Tool|expresstools@autodesk.com
 90
    32768
280
     0
281
     1
  0
CLASS
  1
TABLESTYLE
  2
AcDbTableStyle
  3
ObjectDBX Classes
 90
     2047
280
     0
281
     0
  0
ENDSEC
  0
SECTION
  2
TABLES
  0
TABLE
  2
VPORT
  5
6
330
0
100
AcDbSymbolTable
 70
     2
  0
VPORT
  5
22E
330
6
100
AcDbSymbolTableRecord
100
AcDbViewportTableRecord
  2
*Active
 70
     0
 10
0.0
 20
0.0
 11
1.0
 21
1.0
 12
-53.35050944803512
 22
-40.9342542439863
 13
0.0
 23
0.0
 14
1.0
 24
1.0
 15
0.0
 25
0.0
 16
0.0
 26
0.0
 36
1.0
 17
0.0
 27
0.0
 37
0.0
 40
86.10958557560769
 41
1.598475222363405
 42
50.0
 43
0.0
 44
0.0
 50
0.0
 51
0.0
 71
     0
 72
   100
 73
     1
 74
     1
 75
     0
 76
     0
 77
     0
 78
     0
281
     0
 65
     1
110
0.0
120
0.0
130
0.0
111
1.0
121
0.0
131
0.0
112
0.0
122
1.0
132
0.0
 79
     0
146
0.0
  0
ENDTAB
  0
TABLE
  2
LTYPE
  5
3
330
0
100
AcDbSymbolTable
 70
     6
  0
LTYPE
  5
C
330
3
100
AcDbSymbolTableRecord
100
AcDbLinetypeTableRecord
  2
BYBLOCK
 70
     0
  3

 72
    65
 73
     0
 40
0.0
  0
LTYPE
  5
D
330
3
100
AcDbSymbolTableRecord
100
AcDbLinetypeTableRecord
  2
BYLAYER
 70
     0
  3

 72
    65
 73
     0
 40
0.0
  0
LTYPE
  5
E
330
3
100
AcDbSymbolTableRecord
100
AcDbLinetypeTableRecord
  2
CONTINUOUS
 70
     0
  3
Solid line
 72
    65
 73
     0
 40
0.0
  0
LTYPE
  5
F
330
3
100
AcDbSymbolTableRecord
100
AcDbLinetypeTableRecord
  2
CENTER
 70
     0
  3
____ _ ____ _ ____ _ ____ _ ____ _ ____ _ ____
 72
    65
 73
     4
 40
0.6
 49
0.375
 74
     0
 49
-0.075
 74
     0
 49
0.075
 74
     0
 49
-0.075
 74
     0
  0
LTYPE
  5
10
330
3
100
AcDbSymbolTableRecord
100
AcDbLinetypeTableRecord
  2
HIDDEN
 70
     0
  3
- - - - - - - - - - - - - - - - - - - -
 72
    65
 73
     2
 40
0.2
 49
0.1
 74
     0
 49
-0.1
 74
     0
  0
LTYPE
  5
11
330
3
100
AcDbSymbolTableRecord
100
AcDbLinetypeTableRecord
  2
PHANTOM
 70
     0
  3
_____ _ _ _____ _ _ _____ _ _ _____
 72
    65
 73
     6
 40
0.8
 49
0.45
 74
     0
 49
-0.05
 74
     0
 49
0.1
 74
     0
 49
-0.05
 74
     0
 49
0.1
 74
     0
 49
-0.05
 74
     0
  0
LTYPE
  5
12
330
3
100
AcDbSymbolTableRecord
100
AcDbLinetypeTableRecord
  2
DOT
 70
     0
  3
. . . . . . . . . . . . . . . . . . . .
 72
    65
 73
     2
 40
0.2
 49
0.1
 74
     0
 49
-0.1
 74
     0
  0
LTYPE
  5
13
330
3
100
AcDbSymbolTableRecord
100
AcDbLinetypeTableRecord
  2
DASHED
 70
     0
  3
- - - - - - - - - - - - - - - - - - - -
 72
    65
 73
     2
 40
0.2
 49
0.1
 74
     0
 49
-0.1
 74
     0
  0
ENDTAB
  0
TABLE
  2
LAYER
  5
1
330
0
100
AcDbSymbolTable
 70
     6
  0
LAYER
  5
14
330
1
100
AcDbSymbolTableRecord
100
AcDbLayerTableRecord
  2
0
 70
     0
 62
     7
  6
CONTINUOUS
370
    -3
390
93
  0
LAYER
  5
15
330
1
100
AcDbSymbolTableRecord
100
AcDbLayerTableRecord
  2
DEFAULT_1
 70
     0
 62
     7
  6
CENTER
370
    -3
390
93
  0
LAYER
  5
16
330
1
100
AcDbSymbolTableRecord
100
AcDbLayerTableRecord
  2
DEFAULT_2
 70
     0
 62
     8
  6
HIDDEN
370
    -3
390
93
  0
LAYER
  5
17
330
1
100
AcDbSymbolTableRecord
100
AcDbLayerTableRecord
  2
DEFAULT_3
 70
     0
 62
     7
  6
PHANTOM
370
    -3
390
93
  0
LAYER
  5
18
330
1
100
AcDbSymbolTableRecord
100
AcDbLayerTableRecord
  2
8_NOTE_BALLOONS_SYMBOLS_GTOLS
 70
     0
 62
     7
  6
CONTINUOUS
370
    -3
390
93
  0
LAYER
  5
165
330
1
100
AcDbSymbolTableRecord
100
AcDbLayerTableRecord
  2
Defpoints
 70
     0
 62
     7
  6
CONTINUOUS
290
     0
370
    -3
390
93
  0
ENDTAB
  0
TABLE
  2
STYLE
  5
2
330
0
100
AcDbSymbolTable
 70
     2
  0
STYLE
  5
1B
330
2
100
AcDbSymbolTableRecord
100
AcDbTextStyleTableRecord
  2
STANDARD
 70
     0
 40
0.0
 41
1.0
 50
0.0
 71
     0
 42
0.0
  3
txt
  4

  0
STYLE
  5
108
330
2
100
AcDbSymbolTableRecord
100
AcDbTextStyleTableRecord
  2
Romans
 70
     0
 40
0.0
 41
1.0
 50
0.0
 71
     0
 42
0.2
  3
romans.shx
  4

  0
ENDTAB
  0
TABLE
  2
VIEW
  5
4
330
0
100
AcDbSymbolTable
 70
     6
  0
ENDTAB
  0
TABLE
  2
UCS
  5
5
330
0
100
AcDbSymbolTable
 70
     0
  0
ENDTAB
  0
TABLE
  2
APPID
  5
7
330
0
100
AcDbSymbolTable
 70
     3
  0
APPID
  5
1A
330
7
100
AcDbSymbolTableRecord
100
AcDbRegAppTableRecord
  2
ACAD
 70
     0
  0
APPID
  5
A0
330
7
100
AcDbSymbolTableRecord
100
AcDbRegAppTableRecord
  2
ACAD_DSTYLE_DIMTEXT_FILL
 70
     0
  0
APPID
  5
228
330
7
100
AcDbSymbolTableRecord
100
AcDbRegAppTableRecord
  2
DCO15
 70
     0
  0
ENDTAB
  0
TABLE
  2
DIMSTYLE
  5
8
330
0
100
AcDbSymbolTable
 70
     1
100
AcDbDimStyleTable
 71
     1
340
23
  0
DIMSTYLE
105
23
102
{ACAD_REACTORS
330
164
330
173
330
195
330
1D7
330
1E5
330
1F3
330
201
102
}
330
8
100
AcDbSymbolTableRecord
100
AcDbDimStyleTableRecord
  2
STANDARD
 70
     0
 40
12.0
 41
0.1
 43
0.1
 44
0.1
 47
0.001
 48
0.001
140
0.1
141
0.0
271
     2
272
     2
289
     0
340
108
  0
ENDTAB
  0
TABLE
  2
BLOCK_RECORD
  5
1E
330
0
100
AcDbSymbolTable
 70
     7
  0
BLOCK_RECORD
  5
1C
330
1E
100
AcDbSymbolTableRecord
100
AcDbBlockTableRecord
  2
*MODEL_SPACE
340
9A
  0
BLOCK_RECORD
  5
1D
330
1E
100
AcDbSymbolTableRecord
100
AcDbBlockTableRecord
  2
*PAPER_SPACE
340
9B
  0
BLOCK_RECORD
  5
166
330
1E
100
AcDbSymbolTableRecord
100
AcDbBlockTableRecord
  2
*D0
340
0
  0
BLOCK_RECORD
  5
174
330
1E
100
AcDbSymbolTableRecord
100
AcDbBlockTableRecord
  2
*D1
340
0
  0
BLOCK_RECORD
  5
196
330
1E
100
AcDbSymbolTableRecord
100
AcDbBlockTableRecord
  2
*D2
340
0
  0
BLOCK_RECORD
  5
1D8
330
1E
100
AcDbSymbolTableRecord
100
AcDbBlockTableRecord
  2
*D3
340
0
  0
BLOCK_RECORD
  5
1E6
330
1E
100
AcDbSymbolTableRecord
100
AcDbBlockTableRecord
  2
*D4
340
0
  0
BLOCK_RECORD
  5
1F4
330
1E
100
AcDbSymbolTableRecord
100
AcDbBlockTableRecord
  2
*D5
340
0
  0
BLOCK_RECORD
  5
202
330
1E
100
AcDbSymbolTableRecord
100
AcDbBlockTableRecord
  2
*D6
340
0
  0
ENDTAB
  0
ENDSEC
  0
SECTION
  2
BLOCKS
  0
BLOCK
  5
1F
330
1C
100
AcDbEntity
  8
0
100
AcDbBlockBegin
  2
*MODEL_SPACE
 70
     0
 10
0.0
 20
0.0
 30
0.0
  3
*MODEL_SPACE
  1

  0
ENDBLK
  5
20
330
1C
100
AcDbEntity
  8
0
100
AcDbBlockEnd
  0
BLOCK
  5
21
330
1D
100
AcDbEntity
 67
     1
  8
0
100
AcDbBlockBegin
  2
*PAPER_SPACE
 70
     0
 10
0.0
 20
0.0
 30
0.0
  3
*PAPER_SPACE
  1

  0
ENDBLK
  5
22
330
1D
100
AcDbEntity
 67
     1
  8
0
100
AcDbBlockEnd
  0
BLOCK
  5
171
330
166
100
AcDbEntity
  8
0
100
AcDbBlockBegin
  2
*D0
 70
     1
 10
0.0
 20
0.0
 30
0.0
  3
*D0
  1

  0
LINE
  5
1CD
330
166
100
AcDbEntity
  8
0
 62
     0
370
    -2
100
AcDbLine
 10
-30.9297492793
 20
-70.34424391439999
 30
0.0
 11
-20.02743556775556
 21
-70.34424391439999
 31
0.0
  0
LINE
  5
1CE
330
166
100
AcDbEntity
  8
0
 62
     0
370
    -2
100
AcDbLine
 10
-30.9297492793
 20
-16.3442439144
 30
0.0
 11
-20.02743556775555
 21
-16.3442439144
 31
0.0
  0
LINE
  5
1CF
330
166
100
AcDbEntity
  8
0
 62
     0
370
    -2
100
AcDbLine
 10
-21.22743556775556
 20
-69.14424391439999
 30
0.0
 11
-21.22743556775556
 21
-46.02395614848366
 31
0.0
  0
LINE
  5
1D0
330
166
100
AcDbEntity
  8
0
 62
     0
370
    -2
100
AcDbLine
 10
-21.22743556775555
 20
-17.5442439144
 30
0.0
 11
-21.22743556775556
 21
-40.66395614848366
 31
0.0
  0
SOLID
  5
1D1
330
166
100
AcDbEntity
  8
0
 62
     0
100
AcDbTrace
 10
-21.42743556775556
 20
-69.14424391439999
 30
0.0
 11
-21.02743556775556
 21
-69.14424391439999
 31
0.0
 12
-21.22743556775556
 22
-70.34424391439999
 32
0.0
 13
-21.22743556775556
 23
-70.34424391439999
 33
0.0
  0
SOLID
  5
1D2
330
166
100
AcDbEntity
  8
0
 62
     0
100
AcDbTrace
 10
-21.42743556775555
 20
-17.5442439144
 30
0.0
 11
-21.02743556775555
 21
-17.5442439144
 31
0.0
 12
-21.22743556775555
 22
-16.3442439144
 32
0.0
 13
-21.22743556775555
 23
-16.3442439144
 33
0.0
  0
MTEXT
  5
1D3
330
166
100
AcDbEntity
  8
0
 62
     0
100
AcDbMText
 10
-21.22743556775555
 20
-43.34395614848367
 30
0.0
 40
1.2
 41
0.0
 71
     5
 72
     1
  1
\A1;54.00\PVAH
  7
Romans
 73
     1
 44
1.0
1001
ACAD
1000
MTEXTBEGIN
1070
    73
1070
     1
1070
    44
1040
1.0
1070
    74
1070
     0
1000
MTEXTEND
  0
POINT
  5
1D4
330
166
100
AcDbEntity
  8
Defpoints
 62
     0
100
AcDbPoint
 10
-31.6797492793
 20
-70.34424391439999
 30
0.0
  0
POINT
  5
1D5
330
166
100
AcDbEntity
  8
Defpoints
 62
     0
100
AcDbPoint
 10
-31.6797492793
 20
-16.3442439144
 30
0.0
  0
POINT
  5
1D6
330
166
100
AcDbEntity
  8
Defpoints
 62
     0
100
AcDbPoint
 10
-21.22743556775555
 20
-16.3442439144
 30
0.0
  0
ENDBLK
  5
172
330
166
100
AcDbEntity
  8
0
100
AcDbBlockEnd
  0
BLOCK
  5
17F
330
174
100
AcDbEntity
  8
0
100
AcDbBlockBegin
  2
*D1
 70
     1
 10
0.0
 20
0.0
 30
0.0
  3
*D1
  1

  0
LINE
  5
1C3
330
174
100
AcDbEntity
  8
0
 62
     0
370
    -2
100
AcDbLine
 10
-27.9197492793
 20
-13.3442439144
 30
0.0
 11
-13.26625046305496
 21
-13.3442439144
 31
0.0
  0
LINE
  5
1C4
330
174
100
AcDbEntity
  8
0
 62
     0
370
    -2
100
AcDbLine
 10
-27.9297492793
 20
-73.34424391439999
 30
0.0
 11
-13.26625046305497
 21
-73.34424391439999
 31
0.0
  0
LINE
  5
1C5
330
174
100
AcDbEntity
  8
0
 62
     0
370
    -2
100
AcDbLine
 10
-14.46625046305496
 20
-14.5442439144
 30
0.0
 11
-14.46625046305497
 21
-37.68385874221466
 31
0.0
  0
LINE
  5
1C6
330
174
100
AcDbEntity
  8
0
 62
     0
370
    -2
100
AcDbLine
 10
-14.46625046305497
 20
-72.14424391439999
 30
0.0
 11
-14.46625046305497
 21
-43.04385874221465
 31
0.0
  0
SOLID
  5
1C7
330
174
100
AcDbEntity
  8
0
 62
     0
100
AcDbTrace
 10
-14.66625046305496
 20
-14.5442439144
 30
0.0
 11
-14.26625046305496
 21
-14.5442439144
 31
0.0
 12
-14.46625046305496
 22
-13.3442439144
 32
0.0
 13
-14.46625046305496
 23
-13.3442439144
 33
0.0
  0
SOLID
  5
1C8
330
174
100
AcDbEntity
  8
0
 62
     0
100
AcDbTrace
 10
-14.66625046305497
 20
-72.14424391439999
 30
0.0
 11
-14.26625046305497
 21
-72.14424391439999
 31
0.0
 12
-14.46625046305497
 22
-73.34424391439999
 32
0.0
 13
-14.46625046305497
 23
-73.34424391439999
 33
0.0
  0
MTEXT
  5
1C9
330
174
100
AcDbEntity
  8
0
 62
     0
100
AcDbMText
 10
-14.46625046305496
 20
-40.36385874221465
 30
0.0
 40
1.2
 41
0.0
 71
     5
 72
     1
  1
\A1;60.00\PO.D.
  7
Romans
 73
     1
 44
1.0
1001
ACAD
1000
MTEXTBEGIN
1070
    73
1070
     1
1070
    44
1040
1.0
1070
    74
1070
     0
1000
MTEXTEND
  0
POINT
  5
1CA
330
174
100
AcDbEntity
  8
Defpoints
 62
     0
100
AcDbPoint
 10
-28.6697492793
 20
-13.3442439144
 30
0.0
  0
POINT
  5
1CB
330
174
100
AcDbEntity
  8
Defpoints
 62
     0
100
AcDbPoint
 10
-28.6797492793
 20
-73.34424391439999
 30
0.0
  0
POINT
  5
1CC
330
174
100
AcDbEntity
  8
Defpoints
 62
     0
100
AcDbPoint
 10
-14.46625046305497
 20
-73.34424391439999
 30
0.0
  0
ENDBLK
  5
180
330
174
100
AcDbEntity
  8
0
100
AcDbBlockEnd
  0
BLOCK
  5
1A2
330
196
100
AcDbEntity
  8
0
100
AcDbBlockBegin
  2
*D2
 70
     1
 10
0.0
 20
0.0
 30
0.0
  3
*D2
  1

  0
LINE
  5
1AE
330
196
100
AcDbEntity
  8
0
 62
     0
370
    -2
100
AcDbLine
 10
-30.9197492793
 20
-16.3442439144
 30
0.0
 11
-20.02743556775555
 21
-16.3442439144
 31
0.0
  0
LINE
  5
1AF
330
196
100
AcDbEntity
  8
0
 62
     0
370
    -2
100
AcDbLine
 10
-27.9197492793
 20
-13.3442439144
 30
0.0
 11
-20.02743556775555
 21
-13.3442439144
 31
0.0
  0
LINE
  5
1B0
330
196
100
AcDbEntity
  8
0
 62
     0
370
    -2
100
AcDbLine
 10
-21.22743556775555
 20
-17.5442439144
 30
0.0
 11
-21.22743556775555
 21
-18.7442439144
 31
0.0
  0
LINE
  5
1B1
330
196
100
AcDbEntity
  8
0
 62
     0
370
    -2
100
AcDbLine
 10
-21.22743556775555
 20
-12.1442439144
 30
0.0
 11
-21.22743556775555
 21
-10.9442439144
 31
0.0
  0
SOLID
  5
1B2
330
196
100
AcDbEntity
  8
0
 62
     0
100
AcDbTrace
 10
-21.42743556775555
 20
-17.5442439144
 30
0.0
 11
-21.02743556775555
 21
-17.5442439144
 31
0.0
 12
-21.22743556775555
 22
-16.3442439144
 32
0.0
 13
-21.22743556775555
 23
-16.3442439144
 33
0.0
  0
SOLID
  5
1B3
330
196
100
AcDbEntity
  8
0
 62
     0
100
AcDbTrace
 10
-21.42743556775555
 20
-12.1442439144
 30
0.0
 11
-21.02743556775555
 21
-12.1442439144
 31
0.0
 12
-21.22743556775555
 22
-13.3442439144
 32
0.0
 13
-21.22743556775555
 23
-13.3442439144
 33
0.0
  0
MTEXT
  5
1B4
330
196
100
AcDbEntity
  8
0
 62
     0
100
AcDbMText
 10
-21.22743556775555
 20
-14.8442439144
 30
0.0
 40
1.2
 41
0.0
 71
     5
 72
     1
  1
\A1;3.00
  7
Romans
 73
     1
 44
1.0
1001
ACAD
1000
MTEXTBEGIN
1070
    73
1070
     1
1070
    44
1040
1.0
1070
    74
1070
     0
1000
MTEXTEND
  0
POINT
  5
1B5
330
196
100
AcDbEntity
  8
Defpoints
 62
     0
100
AcDbPoint
 10
-31.6697492793
 20
-16.3442439144
 30
0.0
  0
POINT
  5
1B6
330
196
100
AcDbEntity
  8
Defpoints
 62
     0
100
AcDbPoint
 10
-28.6697492793
 20
-13.3442439144
 30
0.0
  0
POINT
  5
1B7
330
196
100
AcDbEntity
  8
Defpoints
 62
     0
100
AcDbPoint
 10
-21.22743556775555
 20
-13.3442439144
 30
0.0
  0
ENDBLK
  5
1A3
330
196
100
AcDbEntity
  8
0
100
AcDbBlockEnd
  0
BLOCK
  5
1E3
330
1D8
100
AcDbEntity
  8
0
100
AcDbBlockBegin
  2
*D3
 70
     1
 10
0.0
 20
0.0
 30
0.0
  3
*D3
  1

  0
LINE
  5
1D9
330
1D8
100
AcDbEntity
  8
0
 62
     0
370
    -2
100
AcDbLine
 10
-0.4263769642
 20
-12.6542439144
 30
0.0
 11
-0.4263769641999998
 21
-10.84251394511166
 31
0.0
  0
LINE
  5
1DA
330
1D8
100
AcDbEntity
  8
0
 62
     0
370
    -2
100
AcDbLine
 10
-2.0513769642
 20
-12.6542439144
 30
0.0
 11
-2.0513769642
 21
-10.84251394511166
 31
0.0
  0
LINE
  5
1DB
330
1D8
100
AcDbEntity
  8
0
 62
     0
370
    -2
100
AcDbLine
 10
0.7736230358000002
 20
-12.04251394511166
 30
0.0
 11
1.9736230358
 21
-12.04251394511166
 31
0.0
  0
LINE
  5
1DC
330
1D8
100
AcDbEntity
  8
0
 62
     0
370
    -2
100
AcDbLine
 10
-3.2513769642
 20
-12.04251394511166
 30
0.0
 11
-4.451376964199999
 21
-12.04251394511166
 31
0.0
  0
SOLID
  5
1DD
330
1D8
100
AcDbEntity
  8
0
 62
     0
100
AcDbTrace
 10
0.7736230358000002
 20
-11.84251394511166
 30
0.0
 11
0.7736230358000002
 21
-12.24251394511166
 31
0.0
 12
-0.4263769641999999
 22
-12.04251394511166
 32
0.0
 13
-0.4263769641999999
 23
-12.04251394511166
 33
0.0
  0
SOLID
  5
1DE
330
1D8
100
AcDbEntity
  8
0
 62
     0
100
AcDbTrace
 10
-3.2513769642
 20
-11.84251394511166
 30
0.0
 11
-3.2513769642
 21
-12.24251394511166
 31
0.0
 12
-2.0513769642
 22
-12.04251394511166
 32
0.0
 13
-2.0513769642
 23
-12.04251394511166
 33
0.0
  0
MTEXT
  5
1DF
330
1D8
100
AcDbEntity
  8
0
 62
     0
100
AcDbMText
 10
-7.274234107057143
 20
-12.04251394511166
 30
0.0
 40
1.2
 41
0.0
 71
     5
 72
     1
  1
\A1;1.63
  7
Romans
 73
     1
 44
1.0
1001
ACAD
1000
MTEXTBEGIN
1070
    73
1070
     1
1070
    44
1040
1.0
1070
    74
1070
     0
1000
MTEXTEND
  0
POINT
  5
1E0
330
1D8
100
AcDbEntity
  8
Defpoints
 62
     0
100
AcDbPoint
 10
-0.4263769642
 20
-13.4042439144
 30
0.0
  0
POINT
  5
1E1
330
1D8
100
AcDbEntity
  8
Defpoints
 62
     0
100
AcDbPoint
 10
-2.0513769642
 20
-13.4042439144
 30
0.0
  0
POINT
  5
1E2
330
1D8
100
AcDbEntity
  8
Defpoints
 62
     0
100
AcDbPoint
 10
-2.0513769642
 20
-12.04251394511166
 30
0.0
  0
ENDBLK
  5
1E4
330
1D8
100
AcDbEntity
  8
0
100
AcDbBlockEnd
  0
BLOCK
  5
1F1
330
1E6
100
AcDbEntity
  8
0
100
AcDbBlockBegin
  2
*D4
 70
     1
 10
0.0
 20
0.0
 30
0.0
  3
*D4
  1

  0
LINE
  5
219
330
1E6
100
AcDbEntity
  8
0
 62
     0
370
    -2
100
AcDbLine
 10
-28.6797492793
 20
-74.09424391439999
 30
0.0
 11
-28.6797492793
 21
-83.66149092851172
 31
0.0
  0
LINE
  5
21A
330
1E6
100
AcDbEntity
  8
0
 62
     0
370
    -2
100
AcDbLine
 10
-108.6797492793
 20
-74.09424391439999
 30
0.0
 11
-108.6797492793
 21
-83.66149092851172
 31
0.0
  0
LINE
  5
21B
330
1E6
100
AcDbEntity
  8
0
 62
     0
370
    -2
100
AcDbLine
 10
-29.8797492793
 20
-82.46149092851172
 30
0.0
 11
-62.82832070787143
 21
-82.46149092851172
 31
0.0
  0
LINE
  5
21C
330
1E6
100
AcDbEntity
  8
0
 62
     0
370
    -2
100
AcDbLine
 10
-107.4797492793
 20
-82.46149092851172
 30
0.0
 11
-74.53117785072857
 21
-82.46149092851172
 31
0.0
  0
SOLID
  5
21D
330
1E6
100
AcDbEntity
  8
0
 62
     0
100
AcDbTrace
 10
-29.8797492793
 20
-82.26149092851171
 30
0.0
 11
-29.8797492793
 21
-82.66149092851172
 31
0.0
 12
-28.6797492793
 22
-82.46149092851172
 32
0.0
 13
-28.6797492793
 23
-82.46149092851172
 33
0.0
  0
SOLID
  5
21E
330
1E6
100
AcDbEntity
  8
0
 62
     0
100
AcDbTrace
 10
-107.4797492793
 20
-82.26149092851171
 30
0.0
 11
-107.4797492793
 21
-82.66149092851172
 31
0.0
 12
-108.6797492793
 22
-82.46149092851172
 32
0.0
 13
-108.6797492793
 23
-82.46149092851172
 33
0.0
  0
MTEXT
  5
21F
330
1E6
100
AcDbEntity
  8
0
 62
     0
100
AcDbMText
 10
-68.67974927929999
 20
-82.46149092851172
 30
0.0
 40
1.2
 41
0.0
 71
     5
 72
     1
  1
\A1;80.00 O.D.
  7
Romans
 73
     1
 44
1.0
1001
ACAD
1000
MTEXTBEGIN
1070
    73
1070
     1
1070
    44
1040
1.0
1070
    74
1070
     0
1000
MTEXTEND
  0
POINT
  5
220
330
1E6
100
AcDbEntity
  8
Defpoints
 62
     0
100
AcDbPoint
 10
-28.6797492793
 20
-73.34424391439999
 30
0.0
  0
POINT
  5
221
330
1E6
100
AcDbEntity
  8
Defpoints
 62
     0
100
AcDbPoint
 10
-108.6797492793
 20
-73.34424391439999
 30
0.0
  0
POINT
  5
222
330
1E6
100
AcDbEntity
  8
Defpoints
 62
     0
100
AcDbPoint
 10
-108.6797492793
 20
-82.46149092851172
 30
0.0
  0
ENDBLK
  5
1F2
330
1E6
100
AcDbEntity
  8
0
100
AcDbBlockEnd
  0
BLOCK
  5
1FF
330
1F4
100
AcDbEntity
  8
0
100
AcDbBlockBegin
  2
*D5
 70
     1
 10
0.0
 20
0.0
 30
0.0
  3
*D5
  1

  0
LINE
  5
20F
330
1F4
100
AcDbEntity
  8
0
 62
     0
370
    -2
100
AcDbLine
 10
-31.6797492793
 20
-71.0942439144
 30
0.0
 11
-31.6797492793
 21
-79.00516513856867
 31
0.0
  0
LINE
  5
210
330
1F4
100
AcDbEntity
  8
0
 62
     0
370
    -2
100
AcDbLine
 10
-105.6797492793
 20
-71.0942439144
 30
0.0
 11
-105.6797492793
 21
-79.00516513856867
 31
0.0
  0
LINE
  5
211
330
1F4
100
AcDbEntity
  8
0
 62
     0
370
    -2
100
AcDbLine
 10
-32.8797492793
 20
-77.80516513856866
 30
0.0
 11
-62.85689213644285
 21
-77.80516513856866
 31
0.0
  0
LINE
  5
212
330
1F4
100
AcDbEntity
  8
0
 62
     0
370
    -2
100
AcDbLine
 10
-104.4797492793
 20
-77.80516513856866
 30
0.0
 11
-74.50260642215714
 21
-77.80516513856866
 31
0.0
  0
SOLID
  5
213
330
1F4
100
AcDbEntity
  8
0
 62
     0
100
AcDbTrace
 10
-32.8797492793
 20
-77.60516513856867
 30
0.0
 11
-32.8797492793
 21
-78.00516513856867
 31
0.0
 12
-31.6797492793
 22
-77.80516513856866
 32
0.0
 13
-31.6797492793
 23
-77.80516513856866
 33
0.0
  0
SOLID
  5
214
330
1F4
100
AcDbEntity
  8
0
 62
     0
100
AcDbTrace
 10
-104.4797492793
 20
-77.60516513856867
 30
0.0
 11
-104.4797492793
 21
-78.00516513856867
 31
0.0
 12
-105.6797492793
 22
-77.80516513856866
 32
0.0
 13
-105.6797492793
 23
-77.80516513856866
 33
0.0
  0
MTEXT
  5
215
330
1F4
100
AcDbEntity
  8
0
 62
     0
100
AcDbMText
 10
-68.67974927929999
 20
-77.80516513856866
 30
0.0
 40
1.2
 41
0.0
 71
     5
 72
     1
  1
\A1;74.00 VAW
  7
Romans
 73
     1
 44
1.0
1001
ACAD
1000
MTEXTBEGIN
1070
    73
1070
     1
1070
    44
1040
1.0
1070
    74
1070
     0
1000
MTEXTEND
  0
POINT
  5
216
330
1F4
100
AcDbEntity
  8
Defpoints
 62
     0
100
AcDbPoint
 10
-31.6797492793
 20
-70.34424391439999
 30
0.0
  0
POINT
  5
217
330
1F4
100
AcDbEntity
  8
Defpoints
 62
     0
100
AcDbPoint
 10
-105.6797492793
 20
-70.34424391439999
 30
0.0
  0
POINT
  5
218
330
1F4
100
AcDbEntity
  8
Defpoints
 62
     0
100
AcDbPoint
 10
-105.6797492793
 20
-77.80516513856866
 30
0.0
  0
ENDBLK
  5
200
330
1F4
100
AcDbEntity
  8
0
100
AcDbBlockEnd
  0
BLOCK
  5
20D
330
202
100
AcDbEntity
  8
0
100
AcDbBlockBegin
  2
*D6
 70
     1
 10
0.0
 20
0.0
 30
0.0
  3
*D6
  1

  0
LINE
  5
203
330
202
100
AcDbEntity
  8
0
 62
     0
370
    -2
100
AcDbLine
 10
-31.6797492793
 20
-71.0942439144
 30
0.0
 11
-31.6797492793
 21
-79.00516513856867
 31
0.0
  0
LINE
  5
204
330
202
100
AcDbEntity
  8
0
 62
     0
370
    -2
100
AcDbLine
 10
-28.6797492793
 20
-74.09424391439999
 30
0.0
 11
-28.6797492793
 21
-79.00516513856867
 31
0.0
  0
LINE
  5
205
330
202
100
AcDbEntity
  8
0
 62
     0
370
    -2
100
AcDbLine
 10
-32.8797492793
 20
-77.80516513856866
 30
0.0
 11
-34.07974927930001
 21
-77.80516513856866
 31
0.0
  0
LINE
  5
206
330
202
100
AcDbEntity
  8
0
 62
     0
370
    -2
100
AcDbLine
 10
-27.4797492793
 20
-77.80516513856866
 30
0.0
 11
-26.2797492793
 21
-77.80516513856866
 31
0.0
  0
SOLID
  5
207
330
202
100
AcDbEntity
  8
0
 62
     0
100
AcDbTrace
 10
-32.8797492793
 20
-77.60516513856867
 30
0.0
 11
-32.8797492793
 21
-78.00516513856867
 31
0.0
 12
-31.6797492793
 22
-77.80516513856866
 32
0.0
 13
-31.6797492793
 23
-77.80516513856866
 33
0.0
  0
SOLID
  5
208
330
202
100
AcDbEntity
  8
0
 62
     0
100
AcDbTrace
 10
-27.4797492793
 20
-77.60516513856867
 30
0.0
 11
-27.4797492793
 21
-78.00516513856867
 31
0.0
 12
-28.6797492793
 22
-77.80516513856866
 32
0.0
 13
-28.6797492793
 23
-77.80516513856866
 33
0.0
  0
MTEXT
  5
209
330
202
100
AcDbEntity
  8
0
 62
     0
100
AcDbMText
 10
-23.37117785072857
 20
-77.80516513856866
 30
0.0
 40
1.2
 41
0.0
 71
     5
 72
     1
  1
\A1;3.00
  7
Romans
 73
     1
 44
1.0
1001
ACAD
1000
MTEXTBEGIN
1070
    73
1070
     1
1070
    44
1040
1.0
1070
    74
1070
     0
1000
MTEXTEND
  0
POINT
  5
20A
330
202
100
AcDbEntity
  8
Defpoints
 62
     0
100
AcDbPoint
 10
-31.6797492793
 20
-70.34424391439999
 30
0.0
  0
POINT
  5
20B
330
202
100
AcDbEntity
  8
Defpoints
 62
     0
100
AcDbPoint
 10
-28.6797492793
 20
-73.34424391439999
 30
0.0
  0
POINT
  5
20C
330
202
100
AcDbEntity
  8
Defpoints
 62
     0
100
AcDbPoint
 10
-28.6797492793
 20
-77.80516513856866
 30
0.0
  0
ENDBLK
  5
20E
330
202
100
AcDbEntity
  8
0
100
AcDbBlockEnd
  0
ENDSEC
  0
SECTION
  2
ENTITIES
  0
LINE
  5
28
330
1C
100
AcDbEntity
  8
0
  6
Continuous
 62
     7
100
AcDbLine
 10
-108.6647492793
 20
-13.3442439144
 30
0.0
 11
-108.6647492793
 21
-73.32924391439999
 31
0.0
  0
LINE
  5
29
330
1C
100
AcDbEntity
  8
0
  6
Continuous
 62
     7
100
AcDbLine
 10
-108.6047492793
 20
-13.4042439144
 30
0.0
 11
-108.6047492793
 21
-73.28424391439999
 31
0.0
  0
LINE
  5
2A
330
1C
100
AcDbEntity
  8
0
  6
Continuous
 62
     7
100
AcDbLine
 10
-106.78026575
 20
-15.2287274437
 30
0.0
 11
-106.78026575
 21
-71.4597603852
 31
0.0
  0
LINE
  5
2B
330
1C
100
AcDbEntity
  8
0
  6
Continuous
 62
     7
100
AcDbLine
 10
-106.5898809026
 20
-15.4191122911
 30
0.0
 11
-106.5898809026
 21
-71.2693755377
 31
0.0
  0
LINE
  5
2C
330
1C
100
AcDbEntity
  8
0
  6
Continuous
 62
     7
100
AcDbLine
 10
-105.6647492793
 20
-70.34424391439999
 30
0.0
 11
-105.6647492793
 21
-16.3442439144
 31
0.0
  0
LINE
  5
2D
330
1C
100
AcDbEntity
  8
0
  6
Continuous
 62
     7
100
AcDbLine
 10
-108.6797492793
 20
-73.34424391439999
 30
0.0
 11
-28.6797492793
 21
-73.34424391439999
 31
0.0
  0
LINE
  5
2E
330
1C
100
AcDbEntity
  8
0
  6
Continuous
 62
     7
100
AcDbLine
 10
-108.6197492793
 20
-73.28424391439999
 30
0.0
 11
-28.7397492793
 21
-73.28424391439999
 31
0.0
  0
LINE
  5
2F
330
1C
100
AcDbEntity
  8
0
  6
Continuous
 62
     7
100
AcDbLine
 10
-106.79526575
 20
-71.4597603852
 30
0.0
 11
-30.5642328086
 21
-71.4597603852
 31
0.0
  0
LINE
  5
30
330
1C
100
AcDbEntity
  8
0
  6
Continuous
 62
     7
100
AcDbLine
 10
-106.6048809026
 20
-71.2693755377
 30
0.0
 11
-30.754617656
 21
-71.2693755377
 31
0.0
  0
LINE
  5
31
330
1C
100
AcDbEntity
  8
0
  6
Continuous
 62
     7
100
AcDbLine
 10
-31.6797492793
 20
-70.34424391439999
 30
0.0
 11
-105.6797492793
 21
-70.34424391439999
 31
0.0
  0
LINE
  5
32
330
1C
100
AcDbEntity
  8
0
  6
Continuous
 62
     7
100
AcDbLine
 10
-105.6797492793
 20
-70.34424391439999
 30
0.0
 11
-108.6797492793
 21
-73.34424391439999
 31
0.0
  0
LINE
  5
33
330
1C
100
AcDbEntity
  8
0
  6
Continuous
 62
     7
100
AcDbLine
 10
-105.6647492793
 20
-70.34424391439999
 30
0.0
 11
-108.6647492793
 21
-73.34424391439999
 31
0.0
  0
LINE
  5
34
330
1C
100
AcDbEntity
  8
0
  6
Continuous
 62
     7
100
AcDbLine
 10
-105.6697492793
 20
-16.3442439144
 30
0.0
 11
-108.6697492793
 21
-13.3442439144
 31
0.0
  0
LINE
  5
35
330
1C
100
AcDbEntity
  8
0
  6
Continuous
 62
     7
100
AcDbLine
 10
-105.6647492793
 20
-16.3442439144
 30
0.0
 11
-108.6647492793
 21
-13.3442439144
 31
0.0
  0
LINE
  5
36
330
1C
100
AcDbEntity
  8
0
  6
Continuous
 62
     7
100
AcDbLine
 10
-28.6797492793
 20
-13.3442439144
 30
0.0
 11
-31.6797492793
 21
-16.3442439144
 31
0.0
  0
LINE
  5
37
330
1C
100
AcDbEntity
  8
0
  6
Continuous
 62
     7
100
AcDbLine
 10
-28.6697492793
 20
-13.3442439144
 30
0.0
 11
-31.6697492793
 21
-16.3442439144
 31
0.0
  0
LINE
  5
38
330
1C
100
AcDbEntity
  8
0
  6
Continuous
 62
     7
100
AcDbLine
 10
-31.6797492793
 20
-70.34424391439999
 30
0.0
 11
-28.6797492793
 21
-73.34424391439999
 31
0.0
  0
LINE
  5
39
330
1C
100
AcDbEntity
  8
0
  6
Continuous
 62
     7
100
AcDbLine
 10
-105.6697492793
 20
-16.3442439144
 30
0.0
 11
-31.6697492793
 21
-16.3442439144
 31
0.0
  0
LINE
  5
3A
330
1C
100
AcDbEntity
  8
0
  6
Continuous
 62
     7
100
AcDbLine
 10
-30.744617656
 20
-15.4191122911
 30
0.0
 11
-106.5948809026
 21
-15.4191122911
 31
0.0
  0
LINE
  5
3B
330
1C
100
AcDbEntity
  8
0
  6
Continuous
 62
     7
100
AcDbLine
 10
-30.5542328086
 20
-15.2287274437
 30
0.0
 11
-106.78526575
 21
-15.2287274437
 31
0.0
  0
LINE
  5
3C
330
1C
100
AcDbEntity
  8
0
  6
Continuous
 62
     7
100
AcDbLine
 10
-28.7297492793
 20
-13.4042439144
 30
0.0
 11
-108.6097492793
 21
-13.4042439144
 31
0.0
  0
LINE
  5
3D
330
1C
100
AcDbEntity
  8
0
  6
Continuous
 62
     7
100
AcDbLine
 10
-28.6697492793
 20
-13.3442439144
 30
0.0
 11
-108.6697492793
 21
-13.3442439144
 31
0.0
  0
LINE
  5
3E
330
1C
100
AcDbEntity
  8
0
  6
Continuous
 62
     7
100
AcDbLine
 10
-31.6797492793
 20
-16.3442439144
 30
0.0
 11
-31.6797492793
 21
-70.34424391439999
 31
0.0
  0
LINE
  5
3F
330
1C
100
AcDbEntity
  8
0
  6
Continuous
 62
     7
100
AcDbLine
 10
-30.754617656
 20
-71.2693755377
 30
0.0
 11
-30.754617656
 21
-15.4191122911
 31
0.0
  0
LINE
  5
40
330
1C
100
AcDbEntity
  8
0
  6
Continuous
 62
     7
100
AcDbLine
 10
-30.5642328086
 20
-71.4597603852
 30
0.0
 11
-30.5642328086
 21
-15.2287274437
 31
0.0
  0
LINE
  5
41
330
1C
100
AcDbEntity
  8
0
  6
Continuous
 62
     7
100
AcDbLine
 10
-28.7397492793
 20
-73.28424391439999
 30
0.0
 11
-28.7397492793
 21
-13.4042439144
 31
0.0
  0
LINE
  5
42
330
1C
100
AcDbEntity
  8
0
  6
Continuous
 62
     7
100
AcDbLine
 10
-28.6797492793
 20
-73.34424391439999
 30
0.0
 11
-28.6797492793
 21
-13.3542439144
 31
0.0
  0
LINE
  5
43
330
1C
100
AcDbEntity
  8
0
  6
Continuous
 62
     7
100
AcDbLine
 10
-1.9913769642
 20
-73.34424391439999
 30
0.0
 11
-0.4863769642
 21
-73.34424391439999
 31
0.0
  0
LINE
  5
44
330
1C
100
AcDbEntity
  8
0
  6
Continuous
 62
     7
100
AcDbLine
 10
-2.0513769642
 20
-73.28424391439999
 30
0.0
 11
-2.0513769642
 21
-13.4042439144
 31
0.0
  0
LINE
  5
45
330
1C
100
AcDbEntity
  8
0
  6
Continuous
 62
     7
100
AcDbLine
 10
-1.9913769642
 20
-73.34424391439999
 30
0.0
 11
-1.9913769642
 21
-13.3442439144
 31
0.0
  0
LINE
  5
46
330
1C
100
AcDbEntity
  8
0
  6
Continuous
 62
     7
100
AcDbLine
 10
-0.4863769642
 20
-73.34424391439999
 30
0.0
 11
-0.4863769642
 21
-13.3442439144
 31
0.0
  0
LINE
  5
47
330
1C
100
AcDbEntity
  8
0
  6
Continuous
 62
     7
100
AcDbLine
 10
-0.4263769642
 20
-73.28424391439999
 30
0.0
 11
-0.4263769642
 21
-13.4042439144
 31
0.0
  0
LINE
  5
48
330
1C
100
AcDbEntity
  8
0
  6
Continuous
 62
     7
100
AcDbLine
 10
-0.3813769642
 20
-15.1723809994
 30
0.0
 11
-0.3813769642
 21
-14.1723809994
 31
0.0
  0
LINE
  5
49
330
1C
100
AcDbEntity
  8
0
  6
Continuous
 62
     7
100
AcDbLine
 10
-0.4048084217
 20
-14.1158124569
 30
0.0
 11
-0.4263769642
 21
-14.0942439144
 31
0.0
  0
LINE
  5
4A
330
1C
100
AcDbEntity
  8
0
  6
Continuous
 62
     7
100
AcDbLine
 10
-0.4263769642
 20
-15.1723809994
 30
0.0
 11
-0.3813769642
 21
-15.1723809994
 31
0.0
  0
LINE
  5
4B
330
1C
100
AcDbEntity
  8
0
  6
Continuous
 62
     7
100
AcDbLine
 10
-1.9913769642
 20
-13.3442439144
 30
0.0
 11
-0.4863769642
 21
-13.3442439144
 31
0.0
  0
LINE
  5
4C
330
1C
100
AcDbEntity
  8
0
  6
Continuous
 62
     7
100
AcDbLine
 10
-108.6797492793
 20
0.184948338452549
 30
0.0
 11
-108.6797492793
 21
1.689948338452548
 31
0.0
  0
LINE
  5
4D
330
1C
100
AcDbEntity
  8
0
  6
Continuous
 62
     7
100
AcDbLine
 10
-108.6697492793
 20
1.689948338452548
 30
0.0
 11
-108.6697492793
 21
0.1849483116525485
 31
0.0
  0
LINE
  5
4E
330
1C
100
AcDbEntity
  8
0
  6
Continuous
 62
     7
100
AcDbLine
 10
-108.6647492793
 20
0.184948338452549
 30
0.0
 11
-108.6647492793
 21
1.689948338452548
 31
0.0
  0
LINE
  5
4F
330
1C
100
AcDbEntity
  8
0
  6
Continuous
 62
     7
100
AcDbLine
 10
-92.16974927930001
 20
1.749948338452548
 30
0.0
 11
-92.16974927930001
 21
1.794948338452548
 31
0.0
  0
LINE
  5
50
330
1C
100
AcDbEntity
  8
0
  6
Continuous
 62
     7
100
AcDbLine
 10
-28.7297492793
 20
0.1249483384525485
 30
0.0
 11
-108.6097492793
 21
0.1249483384525485
 31
0.0
  0
LINE
  5
51
330
1C
100
AcDbEntity
  8
0
  6
Continuous
 62
     7
100
AcDbLine
 10
-28.6697492793
 20
0.184948338452549
 30
0.0
 11
-108.6697492793
 21
0.184948338452549
 31
0.0
  0
LINE
  5
52
330
1C
100
AcDbEntity
  8
0
  6
Continuous
 62
     7
100
AcDbLine
 10
-28.6697492793
 20
1.689948338452548
 30
0.0
 11
-108.6697492793
 21
1.689948338452548
 31
0.0
  0
LINE
  5
53
330
1C
100
AcDbEntity
  8
0
  6
Continuous
 62
     7
100
AcDbLine
 10
-28.7297492793
 20
1.749948338452548
 30
0.0
 11
-108.6097492793
 21
1.749948338452548
 31
0.0
  0
LINE
  5
54
330
1C
100
AcDbEntity
  8
0
  6
Continuous
 62
     7
100
AcDbLine
 10
-45.16974927929999
 20
1.771516880952548
 30
0.0
 11
-92.16974927930001
 21
1.771516880952548
 31
0.0
  0
LINE
  5
55
330
1C
100
AcDbEntity
  8
0
  6
Continuous
 62
     7
100
AcDbLine
 10
-45.16974927929999
 20
1.794948338452548
 30
0.0
 11
-92.16974927930001
 21
1.794948338452548
 31
0.0
  0
LINE
  5
56
330
1C
100
AcDbEntity
  8
0
  6
Continuous
 62
     7
100
AcDbLine
 10
-45.16974927929999
 20
1.794948338452548
 30
0.0
 11
-45.16974927929999
 21
1.749948338452548
 31
0.0
  0
LINE
  5
57
330
1C
100
AcDbEntity
  8
0
  6
Continuous
 62
     7
100
AcDbLine
 10
-28.6797492793
 20
1.689948338452548
 30
0.0
 11
-28.6797492793
 21
0.184948338452549
 31
0.0
  0
LINE
  5
58
330
1C
100
AcDbEntity
  8
0
  6
Continuous
 62
     7
100
AcDbLine
 10
-28.6697492793
 20
0.184948338452549
 30
0.0
 11
-28.6697492793
 21
1.689948338452548
 31
0.0
  0
ARC
  5
59
330
1C
100
AcDbEntity
  8
0
  6
Continuous
 62
     7
100
AcDbCircle
 10
-0.4613769642000001
 20
-14.1723809994
 30
0.0
 40
0.08
100
AcDbArc
 50
0.0
 51
45.00000000000009
  0
ARC
  5
5A
330
1C
100
AcDbEntity
  8
0
  6
Continuous
 62
     7
100
AcDbCircle
 10
-0.4863769642
 20
-73.28424391439999
 30
0.0
 40
0.06
100
AcDbArc
 50
270.0000000000006
 51
360.0000000000008
  0
ARC
  5
5B
330
1C
100
AcDbEntity
  8
0
  6
Continuous
 62
     7
100
AcDbCircle
 10
-1.9913769642
 20
-73.28424391439999
 30
0.0
 40
0.06
100
AcDbArc
 50
180.0000000000004
 51
269.9999743695006
  0
ARC
  5
5C
330
1C
100
AcDbEntity
  8
0
  6
Continuous
 62
     7
100
AcDbCircle
 10
-0.4863769642
 20
-13.4042439144
 30
0.0
 40
0.06
100
AcDbArc
 50
0.0
 51
90.00000000000019
  0
ARC
  5
5D
330
1C
100
AcDbEntity
  8
0
  6
Continuous
 62
     7
100
AcDbCircle
 10
-1.9913769642
 20
-13.4042439144
 30
0.0
 40
0.06
100
AcDbArc
 50
90.00000000000019
 51
180.0000000000004
  0
ARC
  5
5E
330
1C
100
AcDbEntity
  8
0
  6
Continuous
 62
     7
100
AcDbCircle
 10
-108.6047492793
 20
1.689948338452548
 30
0.0
 40
0.06
100
AcDbArc
 50
90.00000000000019
 51
180.0000000000004
  0
ARC
  5
5F
330
1C
100
AcDbEntity
  8
0
  6
Continuous
 62
     7
100
AcDbCircle
 10
-108.6047492793
 20
0.184948338452549
 30
0.0
 40
0.06
100
AcDbArc
 50
180.0000000000004
 51
270.0000000000006
  0
ARC
  5
60
330
1C
100
AcDbEntity
  8
0
  6
Continuous
 62
     7
100
AcDbCircle
 10
-28.7397492793
 20
1.689948338452548
 30
0.0
 40
0.06
100
AcDbArc
 50
0.0
 51
90.00000000000019
  0
ARC
  5
61
330
1C
100
AcDbEntity
  8
0
  6
Continuous
 62
     7
100
AcDbCircle
 10
-28.7397492793
 20
0.184948338452549
 30
0.0
 40
0.06
100
AcDbArc
 50
270.0000000000006
 51
0.0000000000007994
  0
SPLINE
  5
62
330
1C
100
AcDbEntity
  8
0
  6
Continuous
 62
     7
100
AcDbSpline
210
0.0
220
0.0
230
1.0
 70
    24
 71
     3
 72
     8
 73
     4
 74
     2
 42
0.0000000001
 43
0.0000000001
 44
0.0000000001
 40
0.0
 40
0.0
 40
0.0
 40
0.0
 40
0.0234545536357842
 40
0.0234545536357842
 40
0.0234545536357842
 40
0.0234545536357842
 10
-2.0513769642
 20
-13.4042439144
 30
0.0
 10
-2.049848841133333
 20
-13.3965765257
 30
0.0
 10
-2.048320718066666
 20
-13.388909137
 30
0.0
 10
-2.046792594999999
 20
-13.3812417483
 30
0.0
 11
-2.0513769642
 21
-13.4042439144
 31
0.0
 11
-2.046792594999999
 21
-13.3812417483
 31
0.0
  0
SPLINE
  5
63
330
1C
100
AcDbEntity
  8
0
  6
Continuous
 62
     7
100
AcDbSpline
210
0.0
220
0.0
230
1.0
 70
    24
 71
     3
 72
     8
 73
     4
 74
     2
 42
0.0000000001
 43
0.0000000001
 44
0.0000000001
 40
0.0
 40
0.0
 40
0.0
 40
0.0
 40
0.0095889846875807
 40
0.0095889846875807
 40
0.0095889846875807
 40
0.0095889846875807
 10
-2.046792594999999
 20
-13.3812417483
 30
0.0
 10
-2.045335139633333
 20
-13.3783970448
 30
0.0
 10
-2.043877684266666
 20
-13.3755523413
 30
0.0
 10
-2.0424202289
 20
-13.3727076378
 30
0.0
 11
-2.046792594999999
 21
-13.3812417483
 31
0.0
 11
-2.0424202289
 21
-13.3727076378
 31
0.0
  0
SPLINE
  5
64
330
1C
100
AcDbEntity
  8
0
  6
Continuous
 62
     7
100
AcDbSpline
210
0.0
220
0.0
230
1.0
 70
    24
 71
     3
 72
     8
 73
     4
 74
     2
 42
0.0000000001
 43
0.0000000001
 44
0.0000000001
 40
0.0
 40
0.0
 40
0.0
 40
0.0
 40
0.0134065212325542
 40
0.0134065212325542
 40
0.0134065212325542
 40
0.0134065212325542
 10
-2.0424202289
 20
-13.3727076378
 30
0.0
 10
-2.0396614451
 20
-13.3691920089
 30
0.0
 10
-2.0369026613
 20
-13.36567638
 30
0.0
 10
-2.0341438775
 20
-13.3621607511
 30
0.0
 11
-2.0424202289
 21
-13.3727076378
 31
0.0
 11
-2.0341438775
 21
-13.3621607511
 31
0.0
  0
SPLINE
  5
65
330
1C
100
AcDbEntity
  8
0
  6
Continuous
 62
     7
100
AcDbSpline
210
0.0
220
0.0
230
1.0
 70
    24
 71
     3
 72
     8
 73
     4
 74
     2
 42
0.0000000001
 43
0.0000000001
 44
0.0000000001
 40
0.0
 40
0.0
 40
0.0
 40
0.0
 40
0.013029499470234
 40
0.013029499470234
 40
0.013029499470234
 40
0.013029499470234
 10
-2.0341438775
 20
-13.3621607511
 30
0.0
 10
-2.030779109266666
 20
-13.3594145847
 30
0.0
 10
-2.027414341033333
 20
-13.3566684183
 30
0.0
 10
-2.0240495728
 20
-13.3539222519
 30
0.0
 11
-2.0341438775
 21
-13.3621607511
 31
0.0
 11
-2.0240495728
 21
-13.3539222519
 31
0.0
  0
SPLINE
  5
66
330
1C
100
AcDbEntity
  8
0
  6
Continuous
 62
     7
100
AcDbSpline
210
0.0
220
0.0
230
1.0
 70
    24
 71
     3
 72
     8
 73
     4
 74
     2
 42
0.0000000001
 43
0.0000000001
 44
0.0000000001
 40
0.0
 40
0.0
 40
0.0
 40
0.0
 40
0.0106065010374527
 40
0.0106065010374527
 40
0.0106065010374527
 40
0.0106065010374527
 10
-2.0240495728
 20
-13.3539222519
 30
0.0
 10
-2.0209260138
 20
-13.3522660086
 30
0.0
 10
-2.017802454799999
 20
-13.3506097653
 30
0.0
 10
-2.014678895799999
 20
-13.348953522
 30
0.0
 11
-2.0240495728
 21
-13.3539222519
 31
0.0
 11
-2.014678895799999
 21
-13.348953522
 31
0.0
  0
SPLINE
  5
67
330
1C
100
AcDbEntity
  8
0
  6
Continuous
 62
     7
100
AcDbSpline
210
0.0
220
0.0
230
1.0
 70
    24
 71
     3
 72
     8
 73
     4
 74
     2
 42
0.0000000001
 43
0.0000000001
 44
0.0000000001
 40
0.0
 40
0.0
 40
0.0
 40
0.0
 40
0.0120054628570888
 40
0.0120054628570888
 40
0.0120054628570888
 40
0.0120054628570888
 10
-2.014678895799999
 20
-13.348953522
 30
0.0
 10
-2.010853377166666
 20
-13.3477787973
 30
0.0
 10
-2.007027858533333
 20
-13.3466040726
 30
0.0
 10
-2.0032023399
 20
-13.3454293479
 30
0.0
 11
-2.014678895799999
 21
-13.348953522
 31
0.0
 11
-2.0032023399
 21
-13.3454293479
 31
0.0
  0
SPLINE
  5
68
330
1C
100
AcDbEntity
  8
0
  6
Continuous
 62
     7
100
AcDbSpline
210
0.0
220
0.0
230
1.0
 70
    24
 71
     3
 72
     8
 73
     4
 74
     2
 42
0.0000000001
 43
0.0000000001
 44
0.0000000001
 40
0.0
 40
0.0
 40
0.0
 40
0.0
 40
0.0118846440009397
 40
0.0118846440009397
 40
0.0118846440009397
 40
0.0118846440009397
 10
-2.0032023399
 20
-13.3454293479
 30
0.0
 10
-1.999260548
 20
-13.3450342034
 30
0.0
 10
-1.995318756099999
 20
-13.3446390589
 30
0.0
 10
-1.9913769642
 20
-13.3442439144
 30
0.0
 11
-2.0032023399
 21
-13.3454293479
 31
0.0
 11
-1.9913769642
 21
-13.3442439144
 31
0.0
  0
SPLINE
  5
69
330
1C
100
AcDbEntity
  8
0
  6
Continuous
 62
     7
100
AcDbSpline
210
0.0
220
0.0
230
1.0
 70
    24
 71
     3
 72
     8
 73
     4
 74
     2
 42
0.0000000001
 43
0.0000000001
 44
0.0000000001
 40
0.0
 40
0.0
 40
0.0
 40
0.0
 40
0.023454552243589
 40
0.023454552243589
 40
0.023454552243589
 40
0.023454552243589
 10
-2.0513769642
 20
-73.28424391439999
 30
0.0
 10
-2.049848841333333
 20
-73.29191130266668
 30
0.0
 10
-2.048320718466666
 20
-73.29957869093334
 30
0.0
 10
-2.046792595599999
 20
-73.3072460792
 30
0.0
 11
-2.0513769642
 21
-73.28424391439999
 31
0.0
 11
-2.046792595599999
 21
-73.3072460792
 31
0.0
  0
SPLINE
  5
6A
330
1C
100
AcDbEntity
  8
0
  6
Continuous
 62
     7
100
AcDbSpline
210
0.0
220
0.0
230
1.0
 70
    24
 71
     3
 72
     8
 73
     4
 74
     2
 42
0.0000000001
 43
0.0000000001
 44
0.0000000001
 40
0.0
 40
0.0
 40
0.0
 40
0.0
 40
0.0095889491918621
 40
0.0095889491918621
 40
0.0095889491918621
 40
0.0095889491918621
 10
-2.046792595599999
 20
-73.3072460792
 30
0.0
 10
-2.045335146533333
 20
-73.31009077263331
 30
0.0
 10
-2.043877697466666
 20
-73.31293546606665
 30
0.0
 10
-2.0424202484
 20
-73.31578015949999
 30
0.0
 11
-2.046792595599999
 21
-73.3072460792
 31
0.0
 11
-2.0424202484
 21
-73.31578015949999
 31
0.0
  0
SPLINE
  5
6B
330
1C
100
AcDbEntity
  8
0
  6
Continuous
 62
     7
100
AcDbSpline
210
0.0
220
0.0
230
1.0
 70
    24
 71
     3
 72
     8
 73
     4
 74
     2
 42
0.0000000001
 43
0.0000000001
 44
0.0000000001
 40
0.0
 40
0.0
 40
0.0
 40
0.0
 40
0.0134065550414348
 40
0.0134065550414348
 40
0.0134065550414348
 40
0.0134065550414348
 10
-2.0424202484
 20
-73.31578015949999
 30
0.0
 10
-2.039661458833333
 20
-73.31929579819998
 30
0.0
 10
-2.036902669266666
 20
-73.3228114369
 30
0.0
 10
-2.0341438797
 20
-73.32632707560001
 30
0.0
 11
-2.0424202484
 21
-73.31578015949999
 31
0.0
 11
-2.0341438797
 21
-73.32632707560001
 31
0.0
  0
SPLINE
  5
6C
330
1C
100
AcDbEntity
  8
0
  6
Continuous
 62
     7
100
AcDbSpline
210
0.0
220
0.0
230
1.0
 70
    24
 71
     3
 72
     8
 73
     4
 74
     2
 42
0.0000000001
 43
0.0000000001
 44
0.0000000001
 40
0.0
 40
0.0
 40
0.0
 40
0.0
 40
0.0130293934020408
 40
0.0130293934020408
 40
0.0130293934020408
 40
0.0130293934020408
 10
-2.0341438797
 20
-73.32632707560001
 30
0.0
 10
-2.030779141433333
 20
-73.32907322279999
 30
0.0
 10
-2.027414403166666
 20
-73.33181936999999
 30
0.0
 10
-2.0240496649
 20
-73.33456551720001
 30
0.0
 11
-2.0341438797
 21
-73.32632707560001
 31
0.0
 11
-2.0240496649
 21
-73.33456551720001
 31
0.0
  0
SPLINE
  5
6D
330
1C
100
AcDbEntity
  8
0
  6
Continuous
 62
     7
100
AcDbSpline
210
0.0
220
0.0
230
1.0
 70
    24
 71
     3
 72
     8
 73
     4
 74
     2
 42
0.0000000001
 43
0.0000000001
 44
0.0000000001
 40
0.0
 40
0.0
 40
0.0
 40
0.0
 40
0.010606605778103
 40
0.010606605778103
 40
0.010606605778103
 40
0.010606605778103
 10
-2.0240496649
 20
-73.33456551720001
 30
0.0
 10
-2.020926076633333
 20
-73.33622177983333
 30
0.0
 10
-2.017802488366666
 20
-73.33787804246667
 30
0.0
 10
-2.014678900099999
 20
-73.3395343051
 30
0.0
 11
-2.0240496649
 21
-73.33456551720001
 31
0.0
 11
-2.014678900099999
 21
-73.3395343051
 31
0.0
  0
SPLINE
  5
6E
330
1C
100
AcDbEntity
  8
0
  6
Continuous
 62
     7
100
AcDbSpline
210
0.0
220
0.0
230
1.0
 70
    24
 71
     3
 72
     8
 73
     4
 74
     2
 42
0.0000000001
 43
0.0000000001
 44
0.0000000001
 40
0.0
 40
0.0
 40
0.0
 40
0.0
 40
0.0120054674666792
 40
0.0120054674666792
 40
0.0120054674666792
 40
0.0120054674666792
 10
-2.014678900099999
 20
-73.3395343051
 30
0.0
 10
-2.010853380033333
 20
-73.34070903036667
 30
0.0
 10
-2.007027859966666
 20
-73.34188375563335
 30
0.0
 10
-2.0032023399
 20
-73.3430584809
 30
0.0
 11
-2.014678900099999
 21
-73.3395343051
 31
0.0
 11
-2.0032023399
 21
-73.3430584809
 31
0.0
  0
SPLINE
  5
6F
330
1C
100
AcDbEntity
  8
0
  6
Continuous
 62
     7
100
AcDbSpline
210
0.0
220
0.0
230
1.0
 70
    24
 71
     3
 72
     8
 73
     4
 74
     2
 42
0.0000000001
 43
0.0000000001
 44
0.0000000001
 40
0.0
 40
0.0
 40
0.0
 40
0.0
 40
0.0118846440009395
 40
0.0118846440009395
 40
0.0118846440009395
 40
0.0118846440009395
 10
-2.0032023399
 20
-73.3430584809
 30
0.0
 10
-1.999260548
 20
-73.3434536254
 30
0.0
 10
-1.9953187561
 20
-73.3438487699
 30
0.0
 10
-1.9913769642
 20
-73.34424391439999
 30
0.0
 11
-2.0032023399
 21
-73.3430584809
 31
0.0
 11
-1.9913769642
 21
-73.34424391439999
 31
0.0
  0
SPLINE
  5
70
330
1C
100
AcDbEntity
  8
0
  6
Continuous
 62
     7
100
AcDbSpline
210
0.0
220
0.0
230
1.0
 70
    24
 71
     3
 72
     8
 73
     4
 74
     2
 42
0.0000000001
 43
0.0000000001
 44
0.0000000001
 40
0.0
 40
0.0
 40
0.0
 40
0.0
 40
0.0240475718377306
 40
0.0240475718377306
 40
0.0240475718377306
 40
0.0240475718377306
 10
-0.4863769642
 20
-13.3442439144
 30
0.0
 10
-0.4785237048
 20
-13.34585024086667
 30
0.0
 10
-0.4706704454000001
 20
-13.34745656733333
 30
0.0
 10
-0.4628171860000001
 20
-13.3490628938
 30
0.0
 11
-0.4863769642
 21
-13.3442439144
 31
0.0
 11
-0.4628171860000001
 21
-13.3490628938
 31
0.0
  0
SPLINE
  5
71
330
1C
100
AcDbEntity
  8
0
  6
Continuous
 62
     7
100
AcDbSpline
210
0.0
220
0.0
230
1.0
 70
    24
 71
     3
 72
     8
 73
     4
 74
     2
 42
0.0000000001
 43
0.0000000001
 44
0.0000000001
 40
0.0
 40
0.0
 40
0.0
 40
0.0
 40
0.0106459889241452
 40
0.0106459889241452
 40
0.0106459889241452
 40
0.0106459889241452
 10
-0.4628171860000001
 20
-13.3490628938
 30
0.0
 10
-0.4596903027333334
 20
-13.35074087173333
 30
0.0
 10
-0.4565634194666667
 20
-13.35241884966667
 30
0.0
 10
-0.4534365362
 20
-13.3540968276
 30
0.0
 11
-0.4628171860000001
 21
-13.3490628938
 31
0.0
 11
-0.4534365362
 21
-13.3540968276
 31
0.0
  0
SPLINE
  5
72
330
1C
100
AcDbEntity
  8
0
  6
Continuous
 62
     7
100
AcDbSpline
210
0.0
220
0.0
230
1.0
 70
    24
 71
     3
 72
     8
 73
     4
 74
     2
 42
0.0000000001
 43
0.0000000001
 44
0.0000000001
 40
0.0
 40
0.0
 40
0.0
 40
0.0
 40
0.01296819698033
 40
0.01296819698033
 40
0.01296819698033
 40
0.01296819698033
 10
-0.4534365362
 20
-13.3540968276
 30
0.0
 10
-0.4501008530666667
 20
-13.3568462335
 30
0.0
 10
-0.4467651699333334
 20
-13.3595956394
 30
0.0
 10
-0.4434294868000001
 20
-13.3623450453
 30
0.0
 11
-0.4534365362
 21
-13.3540968276
 31
0.0
 11
-0.4434294868000001
 21
-13.3623450453
 31
0.0
  0
SPLINE
  5
73
330
1C
100
AcDbEntity
  8
0
  6
Continuous
 62
     7
100
AcDbSpline
210
0.0
220
0.0
230
1.0
 70
    24
 71
     3
 72
     8
 73
     4
 74
     2
 42
0.0000000001
 43
0.0000000001
 44
0.0000000001
 40
0.0
 40
0.0
 40
0.0
 40
0.0
 40
0.013346090325582
 40
0.013346090325582
 40
0.013346090325582
 40
0.013346090325582
 10
-0.4434294868000001
 20
-13.3623450453
 30
0.0
 10
-0.4406964645000001
 20
-13.3658552436
 30
0.0
 10
-0.4379634422
 20
-13.3693654419
 30
0.0
 10
-0.4352304199
 20
-13.3728756402
 30
0.0
 11
-0.4434294868000001
 21
-13.3623450453
 31
0.0
 11
-0.4352304199
 21
-13.3728756402
 31
0.0
  0
SPLINE
  5
74
330
1C
100
AcDbEntity
  8
0
  6
Continuous
 62
     7
100
AcDbSpline
210
0.0
220
0.0
230
1.0
 70
    24
 71
     3
 72
     8
 73
     4
 74
     2
 42
0.0000000001
 43
0.0000000001
 44
0.0000000001
 40
0.0
 40
0.0
 40
0.0
 40
0.0
 40
0.0095578989665085
 40
0.0095578989665085
 40
0.0095578989665085
 40
0.0095578989665085
 10
-0.4352304199
 20
-13.3728756402
 30
0.0
 10
-0.4337862429666667
 20
-13.3757154878
 30
0.0
 10
-0.4323420660333334
 20
-13.3785553354
 30
0.0
 10
-0.4308978891
 20
-13.381395183
 30
0.0
 11
-0.4352304199
 21
-13.3728756402
 31
0.0
 11
-0.4308978891
 21
-13.381395183
 31
0.0
  0
SPLINE
  5
75
330
1C
100
AcDbEntity
  8
0
  6
Continuous
 62
     7
100
AcDbSpline
210
0.0
220
0.0
230
1.0
 70
    24
 71
     3
 72
     8
 73
     4
 74
     2
 42
0.0000000001
 43
0.0000000001
 44
0.0000000001
 40
0.0
 40
0.0
 40
0.0
 40
0.0
 40
0.0232916999925034
 40
0.0232916999925034
 40
0.0232916999925034
 40
0.0232916999925034
 10
-0.4308978891
 20
-13.381395183
 30
0.0
 10
-0.4293909141333333
 20
-13.3890114268
 30
0.0
 10
-0.4278839391666666
 20
-13.3966276706
 30
0.0
 10
-0.4263769642
 20
-13.4042439144
 30
0.0
 11
-0.4308978891
 21
-13.381395183
 31
0.0
 11
-0.4263769642
 21
-13.4042439144
 31
0.0
  0
SPLINE
  5
76
330
1C
100
AcDbEntity
  8
0
  6
Continuous
 62
     7
100
AcDbSpline
210
0.0
220
0.0
230
1.0
 70
    24
 71
     3
 72
     8
 73
     4
 74
     2
 42
0.0000000001
 43
0.0000000001
 44
0.0000000001
 40
0.0
 40
0.0
 40
0.0
 40
0.0
 40
0.0232917000906068
 40
0.0232917000906068
 40
0.0232917000906068
 40
0.0232917000906068
 10
-0.4263769642
 20
-73.28424391439999
 30
0.0
 10
-0.4278839391666666
 20
-73.29186015823331
 30
0.0
 10
-0.4293909141333333
 20
-73.29947640206665
 30
0.0
 10
-0.4308978891
 20
-73.3070926459
 30
0.0
 11
-0.4263769642
 21
-73.28424391439999
 31
0.0
 11
-0.4308978891
 21
-73.3070926459
 31
0.0
  0
SPLINE
  5
77
330
1C
100
AcDbEntity
  8
0
  6
Continuous
 62
     7
100
AcDbSpline
210
0.0
220
0.0
230
1.0
 70
    24
 71
     3
 72
     8
 73
     4
 74
     2
 42
0.0000000001
 43
0.0000000001
 44
0.0000000001
 40
0.0
 40
0.0
 40
0.0
 40
0.0
 40
0.0095578988773724
 40
0.0095578988773724
 40
0.0095578988773724
 40
0.0095578988773724
 10
-0.4308978891
 20
-73.3070926459
 30
0.0
 10
-0.4323420660333334
 20
-73.30993249346668
 30
0.0
 10
-0.4337862429666667
 20
-73.31277234103334
 30
0.0
 10
-0.4352304199
 20
-73.3156121886
 30
0.0
 11
-0.4308978891
 21
-73.3070926459
 31
0.0
 11
-0.4352304199
 21
-73.3156121886
 31
0.0
  0
SPLINE
  5
78
330
1C
100
AcDbEntity
  8
0
  6
Continuous
 62
     7
100
AcDbSpline
210
0.0
220
0.0
230
1.0
 70
    24
 71
     3
 72
     8
 73
     4
 74
     2
 42
0.0000000001
 43
0.0000000001
 44
0.0000000001
 40
0.0
 40
0.0
 40
0.0
 40
0.0
 40
0.0133460904044902
 40
0.0133460904044902
 40
0.0133460904044902
 40
0.0133460904044902
 10
-0.4352304199
 20
-73.3156121886
 30
0.0
 10
-0.4379634422000001
 20
-73.31912238693334
 30
0.0
 10
-0.4406964645000001
 20
-73.32263258526667
 30
0.0
 10
-0.4434294868000001
 20
-73.32614278360001
 30
0.0
 11
-0.4352304199
 21
-73.3156121886
 31
0.0
 11
-0.4434294868000001
 21
-73.32614278360001
 31
0.0
  0
SPLINE
  5
79
330
1C
100
AcDbEntity
  8
0
  6
Continuous
 62
     7
100
AcDbSpline
210
0.0
220
0.0
230
1.0
 70
    24
 71
     3
 72
     8
 73
     4
 74
     2
 42
0.0000000001
 43
0.0000000001
 44
0.0000000001
 40
0.0
 40
0.0
 40
0.0
 40
0.0
 40
0.01296819698033
 40
0.01296819698033
 40
0.01296819698033
 40
0.01296819698033
 10
-0.4434294868000001
 20
-73.32614278360001
 30
0.0
 10
-0.4467651699333334
 20
-73.32889218950001
 30
0.0
 10
-0.4501008530666667
 20
-73.3316415954
 30
0.0
 10
-0.4534365362
 20
-73.3343910013
 30
0.0
 11
-0.4434294868000001
 21
-73.32614278360001
 31
0.0
 11
-0.4534365362
 21
-73.3343910013
 31
0.0
  0
SPLINE
  5
7A
330
1C
100
AcDbEntity
  8
0
  6
Continuous
 62
     7
100
AcDbSpline
210
0.0
220
0.0
230
1.0
 70
    24
 71
     3
 72
     8
 73
     4
 74
     2
 42
0.0000000001
 43
0.0000000001
 44
0.0000000001
 40
0.0
 40
0.0
 40
0.0
 40
0.0
 40
0.0106459888768562
 40
0.0106459888768562
 40
0.0106459888768562
 40
0.0106459888768562
 10
-0.4534365362
 20
-73.3343910013
 30
0.0
 10
-0.4565634194666667
 20
-73.33606897920001
 30
0.0
 10
-0.4596903027333334
 20
-73.33774695709999
 30
0.0
 10
-0.4628171860000001
 20
-73.339424935
 30
0.0
 11
-0.4534365362
 21
-73.3343910013
 31
0.0
 11
-0.4628171860000001
 21
-73.339424935
 31
0.0
  0
SPLINE
  5
7B
330
1C
100
AcDbEntity
  8
0
  6
Continuous
 62
     7
100
AcDbSpline
210
0.0
220
0.0
230
1.0
 70
    24
 71
     3
 72
     8
 73
     4
 74
     2
 42
0.0000000001
 43
0.0000000001
 44
0.0000000001
 40
0.0
 40
0.0
 40
0.0
 40
0.0
 40
0.0240475718377306
 40
0.0240475718377306
 40
0.0240475718377306
 40
0.0240475718377306
 10
-0.4628171860000001
 20
-73.339424935
 30
0.0
 10
-0.4706704454000001
 20
-73.34103126146667
 30
0.0
 10
-0.4785237048000001
 20
-73.34263758793333
 30
0.0
 10
-0.4863769642
 20
-73.34424391439999
 30
0.0
 11
-0.4628171860000001
 21
-73.339424935
 31
0.0
 11
-0.4863769642
 21
-73.34424391439999
 31
0.0
  0
SPLINE
  5
7C
330
1C
100
AcDbEntity
  8
0
  6
Continuous
 62
     7
100
AcDbSpline
210
0.0
220
0.0
230
1.0
 70
     8
 71
     3
 72
     9
 73
     5
 74
     3
 42
0.0000000001
 43
0.0000000001
 44
0.0000000001
 40
0.0
 40
0.0
 40
0.0
 40
0.0
 40
0.0233488463460862
 40
0.0462041440057938
 40
0.0462041440057938
 40
0.0462041440057938
 40
0.0462041440057938
 10
-108.6197492793
 20
0.1249483384525485
 30
0.0
 10
-108.6276710355999
 20
0.1257622433602759
 30
0.0
 10
-108.643347097853
 20
0.1273728488268659
 30
0.0
 10
-108.6556450426801
 20
0.1372121476916357
 30
0.0
 10
-108.6617283323
 20
0.1420792458525488
 30
0.0
 11
-108.6197492793
 21
0.1249483384525485
 31
0.0
 11
-108.6426518801
 21
0.1294914103525482
 31
0.0
 11
-108.6617283323
 21
0.1420792458525488
 31
0.0
  0
SPLINE
  5
7D
330
1C
100
AcDbEntity
  8
0
  6
Continuous
 62
     7
100
AcDbSpline
210
0.0
220
0.0
230
1.0
 70
    24
 71
     3
 72
     8
 73
     4
 74
     2
 42
0.0000000001
 43
0.0000000001
 44
0.0000000001
 40
0.0
 40
0.0
 40
0.0
 40
0.0
 40
0.0235483978198807
 40
0.0235483978198807
 40
0.0235483978198807
 40
0.0235483978198807
 10
-108.6617283323
 20
0.1420792458525488
 30
0.0
 10
-108.6661499026666
 20
0.1485649093525492
 30
0.0
 10
-108.6705714730333
 20
0.1550505728525495
 30
0.0
 10
-108.6749930434
 20
0.161536236352549
 30
0.0
 11
-108.6617283323
 21
0.1420792458525488
 31
0.0
 11
-108.6749930434
 21
0.161536236352549
 31
0.0
  0
SPLINE
  5
7E
330
1C
100
AcDbEntity
  8
0
  6
Continuous
 62
     7
100
AcDbSpline
210
0.0
220
0.0
230
1.0
 70
    24
 71
     3
 72
     8
 73
     4
 74
     2
 42
0.0000000001
 43
0.0000000001
 44
0.0000000001
 40
0.0
 40
0.0
 40
0.0
 40
0.0
 40
0.0238903391494828
 40
0.0238903391494828
 40
0.0238903391494828
 40
0.0238903391494828
 10
-108.6749930434
 20
0.161536236352549
 30
0.0
 10
-108.6765784553666
 20
0.1693402703858826
 30
0.0
 10
-108.6781638673333
 20
0.1771443044192162
 30
0.0
 10
-108.6797492793
 20
0.184948338452549
 30
0.0
 11
-108.6749930434
 21
0.161536236352549
 31
0.0
 11
-108.6797492793
 21
0.184948338452549
 31
0.0
  0
SPLINE
  5
7F
330
1C
100
AcDbEntity
  8
0
  6
Continuous
 62
     7
100
AcDbSpline
210
0.0
220
0.0
230
1.0
 70
     8
 71
     3
 72
     9
 73
     5
 74
     3
 42
0.0000000001
 43
0.0000000001
 44
0.0000000001
 40
0.0
 40
0.0
 40
0.0
 40
0.0
 40
0.023188877895583
 40
0.0459550760419233
 40
0.0459550760419233
 40
0.0459550760419233
 40
0.0459550760419233
 10
-108.6197492793
 20
1.749948338452548
 30
0.0
 10
-108.6276151713877
 20
1.749146230804614
 30
0.0
 10
-108.6432035784963
 20
1.747556636080773
 30
0.0
 10
-108.6554698722171
 20
1.737818777382859
 30
0.0
 10
-108.6615466084
 20
1.732994630852548
 30
0.0
 11
-108.6197492793
 21
1.749948338452548
 31
0.0
 11
-108.6425010791
 21
1.745467304652549
 31
0.0
 11
-108.6615466084
 21
1.732994630852548
 31
0.0
  0
SPLINE
  5
80
330
1C
100
AcDbEntity
  8
0
  6
Continuous
 62
     7
100
AcDbSpline
210
0.0
220
0.0
230
1.0
 70
    24
 71
     3
 72
     8
 73
     4
 74
     2
 42
0.0000000001
 43
0.0000000001
 44
0.0000000001
 40
0.0
 40
0.0
 40
0.0
 40
0.0
 40
0.0235255995482009
 40
0.0235255995482009
 40
0.0235255995482009
 40
0.0235255995482009
 10
-108.6615466084
 20
1.732994630852548
 30
0.0
 10
-108.6659925197666
 20
1.726534852019215
 30
0.0
 10
-108.6704384311333
 20
1.72007507318588
 30
0.0
 10
-108.6748843425
 20
1.713615294352548
 30
0.0
 11
-108.6615466084
 21
1.732994630852548
 31
0.0
 11
-108.6748843425
 21
1.713615294352548
 31
0.0
  0
SPLINE
  5
81
330
1C
100
AcDbEntity
  8
0
  6
Continuous
 62
     7
100
AcDbSpline
210
0.0
220
0.0
230
1.0
 70
    24
 71
     3
 72
     8
 73
     4
 74
     2
 42
0.0000000001
 43
0.0000000001
 44
0.0000000001
 40
0.0
 40
0.0
 40
0.0
 40
0.0
 40
0.0241617965317267
 40
0.0241617965317267
 40
0.0241617965317267
 40
0.0241617965317267
 10
-108.6748843425
 20
1.713615294352548
 30
0.0
 10
-108.6765059881
 20
1.705726309052548
 30
0.0
 10
-108.6781276337
 20
1.697837323752548
 30
0.0
 10
-108.6797492793
 20
1.689948338452548
 30
0.0
 11
-108.6748843425
 21
1.713615294352548
 31
0.0
 11
-108.6797492793
 21
1.689948338452548
 31
0.0
  0
SPLINE
  5
82
330
1C
100
AcDbEntity
  8
0
  6
Continuous
 62
     7
100
AcDbSpline
210
0.0
220
0.0
230
1.0
 70
     8
 71
     3
 72
    10
 73
     6
 74
     4
 42
0.0000000001
 43
0.0000000001
 44
0.0000000001
 40
0.0
 40
0.0
 40
0.0
 40
0.0
 40
0.0233488434836386
 40
0.0462041381005348
 40
0.055176644989937
 40
0.055176644989937
 40
0.055176644989937
 40
0.055176644989937
 10
-108.6097492793
 20
0.1249483384525485
 30
0.0
 10
-108.6175637087968
 20
0.125849352273546
 30
0.0
 10
-108.6330273860406
 20
0.1276323342462939
 30
0.0
 10
-108.6489655484764
 20
0.1383661479475187
 30
0.0
 10
-108.6557402548384
 20
0.1465211054642861
 30
0.0
 10
-108.6576500977
 20
0.1488200519525487
 30
0.0
 11
-108.6097492793
 21
0.1249483384525485
 31
0.0
 11
-108.6326518774
 21
0.129491409252549
 31
0.0
 11
-108.651728328
 21
0.1420792416525485
 31
0.0
 11
-108.6576500977
 21
0.1488200519525487
 31
0.0
  0
SPLINE
  5
83
330
1C
100
AcDbEntity
  8
0
  6
Continuous
 62
     7
100
AcDbSpline
210
0.0
220
0.0
230
1.0
 70
     8
 71
     3
 72
     9
 73
     5
 74
     3
 42
0.0000000001
 43
0.0000000001
 44
0.0000000001
 40
0.0
 40
0.0
 40
0.0
 40
0.0
 40
0.0146840024585813
 40
0.0385743243911067
 40
0.0385743243911067
 40
0.0385743243911067
 40
0.0385743243911067
 10
-108.6576500977
 20
0.1488200519525487
 30
0.0
 10
-108.6603781421692
 20
0.152952578480722
 30
0.0
 10
-108.6675446127961
 20
0.163808570864421
 30
0.0
 10
-108.6689060792559
 20
0.176863174815594
 30
0.0
 10
-108.6697492793
 20
0.1849483116525485
 30
0.0
 11
-108.6576500977
 21
0.1488200519525487
 31
0.0
 11
-108.6649930398
 21
0.1615362278525483
 31
0.0
 11
-108.6697492793
 21
0.1849483116525485
 31
0.0
  0
SPLINE
  5
84
330
1C
100
AcDbEntity
  8
0
  6
Continuous
 62
     7
100
AcDbSpline
210
0.0
220
0.0
230
1.0
 70
     8
 71
     3
 72
     9
 73
     5
 74
     3
 42
0.0000000001
 43
0.0000000001
 44
0.0000000001
 40
0.0
 40
0.0
 40
0.0
 40
0.0
 40
0.0233488463460792
 40
0.0462041440892545
 40
0.0462041440892545
 40
0.0462041440892545
 40
0.0462041440892545
 10
-28.7297492793
 20
0.1249483384525485
 30
0.0
 10
-28.72182752300321
 20
0.1257622433654966
 30
0.0
 10
-28.70615146072792
 20
0.1273728488453294
 30
0.0
 10
-28.69385351585418
 20
0.1372121476917361
 30
0.0
 10
-28.6877702262
 20
0.1420792458525488
 30
0.0
 11
-28.7297492793
 21
0.1249483384525485
 31
0.0
 11
-28.7068466785
 21
0.1294914103525482
 31
0.0
 11
-28.6877702262
 21
0.1420792458525488
 31
0.0
  0
SPLINE
  5
85
330
1C
100
AcDbEntity
  8
0
  6
Continuous
 62
     7
100
AcDbSpline
210
0.0
220
0.0
230
1.0
 70
    24
 71
     3
 72
     8
 73
     4
 74
     2
 42
0.0000000001
 43
0.0000000001
 44
0.0000000001
 40
0.0
 40
0.0
 40
0.0
 40
0.0
 40
0.0235483977635562
 40
0.0235483977635562
 40
0.0235483977635562
 40
0.0235483977635562
 10
-28.6877702262
 20
0.1420792458525488
 30
0.0
 10
-28.68334865586667
 20
0.1485649093525492
 30
0.0
 10
-28.67892708553334
 20
0.1550505728525486
 30
0.0
 10
-28.6745055152
 20
0.161536236352549
 30
0.0
 11
-28.6877702262
 21
0.1420792458525488
 31
0.0
 11
-28.6745055152
 21
0.161536236352549
 31
0.0
  0
SPLINE
  5
86
330
1C
100
AcDbEntity
  8
0
  6
Continuous
 62
     7
100
AcDbSpline
210
0.0
220
0.0
230
1.0
 70
    24
 71
     3
 72
     8
 73
     4
 74
     2
 42
0.0000000001
 43
0.0000000001
 44
0.0000000001
 40
0.0
 40
0.0
 40
0.0
 40
0.0
 40
0.0238903391494821
 40
0.0238903391494821
 40
0.0238903391494821
 40
0.0238903391494821
 10
-28.6745055152
 20
0.161536236352549
 30
0.0
 10
-28.67292010323334
 20
0.1693402703858826
 30
0.0
 10
-28.67133469126667
 20
0.1771443044192162
 30
0.0
 10
-28.6697492793
 20
0.184948338452549
 30
0.0
 11
-28.6745055152
 21
0.161536236352549
 31
0.0
 11
-28.6697492793
 21
0.184948338452549
 31
0.0
  0
SPLINE
  5
87
330
1C
100
AcDbEntity
  8
0
  6
Continuous
 62
     7
100
AcDbSpline
210
0.0
220
0.0
230
1.0
 70
     8
 71
     3
 72
    11
 73
     7
 74
     5
 42
0.0000000001
 43
0.0000000001
 44
0.0000000001
 40
0.0
 40
0.0
 40
0.0
 40
0.0
 40
0.0241617965317267
 40
0.0476873960799356
 40
0.070453594226276
 40
0.093642472121845
 40
0.093642472121845
 40
0.093642472121845
 40
0.093642472121845
 10
-108.6697492793
 20
1.689948338452548
 30
0.0
 10
-108.6687886105987
 20
1.698066618255586
 30
0.0
 10
-108.6668925682743
 20
1.714089417882543
 30
0.0
 10
-108.6526795012893
 20
1.733802784255065
 30
0.0
 10
-108.6329692372704
 20
1.74731250089367
 30
0.0
 10
-108.6175365801333
 20
1.749064354939533
 30
0.0
 10
-108.6097492793
 20
1.749948338452548
 30
0.0
 11
-108.6697492793
 21
1.689948338452548
 31
0.0
 11
-108.6648843425
 21
1.713615294352548
 31
0.0
 11
-108.6515466084
 21
1.732994630852548
 31
0.0
 11
-108.6325010791
 21
1.745467304652549
 31
0.0
 11
-108.6097492793
 21
1.749948338452548
 31
0.0
  0
SPLINE
  5
88
330
1C
100
AcDbEntity
  8
0
  6
Continuous
 62
     7
100
AcDbSpline
210
0.0
220
0.0
230
1.0
 70
     8
 71
     3
 72
     9
 73
     5
 74
     3
 42
0.0000000001
 43
0.0000000001
 44
0.0000000001
 40
0.0
 40
0.0
 40
0.0
 40
0.0
 40
0.0231888778955795
 40
0.0459550760419199
 40
0.0459550760419199
 40
0.0459550760419199
 40
0.0459550760419199
 10
-28.7297492793
 20
1.749948338452548
 30
0.0
 10
-28.72188338721229
 20
1.749146230804615
 30
0.0
 10
-28.70629498010366
 20
1.747556636080773
 30
0.0
 10
-28.69402868638284
 20
1.737818777382859
 30
0.0
 10
-28.6879519502
 20
1.732994630852548
 30
0.0
 11
-28.7297492793
 21
1.749948338452548
 31
0.0
 11
-28.7069974795
 21
1.745467304652549
 31
0.0
 11
-28.6879519502
 21
1.732994630852548
 31
0.0
  0
SPLINE
  5
89
330
1C
100
AcDbEntity
  8
0
  6
Continuous
 62
     7
100
AcDbSpline
210
0.0
220
0.0
230
1.0
 70
    24
 71
     3
 72
     8
 73
     4
 74
     2
 42
0.0000000001
 43
0.0000000001
 44
0.0000000001
 40
0.0
 40
0.0
 40
0.0
 40
0.0
 40
0.0235255996049005
 40
0.0235255996049005
 40
0.0235255996049005
 40
0.0235255996049005
 10
-28.6879519502
 20
1.732994630852548
 30
0.0
 10
-28.6835060388
 20
1.726534852019215
 30
0.0
 10
-28.67906012740001
 20
1.720075073185881
 30
0.0
 10
-28.674614216
 20
1.713615294352548
 30
0.0
 11
-28.6879519502
 21
1.732994630852548
 31
0.0
 11
-28.674614216
 21
1.713615294352548
 31
0.0
  0
SPLINE
  5
8A
330
1C
100
AcDbEntity
  8
0
  6
Continuous
 62
     7
100
AcDbSpline
210
0.0
220
0.0
230
1.0
 70
    24
 71
     3
 72
     8
 73
     4
 74
     2
 42
0.0000000001
 43
0.0000000001
 44
0.0000000001
 40
0.0
 40
0.0
 40
0.0
 40
0.0
 40
0.0241617965115908
 40
0.0241617965115908
 40
0.0241617965115908
 40
0.0241617965115908
 10
-28.674614216
 20
1.713615294352548
 30
0.0
 10
-28.67299257043333
 20
1.705726309052549
 30
0.0
 10
-28.67137092486667
 20
1.697837323752549
 30
0.0
 10
-28.6697492793
 20
1.689948338452548
 30
0.0
 11
-28.674614216
 21
1.713615294352548
 31
0.0
 11
-28.6697492793
 21
1.689948338452548
 31
0.0
  0
DIMENSION
  5
164
330
1C
100
AcDbEntity
  8
0
100
AcDbDimension
  2
*D0
 10
-21.22743556775555
 20
-16.3442439144
 30
0.0
 11
-21.22743556775555
 21
-43.34395614848367
 31
0.0
 70
   160
  1
<>\PVAH
 71
     5
 42
53.99999999999998
  3
STANDARD
100
AcDbAlignedDimension
 13
-31.6797492793
 23
-70.34424391439999
 33
0.0
 14
-31.6797492793
 24
-16.3442439144
 34
0.0
 50
90.0
100
AcDbRotatedDimension
  0
DIMENSION
  5
173
330
1C
100
AcDbEntity
  8
0
100
AcDbDimension
  2
*D1
 10
-14.46625046305497
 20
-73.34424391439999
 30
0.0
 11
-14.46625046305496
 21
-40.36385874221465
 31
0.0
 70
   160
  1
<>\PO.D.
 71
     5
 42
59.99999999999999
  3
STANDARD
100
AcDbAlignedDimension
 13
-28.6697492793
 23
-13.3442439144
 33
0.0
 14
-28.6797492793
 24
-73.34424391439999
 34
0.0
 50
90.0
100
AcDbRotatedDimension
  0
DIMENSION
  5
195
330
1C
100
AcDbEntity
  8
0
100
AcDbDimension
  2
*D2
 10
-21.22743556775555
 20
-13.3442439144
 30
0.0
 11
-21.22743556775555
 21
-14.8442439144
 31
0.0
 70
   160
 71
     5
 42
3.0
  3
STANDARD
100
AcDbAlignedDimension
 13
-31.6697492793
 23
-16.3442439144
 33
0.0
 14
-28.6697492793
 24
-13.3442439144
 34
0.0
 50
90.0
100
AcDbRotatedDimension
  0
DIMENSION
  5
1D7
330
1C
100
AcDbEntity
  8
0
100
AcDbDimension
  2
*D3
 10
-2.0513769642
 20
-12.04251394511166
 30
0.0
 11
-7.274234107057143
 21
-12.04251394511166
 31
0.0
 70
    32
 71
     5
 42
1.625
  3
STANDARD
100
AcDbAlignedDimension
 13
-0.4263769642
 23
-13.4042439144
 33
0.0
 14
-2.0513769642
 24
-13.4042439144
 34
0.0
100
AcDbRotatedDimension
  0
DIMENSION
  5
1E5
330
1C
100
AcDbEntity
  8
0
100
AcDbDimension
  2
*D4
 10
-108.6797492793
 20
-82.46149092851172
 30
0.0
 11
-68.67974927929999
 21
-82.46149092851172
 31
0.0
 70
    32
  1
<> O.D.
 71
     5
 42
80.0
  3
STANDARD
100
AcDbAlignedDimension
 13
-28.6797492793
 23
-73.34424391439999
 33
0.0
 14
-108.6797492793
 24
-73.34424391439999
 34
0.0
100
AcDbRotatedDimension
  0
DIMENSION
  5
1F3
330
1C
100
AcDbEntity
  8
0
100
AcDbDimension
  2
*D5
 10
-105.6797492793
 20
-77.80516513856866
 30
0.0
 11
-68.67974927929999
 21
-77.80516513856866
 31
0.0
 70
    32
  1
<> VAW
 71
     5
 42
74.0
  3
STANDARD
100
AcDbAlignedDimension
 13
-31.6797492793
 23
-70.34424391439999
 33
0.0
 14
-105.6797492793
 24
-70.34424391439999
 34
0.0
100
AcDbRotatedDimension
  0
DIMENSION
  5
201
330
1C
100
AcDbEntity
  8
0
100
AcDbDimension
  2
*D6
 10
-28.6797492793
 20
-77.80516513856866
 30
0.0
 11
-23.37117785072857
 21
-77.80516513856866
 31
0.0
 70
    32
 71
     5
 42
3.0
  3
STANDARD
100
AcDbAlignedDimension
 13
-31.6797492793
 23
-70.34424391439999
 33
0.0
 14
-28.6797492793
 24
-73.34424391439999
 34
0.0
100
AcDbRotatedDimension
  0
ENDSEC
  0
SECTION
  2
OBJECTS
  0
DICTIONARY
  5
8B
330
0
100
AcDbDictionary
281
     1
  3
ACAD_COLOR
350
95
  3
ACAD_GROUP
350
8C
  3
ACAD_LAYOUT
350
98
  3
ACAD_MATERIAL
350
94
  3
ACAD_MLINESTYLE
350
8D
  3
ACAD_PLOTSETTINGS
350
99
  3
ACAD_PLOTSTYLENAME
350
92
  3
ACAD_TABLESTYLE
350
96
  3
ACDBHEADERROUNDTRIPXREC
350
22F
  3
AcDbVariableDictionary
350
22A
  3
ASE_INDEX_DICTIONARY
350
227
  0
DICTIONARY
  5
95
102
{ACAD_REACTORS
330
8B
102
}
330
8B
100
AcDbDictionary
281
     1
  0
DICTIONARY
  5
8C
102
{ACAD_REACTORS
330
8B
102
}
330
8B
100
AcDbDictionary
281
     1
  0
DICTIONARY
  5
98
102
{ACAD_REACTORS
330
8B
102
}
330
8B
100
AcDbDictionary
281
     1
  3
Layout1
350
9B
  3
Model
350
9A
  0
DICTIONARY
  5
94
102
{ACAD_REACTORS
330
8B
102
}
330
8B
100
AcDbDictionary
281
     1
  0
DICTIONARY
  5
8D
102
{ACAD_REACTORS
330
8B
102
}
330
8B
100
AcDbDictionary
281
     1
  3
STANDARD
350
8E
  0
DICTIONARY
  5
99
102
{ACAD_REACTORS
330
8B
102
}
330
8B
100
AcDbDictionary
281
     1
  0
ACDBDICTIONARYWDFLT
  5
92
102
{ACAD_REACTORS
330
8B
102
}
330
8B
100
AcDbDictionary
281
     1
  3
Normal
350
93
100
AcDbDictionaryWithDefault
340
93
  0
DICTIONARY
  5
96
102
{ACAD_REACTORS
330
8B
102
}
330
8B
100
AcDbDictionary
281
     1
  3
Standard
350
97
  0
DICTIONARY
  5
22F
102
{ACAD_REACTORS
330
8B
102
}
330
8B
100
AcDbDictionary
281
     1
  0
DICTIONARY
  5
22A
102
{ACAD_REACTORS
330
8B
102
}
330
8B
100
AcDbDictionary
281
     1
  3
CTABLESTYLE
350
22B
  3
DIMASSOC
350
22C
  3
PROJECTNAME
350
22D
  0
DICTIONARY
  5
227
102
{ACAD_REACTORS
330
8B
102
}
330
8B
100
AcDbDictionary
281
     1
  3
ASEBlockHierarchyIndexRecord
350
229
1001
DCO15
1040
1583636482.894
  0
LAYOUT
  5
9B
102
{ACAD_XDICTIONARY
360
232
102
}
102
{ACAD_REACTORS
330
98
102
}
330
98
100
AcDbPlotSettings
  1

  2
\\DALITE03\PR00109
  4

  6

 40
0.0
 41
0.0
 42
0.0
 43
0.0
 44
0.0
 45
0.0
 46
0.0
 47
0.0
 48
0.0
 49
0.0
140
0.0
141
0.0
142
1.0
143
1.0
 70
   688
 72
     0
 73
     0
 74
     5
  7
acad2.ctb
 75
    16
147
1.0
148
0.0
149
0.0
100
AcDbLayout
  1
Layout1
 70
     0
 71
     1
 10
0.0
 20
0.0
 11
12.0
 21
9.0
 12
0.0
 22
0.0
 32
0.0
 14
1.000000000000000E+20
 24
1.000000000000000E+20
 34
1.000000000000000E+20
 15
-1.000000000000000E+20
 25
-1.000000000000000E+20
 35
-1.000000000000000E+20
146
0.0
 13
0.0
 23
0.0
 33
0.0
 16
1.0
 26
0.0
 36
0.0
 17
0.0
 27
1.0
 37
0.0
 76
     0
330
1D
  0
LAYOUT
  5
9A
102
{ACAD_XDICTIONARY
360
230
102
}
102
{ACAD_REACTORS
330
98
102
}
330
98
100
AcDbPlotSettings
  1

  2
\\DALITE03\PR00109
  4

  6

 40
0.0
 41
0.0
 42
0.0
 43
0.0
 44
0.0
 45
0.0
 46
0.0
 47
0.0
 48
0.0
 49
0.0
140
0.0
141
0.0
142
1.0
143
1.0
 70
  1712
 72
     0
 73
     0
 74
     0
  7
acad2.ctb
 75
     0
147
1.0
148
0.0
149
0.0
100
AcDbLayout
  1
Model
 70
     1
 71
     0
 10
0.0
 20
0.0
 11
12.0
 21
9.0
 12
0.0
 22
0.0
 32
0.0
 14
0.0
 24
0.0
 34
0.0
 15
0.0
 25
0.0
 35
0.0
146
0.0
 13
0.0
 23
0.0
 33
0.0
 16
1.0
 26
0.0
 36
0.0
 17
0.0
 27
1.0
 37
0.0
 76
     0
330
1C
  0
MLINESTYLE
  5
8E
102
{ACAD_REACTORS
330
8D
102
}
330
8D
100
AcDbMlineStyle
  2
STANDARD
 70
     0
  3

 62
     0
 51
90.00000000000019
 52
90.00000000000019
 71
     2
 49
0.5
 62
   256
  6
BYLAYER
 49
-0.5
 62
   256
  6
BYLAYER
  0
ACDBPLACEHOLDER
  5
93
102
{ACAD_REACTORS
330
92
102
}
330
92
  0
TABLESTYLE
  5
97
102
{ACAD_REACTORS
330
96
102
}
330
96
100
AcDbTableStyle
  3
Standard
 70
     0
 71
     0
 40
0.06
 41
0.06
280
     0
281
     0
  7
STANDARD
140
0.18
170
     2
 62
     0
 63
     7
283
     0
274
    -2
284
     1
 64
     0
275
    -2
285
     1
 65
     0
276
    -2
286
     1
 66
     0
277
    -2
287
     1
 67
     0
278
    -2
288
     1
 68
     0
279
    -2
289
     1
 69
     0
  7
STANDARD
140
0.25
170
     5
 62
     0
 63
     7
283
     0
274
    -2
284
     1
 64
     0
275
    -2
285
     1
 65
     0
276
    -2
286
     1
 66
     0
277
    -2
287
     1
 67
     0
278
    -2
288
     1
 68
     0
279
    -2
289
     1
 69
     0
  7
STANDARD
140
0.18
170
     5
 62
     0
 63
     7
283
     0
274
    -2
284
     1
 64
     0
275
    -2
285
     1
 65
     0
276
    -2
286
     1
 66
     0
277
    -2
287
     1
 67
     0
278
    -2
288
     1
 68
     0
279
    -2
289
     1
 69
     0
  0
DICTIONARYVAR
  5
22B
102
{ACAD_REACTORS
330
22A
102
}
330
22A
100
DictionaryVariables
280
     0
  1
STANDARD
  0
DICTIONARYVAR
  5
22C
102
{ACAD_REACTORS
330
22A
102
}
330
22A
100
DictionaryVariables
280
     0
  1
1
  0
DICTIONARYVAR
  5
22D
102
{ACAD_REACTORS
330
22A
102
}
330
22A
100
DictionaryVariables
280
     0
  1

  0
XRECORD
  5
229
102
{ACAD_REACTORS
330
227
102
}
330
227
100
AcDbXrecord
280
     1
  0
DICTIONARY
  5
232
330
9B
100
AcDbDictionary
280
     1
281
     1
  3
ACAD_XREC_ROUNDTRIP
360
233
  0
DICTIONARY
  5
230
330
9A
100
AcDbDictionary
280
     1
281
     1
  3
ACAD_XREC_ROUNDTRIP
360
231
  0
XRECORD
  5
233
102
{ACAD_REACTORS
330
232
102
}
330
232
100
AcDbXrecord
280
     1
102
SHADEPLOT
 70
     0
102
SHADEPLOTRESLEVEL
 70
     2
102
SHADEPLOTCUSTOMDPI
 70
   300
  0
XRECORD
  5
231
102
{ACAD_REACTORS
330
230
102
}
330
230
100
AcDbXrecord
280
     1
102
SHADEPLOT
 70
     0
102
SHADEPLOTRESLEVEL
 70
     2
102
SHADEPLOTCUSTOMDPI
 70
   300
  0
ENDSEC
  0
EOF
