  0
SECTION
  2
HEADER
  9
$ACADVER
  1
AC1009
  9
$INSBASE
 10
0.0
 20
0.0
 30
0.0
  9
$EXTMIN
 10
-86.26367741150176
 20
-78.594514566185239
 30
-0.0000000000000098
  9
$EXTMAX
 10
109.8785003664762
 20
82.336073486911175
 30
0.0000000000000055
  9
$LIMMIN
 10
0.0
 20
0.0
  9
$LIMMAX
 10
12.0
 20
9.0
  9
$ORTHOMODE
 70
     1
  9
$REGENMODE
 70
     1
  9
$FILLMODE
 70
     1
  9
$QTEXTMODE
 70
     0
  9
$MIRRTEXT
 70
     0
  9
$DRAGMODE
 70
     2
  9
$LTSCALE
 40
0.625
  9
$OSMODE
 70
    63
  9
$ATTMODE
 70
     1
  9
$TEXTSIZE
 40
0.1
  9
$TRACEWID
 40
0.05
  9
$TEXTSTYLE
  7
ROMANS
  9
$CLAYER
  8
6
  9
$CELTYPE
  6
BYLAYER
  9
$CECOLOR
 62
   256
  9
$DIMSCALE
 40
1.0
  9
$DIMASZ
 40
0.08
  9
$DIMEXO
 40
0.06
  9
$DIMDLI
 40
0.38
  9
$DIMRND
 40
0.001
  9
$DIMDLE
 40
0.0
  9
$DIMEXE
 40
0.06
  9
$DIMTP
 40
0.0
  9
$DIMTM
 40
0.0
  9
$DIMTXT
 40
0.1
  9
$DIMCEN
 40
0.0
  9
$DIMTSZ
 40
0.0
  9
$DIMTOL
 70
     0
  9
$DIMLIM
 70
     0
  9
$DIMTIH
 70
     1
  9
$DIMTOH
 70
     1
  9
$DIMSE1
 70
     0
  9
$DIMSE2
 70
     0
  9
$DIMTAD
 70
     0
  9
$DIMZIN
 70
     4
  9
$DIMBLK
  1

  9
$DIMASO
 70
     1
  9
$DIMSHO
 70
     1
  9
$DIMPOST
  1
"
  9
$DIMAPOST
  1

  9
$DIMALT
 70
     0
  9
$DIMALTD
 70
     2
  9
$DIMALTF
 40
25.399999999999999
  9
$DIMLFAC
 40
1.0
  9
$DIMTOFL
 70
     0
  9
$DIMTVP
 40
0.0
  9
$DIMTIX
 70
     0
  9
$DIMSOXD
 70
     0
  9
$DIMSAH
 70
     0
  9
$DIMBLK1
  1

  9
$DIMBLK2
  1

  9
$DIMSTYLE
  2
DIM
  9
$DIMCLRD
 70
   256
  9
$DIMCLRE
 70
   256
  9
$DIMCLRT
 70
   256
  9
$DIMTFAC
 40
1.0
  9
$DIMGAP
 40
0.05
  9
$LUNITS
 70
     2
  9
$LUPREC
 70
     4
  9
$SKETCHINC
 40
0.1
  9
$FILLETRAD
 40
0.5
  9
$AUNITS
 70
     0
  9
$AUPREC
 70
     0
  9
$MENU
  1
.
  9
$ELEVATION
 40
0.0
  9
$PELEVATION
 40
0.0
  9
$THICKNESS
 40
0.0
  9
$LIMCHECK
 70
     0
  9
$BLIPMODE
 70
     0
  9
$CHAMFERA
 40
0.5
  9
$CHAMFERB
 40
0.5
  9
$SKPOLY
 70
     0
  9
$TDCREATE
 40
2451463.7134230318
  9
$TDUPDATE
 40
2451841.3723096061
  9
$TDINDWG
 40
1.0628826388999999
  9
$TDUSRTIMER
 40
1.0628819443999999
  9
$USRTIMER
 70
     1
  9
$ANGBASE
 50
0.0
  9
$ANGDIR
 70
     0
  9
$PDMODE
 70
     0
  9
$PDSIZE
 40
0.0
  9
$PLINEWID
 40
0.0
  9
$COORDS
 70
     2
  9
$SPLFRAME
 70
     0
  9
$SPLINETYPE
 70
     6
  9
$SPLINESEGS
 70
     8
  9
$ATTDIA
 70
     0
  9
$ATTREQ
 70
     1
  9
$HANDLING
 70
-16383
  9
$HANDSEED
  5
826
  9
$SURFTAB1
 70
     6
  9
$SURFTAB2
 70
     6
  9
$SURFTYPE
 70
     6
  9
$SURFU
 70
     6
  9
$SURFV
 70
     6
  9
$UCSNAME
  2

  9
$UCSORG
 10
0.0
 20
0.0
 30
0.0
  9
$UCSXDIR
 10
1.0
 20
0.0
 30
0.0
  9
$UCSYDIR
 10
0.0
 20
1.0
 30
0.0
  9
$PUCSNAME
  2

  9
$PUCSORG
 10
0.0
 20
0.0
 30
0.0
  9
$PUCSXDIR
 10
1.0
 20
0.0
 30
0.0
  9
$PUCSYDIR
 10
0.0
 20
1.0
 30
0.0
  9
$USERI1
 70
     0
  9
$USERI2
 70
     0
  9
$USERI3
 70
     0
  9
$USERI4
 70
     0
  9
$USERI5
 70
     0
  9
$USERR1
 40
0.0
  9
$USERR2
 40
0.0
  9
$USERR3
 40
0.0
  9
$USERR4
 40
0.0
  9
$USERR5
 40
0.0
  9
$WORLDVIEW
 70
     1
  9
$SHADEDGE
 70
     3
  9
$SHADEDIF
 70
    70
  9
$TILEMODE
 70
     1
  9
$MAXACTVP
 70
    64
  9
$PLIMCHECK
 70
     0
  9
$PEXTMIN
 10
0.0
 20
0.0
 30
0.0
  9
$PEXTMAX
 10
10.944105954815161
 20
9.216245025120676
 30
0.0
  9
$PLIMMIN
 10
-0.2812495194082185
 20
-0.2812499887361301
  9
$PLIMMAX
 10
10.71875024029589
 20
8.2187497709679764
  9
$UNITMODE
 70
     0
  9
$VISRETAIN
 70
     1
  9
$PLINEGEN
 70
     0
  9
$PSLTSCALE
 70
     1
  0
ENDSEC
  0
SECTION
  2
TABLES
  0
TABLE
  2
VPORT
 70
     2
  0
VPORT
  2
*ACTIVE
 70
     0
 10
0.0
 20
0.0
 11
1.0
 21
1.0
 12
10.03646893947808
 22
1.2390428726798881
 13
0.0
 23
0.0
 14
0.5
 24
0.5
 15
0.5
 25
0.5
 16
0.0
 26
0.0
 36
1.0
 17
0.0
 27
0.0
 37
0.0
 40
162.17489650223851
 41
1.2245161290322579
 42
50.0
 43
0.0
 44
0.0
 50
0.0
 51
0.0
 71
     0
 72
   100
 73
     1
 74
     3
 75
     0
 76
     0
 77
     0
 78
     0
  0
ENDTAB
  0
TABLE
  2
LTYPE
 70
     2
  0
LTYPE
  2
CONTINUOUS
 70
     0
  3
Solid line
 72
    65
 73
     0
 40
0.0
  0
LTYPE
  2
HIDDEN
 70
     0
  3
Hidden __ __ __ __ __ __ __ __ __ __ __ __ __ _
 72
    65
 73
     2
 40
0.375
 49
0.25
 49
-0.125
  0
ENDTAB
  0
TABLE
  2
LAYER
 70
     8
  0
LAYER
  2
0
 70
     0
 62
     7
  6
CONTINUOUS
  0
LAYER
  2
6
 70
     0
 62
     6
  6
CONTINUOUS
  0
LAYER
  2
4
 70
     0
 62
     4
  6
CONTINUOUS
  0
LAYER
  2
2
 70
     0
 62
     2
  6
CONTINUOUS
  0
LAYER
  2
DEFPOINTS
 70
     0
 62
     7
  6
CONTINUOUS
  0
LAYER
  2
AM_VIS
 70
     0
 62
     2
  6
CONTINUOUS
  0
LAYER
  2
AM_HID
 70
     0
 62
     1
  6
HIDDEN
  0
LAYER
  2
AM_REFDIM
 70
     0
 62
     6
  6
CONTINUOUS
  0
ENDTAB
  0
TABLE
  2
STYLE
 70
     2
  0
STYLE
  2
STANDARD
 70
     0
 40
0.0
 41
1.0
 50
0.0
 71
     0
 42
0.2
  3
txt
  4

  0
STYLE
  2
ROMANS
 70
     0
 40
0.0
 41
1.0
 50
0.0
 71
     0
 42
0.1
  3
ROMANS.shx
  4

  0
ENDTAB
  0
TABLE
  2
VIEW
 70
     0
  0
ENDTAB
  0
TABLE
  2
UCS
 70
     0
  0
ENDTAB
  0
TABLE
  2
APPID
 70
     1
  0
APPID
  2
ACAD
 70
     0
  0
ENDTAB
  0
TABLE
  2
DIMSTYLE
 70
     2
  0
DIMSTYLE
  2
STANDARD
 70
     0
  3

  4

  5

  6

  7

 40
1.0
 41
0.08
 42
0.0625
 43
0.38
 44
0.08
 45
0.0
 46
0.0
 47
0.0
 48
0.0
140
0.1
141
0.0
142
0.0
143
25.399999999999999
144
1.0
145
0.0
146
1.0
147
0.09
 71
     0
 72
     0
 73
     1
 74
     1
 75
     0
 76
     0
 77
     0
 78
     4
170
     0
171
     2
172
     0
173
     0
174
     0
175
     0
176
   256
177
   256
178
   256
  0
DIMSTYLE
  2
DIM
 70
     0
  3
"
  4

  5

  6

  7

 40
1.0
 41
0.08
 42
0.06
 43
0.38
 44
0.06
 45
0.001
 46
0.0
 47
0.0
 48
0.0
140
0.1
141
0.0
142
0.0
143
25.399999999999999
144
1.0
145
0.0
146
1.0
147
0.05
 71
     0
 72
     0
 73
     1
 74
     1
 75
     0
 76
     0
 77
     0
 78
     4
170
     0
171
     2
172
     0
173
     0
174
     0
175
     0
176
   256
177
   256
178
   256
  0
ENDTAB
  0
ENDSEC
  0
SECTION
  2
BLOCKS
  0
BLOCK
  8
0
  2
$MODEL_SPACE
 70
     0
 10
0.0
 20
0.0
 30
0.0
  3
$MODEL_SPACE
  1

  0
ENDBLK
  5
233
  8
0
  0
BLOCK
 67
     1
  8
0
  2
$PAPER_SPACE
 70
     0
 10
0.0
 20
0.0
 30
0.0
  3
$PAPER_SPACE
  1

  0
ENDBLK
  5
22F
 67
     1
  8
0
  0
BLOCK
  8
0
  2
*D2
 70
     1
 10
0.0
 20
0.0
 30
0.0
  3
*D2
  1

  0
LINE
  5
24B
  8
AM_REFDIM
 10
7.1151182374490274
 20
6.0572296931872964
 30
0.0
 11
5.1362610945918821
 21
4.5730868360444381
 31
0.0
  0
LINE
  5
24C
  8
AM_REFDIM
 10
2.6431182374490252
 20
2.703229693187295
 30
0.0
 11
4.6219753803061678
 21
4.187372550330152
 31
0.0
  0
SOLID
  5
24D
  8
AM_REFDIM
 10
7.1071182374490274
 20
6.0678963598539619
 30
0.0
 11
7.1231182374490274
 21
6.04656302652063
 31
0.0
 12
7.1791182374490274
 22
6.1052296931872974
 32
0.0
 13
7.1791182374490274
 23
6.1052296931872974
 33
0.0
  0
SOLID
  5
24E
  8
AM_REFDIM
 10
2.6351182374490252
 20
2.713896359853964
 30
0.0
 11
2.6511182374490252
 21
2.6925630265206291
 31
0.0
 12
2.579118237449026
 22
2.655229693187295
 32
0.0
 13
2.579118237449026
 23
2.655229693187295
 33
0.0
  0
INSERT
  5
250
  8
6
  2
*U3
 10
0.0
 20
0.0
 30
0.0
  0
POINT
  5
251
  8
DEFPOINTS
 62
     0
 10
7.179118237449023
 20
6.1052296931873
 30
0.0
  0
POINT
  5
252
  8
DEFPOINTS
 62
     0
 10
2.579118237449026
 20
2.6552296931872981
 30
0.0
  0
POINT
  5
253
  8
DEFPOINTS
 62
     0
 10
2.579118237449026
 20
2.655229693187295
 30
0.0
  0
ENDBLK
  5
254
  8
0
  0
BLOCK
  8
0
  2
*U3
 70
     1
 10
0.0
 20
0.0
 30
0.0
  3
*U3
  1

  0
TEXT
  5
2CE
  8
6
 10
4.5243563326871232
 20
4.4230868360444404
 30
0.0
 40
0.1
  1
XXX DIAG
  7
ROMANS
  0
TEXT
  5
2CF
  8
6
 10
4.2695944279252158
 20
4.2468963598539631
 30
0.0
 40
0.1
  1
ACTUAL 
  7
ROMANS
  0
TEXT
  5
2D0
  8
6
 10
4.9029277612585496
 20
4.2468963598539631
 30
0.0
 40
0.1
  1
115.00"
  7
ROMANS
  0
ENDBLK
  5
2D1
  8
0
  0
BLOCK
  8
0
  2
*D4
 70
     1
 10
0.0
 20
0.0
 30
0.0
  3
*D4
  1

  0
LINE
  5
257
  8
AM_REFDIM
 10
1.5691182374490249
 20
1.2489796931873001
 30
0.0
 11
1.194118237449024
 21
1.2489796931873001
 31
0.0
  0
LINE
  5
258
  8
AM_REFDIM
 10
1.5691182374490249
 20
2.0552296931872989
 30
0.0
 11
1.1941182374490249
 21
2.0552296931872989
 31
0.0
  0
LINE
  5
259
  8
AM_REFDIM
 10
1.254118237449025
 20
1.328979693187301
 30
0.0
 11
1.254118237449027
 21
1.5425808836634911
 31
0.0
  0
LINE
  5
25A
  8
AM_REFDIM
 10
1.254118237449027
 20
1.975229693187301
 30
0.0
 11
1.254118237449027
 21
1.76162850271111
 31
0.0
  0
SOLID
  5
25B
  8
AM_REFDIM
 10
1.240784904115692
 20
1.328979693187301
 30
0.0
 11
1.267451570782359
 21
1.328979693187301
 31
0.0
 12
1.254118237449025
 22
1.2489796931873001
 32
0.0
 13
1.254118237449025
 23
1.2489796931873001
 33
0.0
  0
SOLID
  5
25C
  8
AM_REFDIM
 10
1.240784904115692
 20
1.975229693187301
 30
0.0
 11
1.267451570782359
 21
1.975229693187301
 31
0.0
 12
1.254118237449027
 22
2.0552296931872989
 32
0.0
 13
1.254118237449027
 23
2.0552296931872989
 33
0.0
  0
TEXT
  5
25D
  8
6
 10
0.9969753803061694
 20
1.6021046931873011
 30
0.0
 40
0.1
  1
16.13"
  7
ROMANS
  0
POINT
  5
25E
  8
DEFPOINTS
 62
     0
 10
1.629118237449025
 20
1.2489796931873001
 30
0.0
  0
POINT
  5
25F
  8
DEFPOINTS
 62
     0
 10
1.629118237449025
 20
2.0552296931872989
 30
0.0
  0
POINT
  5
260
  8
DEFPOINTS
 62
     0
 10
1.254118237449027
 20
2.0552296931872989
 30
0.0
  0
ENDBLK
  5
261
  8
0
  0
BLOCK
  8
0
  2
*D5
 70
     1
 10
0.0
 20
0.0
 30
0.0
  3
*D5
  1

  0
LINE
  5
264
  8
AM_REFDIM
 10
1.5691182374490249
 20
2.0552296931872989
 30
0.0
 11
1.194118237449024
 21
2.0552296931872989
 31
0.0
  0
LINE
  5
265
  8
AM_REFDIM
 10
2.4191182374490272
 20
2.6552296931872981
 30
0.0
 11
1.1941182374490249
 21
2.6552296931872981
 31
0.0
  0
LINE
  5
266
  8
AM_REFDIM
 10
1.254118237449025
 20
1.975229693187301
 30
0.0
 11
1.254118237449025
 21
1.8952296931873001
 31
0.0
  0
LINE
  5
267
  8
AM_REFDIM
 10
1.254118237449027
 20
2.7352296931872981
 30
0.0
 11
1.254118237449027
 21
2.8152296931872982
 31
0.0
  0
SOLID
  5
268
  8
AM_REFDIM
 10
1.240784904115692
 20
1.975229693187301
 30
0.0
 11
1.267451570782359
 21
1.975229693187301
 31
0.0
 12
1.254118237449025
 22
2.0552296931872989
 32
0.0
 13
1.254118237449025
 23
2.0552296931872989
 33
0.0
  0
SOLID
  5
269
  8
AM_REFDIM
 10
1.240784904115692
 20
2.7352296931872981
 30
0.0
 11
1.267451570782359
 21
2.7352296931872981
 31
0.0
 12
1.254118237449027
 22
2.6552296931872981
 32
0.0
 13
1.254118237449027
 23
2.6552296931872981
 33
0.0
  0
INSERT
  5
26B
  8
6
  2
*U6
 10
0.0
 20
0.0
 30
0.0
  0
POINT
  5
26C
  8
DEFPOINTS
 62
     0
 10
1.629118237449025
 20
2.0552296931872989
 30
0.0
  0
POINT
  5
26D
  8
DEFPOINTS
 62
     0
 10
2.479118237449025
 20
2.6552296931872981
 30
0.0
  0
POINT
  5
26E
  8
DEFPOINTS
 62
     0
 10
1.254118237449027
 20
2.6552296931872981
 30
0.0
  0
ENDBLK
  5
26F
  8
0
  0
BLOCK
  8
0
  2
*U6
 70
     1
 10
0.0
 20
0.0
 30
0.0
  3
*U6
  1

  0
TEXT
  5
2D3
  8
6
 10
0.9969753803061694
 20
2.3885630265206341
 30
0.0
 40
0.1
  1
12.00"
  7
ROMANS
  0
TEXT
  5
2D4
  8
6
 10
1.111261094591883
 20
2.2123725503301581
 30
0.0
 40
0.1
  1
BLK
  7
ROMANS
  0
ENDBLK
  5
2D5
  8
0
  0
BLOCK
  8
0
  2
*D7
 70
     1
 10
0.0
 20
0.0
 30
0.0
  3
*D7
  1

  0
LINE
  5
272
  8
AM_REFDIM
 10
2.4191182374490272
 20
2.6552296931872981
 30
0.0
 11
1.1941182374490249
 21
2.6552296931872981
 31
0.0
  0
LINE
  5
273
  8
AM_REFDIM
 10
2.4191182374490241
 20
6.1052296931872991
 30
0.0
 11
1.1941182374490249
 21
6.1052296931873
 31
0.0
  0
LINE
  5
274
  8
AM_REFDIM
 10
1.254118237449027
 20
2.7352296931872981
 30
0.0
 11
1.254118237449027
 21
4.1873725503301564
 31
0.0
  0
LINE
  5
275
  8
AM_REFDIM
 10
1.254118237449027
 20
6.0252296931872991
 30
0.0
 11
1.254118237449027
 21
4.5730868360444408
 31
0.0
  0
SOLID
  5
276
  8
AM_REFDIM
 10
1.240784904115692
 20
2.7352296931872981
 30
0.0
 11
1.267451570782359
 21
2.7352296931872981
 31
0.0
 12
1.254118237449027
 22
2.6552296931872981
 32
0.0
 13
1.254118237449027
 23
2.6552296931872981
 33
0.0
  0
SOLID
  5
277
  8
AM_REFDIM
 10
1.240784904115694
 20
6.0252296931872991
 30
0.0
 11
1.2674515707823599
 21
6.0252296931872991
 31
0.0
 12
1.254118237449027
 22
6.1052296931873
 32
0.0
 13
1.254118237449027
 23
6.1052296931873
 33
0.0
  0
INSERT
  5
279
  8
6
  2
*U8
 10
0.0
 20
0.0
 30
0.0
  0
POINT
  5
27A
  8
DEFPOINTS
 62
     0
 10
2.479118237449025
 20
2.6552296931872981
 30
0.0
  0
POINT
  5
27B
  8
DEFPOINTS
 62
     0
 10
2.4791182374490242
 20
6.1052296931872991
 30
0.0
  0
POINT
  5
27C
  8
DEFPOINTS
 62
     0
 10
1.254118237449027
 20
6.1052296931873
 30
0.0
  0
ENDBLK
  5
27D
  8
0
  0
BLOCK
  8
0
  2
*U8
 70
     1
 10
0.0
 20
0.0
 30
0.0
  3
*U8
  1

  0
TEXT
  5
2D7
  8
6
 10
1.001737285068073
 20
4.41356302652063
 30
0.0
 40
0.1
  1
69.00"
  7
ROMANS
  0
TEXT
  5
2D8
  8
6
 10
1.123165856496644
 20
4.2373725503301563
 30
0.0
 40
0.1
  1
VAH
  7
ROMANS
  0
ENDBLK
  5
2D9
  8
0
  0
BLOCK
  8
0
  2
*D9
 70
     1
 10
0.0
 20
0.0
 30
0.0
  3
*D9
  1

  0
LINE
  5
280
  8
AM_REFDIM
 10
2.3691182374490252
 20
6.2177296931872998
 30
0.0
 11
0.7003682374490281
 21
6.2177296931873034
 31
0.0
  0
LINE
  5
281
  8
AM_REFDIM
 10
1.5691182374490249
 20
2.0552296931872989
 30
0.0
 11
0.7003682374490272
 21
2.0552296931872989
 31
0.0
  0
LINE
  5
282
  8
AM_REFDIM
 10
0.7603682374490282
 20
6.1377296931873024
 30
0.0
 11
0.7603682374490277
 21
4.24600350271111
 31
0.0
  0
LINE
  5
283
  8
AM_REFDIM
 10
0.7603682374490273
 20
2.1352296931873012
 30
0.0
 11
0.7603682374490277
 21
4.0269558836634909
 31
0.0
  0
SOLID
  5
284
  8
AM_REFDIM
 10
0.747034904115695
 20
6.1377296931873024
 30
0.0
 11
0.7737015707823615
 21
6.1377296931873024
 31
0.0
 12
0.7603682374490282
 22
6.2177296931873034
 32
0.0
 13
0.7603682374490282
 23
6.2177296931873034
 33
0.0
  0
SOLID
  5
285
  8
AM_REFDIM
 10
0.7470349041156942
 20
2.1352296931873012
 30
0.0
 11
0.7737015707823606
 21
2.1352296931873012
 31
0.0
 12
0.7603682374490273
 22
2.0552296931872989
 32
0.0
 13
0.7603682374490273
 23
2.0552296931872989
 33
0.0
  0
TEXT
  5
286
  8
6
 10
0.5103682374490272
 20
4.0864796931873011
 30
0.0
 40
0.1
  1
83.25"
  7
ROMANS
  0
POINT
  5
287
  8
DEFPOINTS
 62
     0
 10
2.4291182374490252
 20
6.2177296931872998
 30
0.0
  0
POINT
  5
288
  8
DEFPOINTS
 62
     0
 10
1.629118237449025
 20
2.0552296931872989
 30
0.0
  0
POINT
  5
289
  8
DEFPOINTS
 62
     0
 10
0.7603682374490273
 20
2.0552296931872989
 30
0.0
  0
ENDBLK
  5
28A
  8
0
  0
BLOCK
  8
0
  2
*D10
 70
     1
 10
0.0
 20
0.0
 30
0.0
  3
*D10
  1

  0
LINE
  5
28D
  8
AM_REFDIM
 10
1.629118237449025
 20
1.1889796931873
 30
0.0
 11
1.629118237449025
 21
0.8483546931873018
 31
0.0
  0
LINE
  5
28E
  8
AM_REFDIM
 10
8.1291182374490276
 20
1.1889796931873
 30
0.0
 11
8.1291182374490276
 21
0.8483546931873018
 31
0.0
  0
LINE
  5
28F
  8
AM_REFDIM
 10
1.709118237449025
 20
0.9083546931873019
 30
0.0
 11
3.7814991898299781
 21
0.9083546931873019
 31
0.0
  0
LINE
  5
290
  8
AM_REFDIM
 10
8.0491182374490275
 20
0.9083546931873019
 30
0.0
 11
5.976737285068074
 21
0.9083546931873019
 31
0.0
  0
SOLID
  5
291
  8
AM_REFDIM
 10
1.709118237449025
 20
0.9216880265206352
 30
0.0
 11
1.709118237449025
 21
0.8950213598539685
 31
0.0
 12
1.629118237449025
 22
0.9083546931873019
 32
0.0
 13
1.629118237449025
 23
0.9083546931873019
 33
0.0
  0
SOLID
  5
292
  8
AM_REFDIM
 10
8.0491182374490275
 20
0.9216880265206352
 30
0.0
 11
8.0491182374490275
 21
0.8950213598539685
 31
0.0
 12
8.1291182374490276
 22
0.9083546931873019
 32
0.0
 13
8.1291182374490276
 23
0.9083546931873019
 33
0.0
  0
TEXT
  5
293
  8
6
 10
3.8029277612585508
 20
0.8750213598539685
 30
0.0
 40
0.1
  1
130.00" (LENGTH OF CASE)
  7
ROMANS
  0
POINT
  5
294
  8
DEFPOINTS
 62
     0
 10
1.629118237449025
 20
1.2489796931873001
 30
0.0
  0
POINT
  5
295
  8
DEFPOINTS
 62
     0
 10
8.1291182374490276
 20
1.2489796931873001
 30
0.0
  0
POINT
  5
296
  8
DEFPOINTS
 62
     0
 10
8.1291182374490276
 20
0.9083546931873019
 30
0.0
  0
ENDBLK
  5
297
  8
0
  0
BLOCK
  8
0
  2
*D11
 70
     1
 10
0.0
 20
0.0
 30
0.0
  3
*D11
  1

  0
LINE
  5
29A
  8
AM_REFDIM
 10
2.579118237449022
 20
6.165229693187297
 30
0.0
 11
2.579118237449022
 21
6.4933546931872979
 31
0.0
  0
LINE
  5
29B
  8
AM_REFDIM
 10
7.1791182374490239
 20
6.1652296931872979
 30
0.0
 11
7.1791182374490239
 21
6.4933546931872979
 31
0.0
  0
LINE
  5
29C
  8
AM_REFDIM
 10
2.6591182374490221
 20
6.4333546931873
 30
0.0
 11
4.4005468088775972
 21
6.4333546931873
 31
0.0
  0
LINE
  5
29D
  8
AM_REFDIM
 10
7.0991182374490238
 20
6.4333546931873
 30
0.0
 11
5.3576896660204518
 21
6.4333546931873
 31
0.0
  0
SOLID
  5
29E
  8
AM_REFDIM
 10
2.6591182374490221
 20
6.4466880265206319
 30
0.0
 11
2.6591182374490221
 21
6.4200213598539673
 31
0.0
 12
2.579118237449022
 22
6.4333546931873
 32
0.0
 13
2.579118237449022
 23
6.4333546931873
 33
0.0
  0
SOLID
  5
29F
  8
AM_REFDIM
 10
7.0991182374490238
 20
6.4466880265206319
 30
0.0
 11
7.0991182374490238
 21
6.4200213598539673
 31
0.0
 12
7.1791182374490239
 22
6.4333546931873
 32
0.0
 13
7.1791182374490239
 23
6.4333546931873
 33
0.0
  0
TEXT
  5
2A0
  8
6
 10
4.436261094591881
 20
6.3833546931873011
 30
0.0
 40
0.1
  1
92.00" VAW
  7
ROMANS
  0
POINT
  5
2A1
  8
DEFPOINTS
 62
     0
 10
2.579118237449022
 20
6.1052296931872991
 30
0.0
  0
POINT
  5
2A2
  8
DEFPOINTS
 62
     0
 10
7.1791182374490239
 20
6.1052296931873
 30
0.0
  0
POINT
  5
2A3
  8
DEFPOINTS
 62
     0
 10
7.1791182374490239
 20
6.4333546931873
 30
0.0
  0
ENDBLK
  5
2A4
  8
0
  0
BLOCK
  8
0
  2
*D12
 70
     1
 10
0.0
 20
0.0
 30
0.0
  3
*D12
  1

  0
LINE
  5
2A7
  8
AM_REFDIM
 10
2.4791182374490242
 20
6.2402296931872971
 30
0.0
 11
2.4791182374490242
 21
6.7433546931872987
 31
0.0
  0
LINE
  5
2A8
  8
AM_REFDIM
 10
7.2791182374490253
 20
6.2402296931872971
 30
0.0
 11
7.2791182374490253
 21
6.7433546931872987
 31
0.0
  0
LINE
  5
2A9
  8
AM_REFDIM
 10
2.559118237449022
 20
6.6833546931873
 30
0.0
 11
3.9600706184014061
 21
6.6833546931873
 31
0.0
  0
LINE
  5
2AA
  8
AM_REFDIM
 10
7.1991182374490252
 20
6.6833546931873
 30
0.0
 11
5.7981658564966443
 21
6.6833546931873
 31
0.0
  0
SOLID
  5
2AB
  8
AM_REFDIM
 10
2.559118237449022
 20
6.6966880265206319
 30
0.0
 11
2.559118237449022
 21
6.6700213598539673
 31
0.0
 12
2.4791182374490242
 22
6.6833546931873
 32
0.0
 13
2.4791182374490242
 23
6.6833546931873
 33
0.0
  0
SOLID
  5
2AC
  8
AM_REFDIM
 10
7.1991182374490252
 20
6.6966880265206319
 30
0.0
 11
7.1991182374490252
 21
6.6700213598539673
 31
0.0
 12
7.2791182374490253
 22
6.6833546931873
 32
0.0
 13
7.2791182374490253
 23
6.6833546931873
 33
0.0
  0
TEXT
  5
2AD
  8
6
 10
3.9957849041156912
 20
6.650021359853965
 30
0.0
 40
0.1
  1
96.00" (FABRIC WIDTH)
  7
ROMANS
  0
POINT
  5
2AE
  8
DEFPOINTS
 62
     0
 10
2.4791182374490242
 20
6.1802296931872984
 30
0.0
  0
POINT
  5
2AF
  8
DEFPOINTS
 62
     0
 10
7.2791182374490253
 20
6.1802296931873002
 30
0.0
  0
POINT
  5
2B0
  8
DEFPOINTS
 62
     0
 10
7.2791182374490253
 20
6.6833546931873
 30
0.0
  0
ENDBLK
  5
2B1
  8
0
  0
BLOCK
  8
0
  2
*D13
 70
     1
 10
0.0
 20
0.0
 30
0.0
  3
*D13
  1

  0
LINE
  5
2B4
  8
AM_REFDIM
 10
2.4291182374490252
 20
6.2777296931873021
 30
0.0
 11
2.4291182374490252
 21
6.9933546931872987
 31
0.0
  0
LINE
  5
2B5
  8
AM_REFDIM
 10
7.329118237449026
 20
6.2777296931873021
 30
0.0
 11
7.329118237449026
 21
6.9933546931872987
 31
0.0
  0
LINE
  5
2B6
  8
AM_REFDIM
 10
2.5091182374490271
 20
6.9333546931873
 30
0.0
 11
3.838642046972836
 21
6.9333546931873
 31
0.0
  0
LINE
  5
2B7
  8
AM_REFDIM
 10
7.2491182374490251
 20
6.9333546931873
 30
0.0
 11
5.9195944279252171
 21
6.9333546931873
 31
0.0
  0
SOLID
  5
2B8
  8
AM_REFDIM
 10
2.5091182374490271
 20
6.9466880265206337
 30
0.0
 11
2.5091182374490271
 21
6.9200213598539673
 31
0.0
 12
2.4291182374490252
 22
6.9333546931873
 32
0.0
 13
2.4291182374490252
 23
6.9333546931873
 33
0.0
  0
SOLID
  5
2B9
  8
AM_REFDIM
 10
7.2491182374490251
 20
6.9466880265206337
 30
0.0
 11
7.2491182374490251
 21
6.9200213598539673
 31
0.0
 12
7.329118237449026
 22
6.9333546931873
 32
0.0
 13
7.329118237449026
 23
6.9333546931873
 33
0.0
  0
TEXT
  5
2BA
  8
6
 10
3.874356332687122
 20
6.9000213598539668
 30
0.0
 40
0.1
  1
98.00" (LENGTH OF SLAT)
  7
ROMANS
  0
POINT
  5
2BB
  8
DEFPOINTS
 62
     0
 10
2.4291182374490252
 20
6.2177296931872998
 30
0.0
  0
POINT
  5
2BC
  8
DEFPOINTS
 62
     0
 10
7.329118237449026
 20
6.2177296931872998
 30
0.0
  0
POINT
  5
2BD
  8
DEFPOINTS
 62
     0
 10
7.329118237449026
 20
6.9333546931873
 30
0.0
  0
ENDBLK
  5
2BE
  8
0
  0
BLOCK
  8
0
  2
*D14
 70
     1
 10
0.0
 20
0.0
 30
0.0
  3
*D14
  1

  0
LINE
  5
2C1
  8
AM_REFDIM
 10
2.4191182374490241
 20
6.1052296931872991
 30
0.0
 11
1.1941182374490249
 21
6.1052296931873
 31
0.0
  0
LINE
  5
2C2
  8
AM_REFDIM
 10
2.3691182374490252
 20
6.2177296931872998
 30
0.0
 11
1.1941182374490249
 21
6.2177296931873034
 31
0.0
  0
LINE
  5
2C3
  8
AM_REFDIM
 10
1.254118237449027
 20
6.0252296931872991
 30
0.0
 11
1.254118237449027
 21
5.9452296931872972
 31
0.0
  0
LINE
  5
2C4
  8
AM_REFDIM
 10
1.254118237449027
 20
6.2977296931873017
 30
0.0
 11
1.254118237449027
 21
6.3777296931873018
 31
0.0
  0
LINE
  5
2C5
  8
AM_REFDIM
 10
1.254118237449027
 20
6.3777296931873018
 30
0.0
 11
1.334118237449027
 21
6.3777296931873018
 31
0.0
  0
SOLID
  5
2C6
  8
AM_REFDIM
 10
1.240784904115694
 20
6.0252296931872991
 30
0.0
 11
1.2674515707823599
 21
6.0252296931872991
 31
0.0
 12
1.254118237449027
 22
6.1052296931873
 32
0.0
 13
1.254118237449027
 23
6.1052296931873
 33
0.0
  0
SOLID
  5
2C7
  8
AM_REFDIM
 10
1.240784904115694
 20
6.2977296931873017
 30
0.0
 11
1.2674515707823599
 21
6.2977296931873017
 31
0.0
 12
1.254118237449027
 22
6.2177296931873034
 32
0.0
 13
1.254118237449027
 23
6.2177296931873034
 33
0.0
  0
TEXT
  5
2C8
  8
6
 10
1.3698325231633111
 20
6.3277296931873011
 30
0.0
 40
0.1
  1
2.25"
  7
ROMANS
  0
POINT
  5
2C9
  8
DEFPOINTS
 62
     0
 10
2.4791182374490242
 20
6.1052296931872991
 30
0.0
  0
POINT
  5
2CA
  8
DEFPOINTS
 62
     0
 10
2.4291182374490252
 20
6.2177296931872998
 30
0.0
  0
POINT
  5
2CB
  8
DEFPOINTS
 62
     0
 10
1.254118237449027
 20
6.2177296931873034
 30
0.0
  0
ENDBLK
  5
2CC
  8
0
  0
BLOCK
  8
0
  2
*D15
 70
     1
 10
0.0
 20
0.0
 30
0.0
  3
*D15
  1

  0
LINE
  5
70A
  8
AM_REFDIM
 10
-44.120881762550972
 20
42.380229693187388
 30
0.0
 11
-44.120881762550972
 21
57.042729693187361
 31
0.0
  0
LINE
  5
70B
  8
AM_REFDIM
 10
53.879118237448999
 20
42.380229693187388
 30
0.0
 11
53.879118237448999
 21
57.042729693187361
 31
0.0
  0
LINE
  5
70C
  8
AM_REFDIM
 10
-42.520881762550978
 20
55.44272969318736
 30
0.0
 11
-16.730405572074769
 21
55.44272969318736
 31
0.0
  0
LINE
  5
70D
  8
AM_REFDIM
 10
52.279118237448998
 20
55.44272969318736
 30
0.0
 11
26.48864204697281
 21
55.44272969318736
 31
0.0
  0
SOLID
  5
70E
  8
AM_REFDIM
 10
-42.520881762550978
 20
55.709396359854033
 30
0.0
 11
-42.520881762550978
 21
55.176063026520687
 31
0.0
 12
-44.120881762550972
 22
55.44272969318736
 32
0.0
 13
-44.120881762550972
 23
55.44272969318736
 33
0.0
  0
SOLID
  5
70F
  8
AM_REFDIM
 10
52.279118237448998
 20
55.709396359854033
 30
0.0
 11
52.279118237448998
 21
55.176063026520687
 31
0.0
 12
53.879118237448999
 22
55.44272969318736
 32
0.0
 13
53.879118237448999
 23
55.44272969318736
 33
0.0
  0
TEXT
  5
710
  8
6
 10
-15.216119857789071
 20
54.776063026520688
 30
0.0
 40
2.0
  1
98.00" (LENGTH OF SLAT)
  7
ROMANS
  0
POINT
  5
711
  8
DEFPOINTS
 62
     0
 10
-44.120881762550972
 20
41.130229693187388
 30
0.0
  0
POINT
  5
712
  8
DEFPOINTS
 62
     0
 10
53.879118237448999
 20
41.130229693187388
 30
0.0
  0
POINT
  5
713
  8
DEFPOINTS
 62
     0
 10
53.879118237448999
 20
55.44272969318736
 30
0.0
  0
ENDBLK
  5
434
  8
0
  0
BLOCK
  8
0
  2
*D16
 70
     1
 10
0.0
 20
0.0
 30
0.0
  3
*D16
  1

  0
LINE
  5
700
  8
AM_REFDIM
 10
-43.120881762551029
 20
41.630229693187339
 30
0.0
 11
-43.120881762551029
 21
52.042729693187361
 31
0.0
  0
LINE
  5
701
  8
AM_REFDIM
 10
52.879118237448978
 20
41.63022969318736
 30
0.0
 11
52.879118237448978
 21
52.042729693187361
 31
0.0
  0
LINE
  5
702
  8
AM_REFDIM
 10
-41.520881762551021
 20
50.44272969318736
 30
0.0
 11
-14.301834143503401
 21
50.44272969318736
 31
0.0
  0
LINE
  5
703
  8
AM_REFDIM
 10
51.279118237448976
 20
50.44272969318736
 30
0.0
 11
24.060070618401351
 21
50.44272969318736
 31
0.0
  0
SOLID
  5
704
  8
AM_REFDIM
 10
-41.520881762551021
 20
50.709396359854033
 30
0.0
 11
-41.520881762551021
 21
50.176063026520687
 31
0.0
 12
-43.120881762551029
 22
50.44272969318736
 32
0.0
 13
-43.120881762551029
 23
50.44272969318736
 33
0.0
  0
SOLID
  5
705
  8
AM_REFDIM
 10
51.279118237448976
 20
50.709396359854033
 30
0.0
 11
51.279118237448976
 21
50.176063026520687
 31
0.0
 12
52.879118237448978
 22
50.44272969318736
 32
0.0
 13
52.879118237448978
 23
50.44272969318736
 33
0.0
  0
TEXT
  5
706
  8
6
 10
-12.787548429217679
 20
49.776063026520688
 30
0.0
 40
2.0
  1
96.00" (FABRIC WIDTH)
  7
ROMANS
  0
POINT
  5
707
  8
DEFPOINTS
 62
     0
 10
-43.120881762551029
 20
40.380229693187339
 30
0.0
  0
POINT
  5
708
  8
DEFPOINTS
 62
     0
 10
52.879118237448978
 20
40.38022969318736
 30
0.0
  0
POINT
  5
709
  8
DEFPOINTS
 62
     0
 10
52.879118237448978
 20
50.44272969318736
 30
0.0
  0
ENDBLK
  5
441
  8
0
  0
BLOCK
  8
0
  2
*D17
 70
     1
 10
0.0
 20
0.0
 30
0.0
  3
*D17
  1

  0
LINE
  5
6F6
  8
AM_REFDIM
 10
-41.120881762551043
 20
40.130229693187317
 30
0.0
 11
-41.120881762551043
 21
47.042729693187347
 31
0.0
  0
LINE
  5
6F7
  8
AM_REFDIM
 10
50.879118237448992
 20
40.130229693187353
 30
0.0
 11
50.879118237448992
 21
47.042729693187347
 31
0.0
  0
LINE
  5
6F8
  8
AM_REFDIM
 10
-39.520881762551042
 20
45.442729693187353
 30
0.0
 11
-5.4923103339795869
 21
45.442729693187353
 31
0.0
  0
LINE
  5
6F9
  8
AM_REFDIM
 10
49.279118237448991
 20
45.442729693187353
 30
0.0
 11
15.25054680887755
 21
45.442729693187353
 31
0.0
  0
SOLID
  5
6FA
  8
AM_REFDIM
 10
-39.520881762551042
 20
45.709396359854033
 30
0.0
 11
-39.520881762551042
 21
45.176063026520687
 31
0.0
 12
-41.120881762551043
 22
45.442729693187353
 32
0.0
 13
-41.120881762551043
 23
45.442729693187353
 33
0.0
  0
SOLID
  5
6FB
  8
AM_REFDIM
 10
49.279118237448991
 20
45.709396359854033
 30
0.0
 11
49.279118237448991
 21
45.176063026520687
 31
0.0
 12
50.879118237448992
 22
45.442729693187353
 32
0.0
 13
50.879118237448992
 23
45.442729693187353
 33
0.0
  0
TEXT
  5
6FC
  8
6
 10
-3.9780246196938749
 20
44.442729693187353
 30
0.0
 40
2.0
  1
92.00" VAW
  7
ROMANS
  0
POINT
  5
6FD
  8
DEFPOINTS
 62
     0
 10
-41.120881762551043
 20
38.880229693187317
 30
0.0
  0
POINT
  5
6FE
  8
DEFPOINTS
 62
     0
 10
50.879118237448992
 20
38.88022969318736
 30
0.0
  0
POINT
  5
6FF
  8
DEFPOINTS
 62
     0
 10
50.879118237448992
 20
45.442729693187353
 30
0.0
  0
ENDBLK
  5
44E
  8
0
  0
BLOCK
  8
0
  2
*D18
 70
     1
 10
0.0
 20
0.0
 30
0.0
  3
*D18
  1

  0
LINE
  5
6EC
  8
AM_REFDIM
 10
-60.120881762550972
 20
-59.494770306812612
 30
0.0
 11
-60.120881762550972
 21
-66.657270306812592
 31
0.0
  0
LINE
  5
6ED
  8
AM_REFDIM
 10
69.879118237449035
 20
-59.494770306812612
 30
0.0
 11
69.879118237449035
 21
-66.657270306812592
 31
0.0
  0
LINE
  5
6EE
  8
AM_REFDIM
 10
-58.520881762550957
 20
-65.057270306812597
 30
0.0
 11
-17.873262714931911
 21
-65.057270306812597
 31
0.0
  0
LINE
  5
6EF
  8
AM_REFDIM
 10
68.27911823744904
 20
-65.057270306812597
 30
0.0
 11
27.63149918982997
 21
-65.057270306812597
 31
0.0
  0
SOLID
  5
6F0
  8
AM_REFDIM
 10
-58.520881762550957
 20
-64.790603640145932
 30
0.0
 11
-58.520881762550957
 21
-65.323936973479263
 31
0.0
 12
-60.120881762550972
 22
-65.057270306812597
 32
0.0
 13
-60.120881762550972
 23
-65.057270306812597
 33
0.0
  0
SOLID
  5
6F1
  8
AM_REFDIM
 10
68.27911823744904
 20
-64.790603640145932
 30
0.0
 11
68.27911823744904
 21
-65.323936973479263
 31
0.0
 12
69.879118237449035
 22
-65.057270306812597
 32
0.0
 13
69.879118237449035
 23
-65.057270306812597
 33
0.0
  0
TEXT
  5
6F2
  8
6
 10
-16.64469128636048
 20
-65.723936973479255
 30
0.0
 40
2.0
  1
130.00" (LENGTH OF CASE)
  7
ROMANS
  0
POINT
  5
6F3
  8
DEFPOINTS
 62
     0
 10
-60.120881762550972
 20
-58.244770306812612
 30
0.0
  0
POINT
  5
6F4
  8
DEFPOINTS
 62
     0
 10
69.879118237449035
 20
-58.244770306812612
 30
0.0
  0
POINT
  5
6F5
  8
DEFPOINTS
 62
     0
 10
69.879118237449035
 20
-65.057270306812597
 30
0.0
  0
ENDBLK
  5
45B
  8
0
  0
BLOCK
  8
0
  2
*D19
 70
     1
 10
0.0
 20
0.0
 30
0.0
  3
*D19
  1

  0
LINE
  5
6BA
  8
AM_REFDIM
 10
51.629118237448999
 20
37.88022969318736
 30
0.0
 11
51.839118237449043
 21
37.600229693187288
 31
0.0
  0
LINE
  5
6BB
  8
AM_REFDIM
 10
-40.370881762550979
 20
-31.119770306812669
 30
0.0
 11
-40.16088176255095
 21
-31.399770306812702
 31
0.0
  0
LINE
  5
6BC
  8
AM_REFDIM
 10
49.599118237449048
 20
37.920229693187288
 30
0.0
 11
11.08864204697284
 21
9.0373725503301525
 31
0.0
  0
LINE
  5
6BD
  8
AM_REFDIM
 10
-39.84088176255095
 20
-29.1597703068127
 30
0.0
 11
-1.3304055720747681
 21
-0.2769131639555616
 31
0.0
  0
SOLID
  5
6BE
  8
AM_REFDIM
 10
49.439118237449051
 20
38.133563026520619
 30
0.0
 11
49.759118237449051
 21
37.70689635985395
 31
0.0
 12
50.879118237449042
 22
38.880229693187289
 32
0.0
 13
50.879118237449042
 23
38.880229693187289
 33
0.0
  0
SOLID
  5
6BF
  8
AM_REFDIM
 10
-40.000881762550961
 20
-28.946436973479369
 30
0.0
 11
-39.680881762550968
 21
-29.373103640146031
 31
0.0
 12
-41.120881762550951
 22
-30.119770306812701
 32
0.0
 13
-41.120881762550951
 23
-30.119770306812701
 33
0.0
  0
INSERT
  5
6C0
  8
6
  2
*U28
 10
0.0
 20
0.0
 30
0.0
  0
POINT
  5
6C1
  8
DEFPOINTS
 62
     0
 10
50.879118237448992
 20
38.88022969318736
 30
0.0
  0
POINT
  5
6C2
  8
DEFPOINTS
 62
     0
 10
-41.120881762550979
 20
-30.119770306812669
 30
0.0
  0
POINT
  5
6C3
  8
DEFPOINTS
 62
     0
 10
-41.120881762550951
 20
-30.119770306812701
 30
0.0
  0
ENDBLK
  5
468
  8
0
  0
BLOCK
  8
0
  2
*D20
 70
     1
 10
0.0
 20
0.0
 30
0.0
  3
*D20
  1

  0
LINE
  5
6E2
  8
AM_REFDIM
 10
-45.370881762550972
 20
41.130229693187388
 30
0.0
 11
-79.09588176255096
 21
41.130229693187388
 31
0.0
  0
LINE
  5
6E3
  8
AM_REFDIM
 10
-61.370881762550972
 20
-42.119770306812633
 30
0.0
 11
-79.09588176255096
 21
-42.119770306812633
 31
0.0
  0
LINE
  5
6E4
  8
AM_REFDIM
 10
-77.495881762550937
 20
39.53022969318738
 30
0.0
 11
-77.495881762550951
 21
2.4957058836635739
 31
0.0
  0
LINE
  5
6E5
  8
AM_REFDIM
 10
-77.495881762550951
 20
-40.519770306812632
 30
0.0
 11
-77.495881762550951
 21
-3.4852464972888062
 31
0.0
  0
SOLID
  5
6E6
  8
AM_REFDIM
 10
-77.762548429217603
 20
39.53022969318738
 30
0.0
 11
-77.229215095884271
 21
39.53022969318738
 31
0.0
 12
-77.495881762550937
 22
41.130229693187388
 32
0.0
 13
-77.495881762550937
 23
41.130229693187388
 33
0.0
  0
SOLID
  5
6E7
  8
AM_REFDIM
 10
-77.762548429217631
 20
-40.519770306812632
 30
0.0
 11
-77.2292150958843
 21
-40.519770306812632
 31
0.0
 12
-77.495881762550951
 22
-42.119770306812633
 32
0.0
 13
-77.495881762550951
 23
-42.119770306812633
 33
0.0
  0
TEXT
  5
6E8
  8
6
 10
-82.495881762550951
 20
-1.4947703068126279
 30
0.0
 40
2.0
  1
83.25"
  7
ROMANS
  0
POINT
  5
6E9
  8
DEFPOINTS
 62
     0
 10
-44.120881762550972
 20
41.130229693187388
 30
0.0
  0
POINT
  5
6EA
  8
DEFPOINTS
 62
     0
 10
-60.120881762550972
 20
-42.119770306812633
 30
0.0
  0
POINT
  5
6EB
  8
DEFPOINTS
 62
     0
 10
-77.495881762550951
 20
-42.119770306812633
 30
0.0
  0
ENDBLK
  5
475
  8
0
  0
BLOCK
  8
0
  2
*D21
 70
     1
 10
0.0
 20
0.0
 30
0.0
  3
*D21
  1

  0
LINE
  5
6D8
  8
AM_REFDIM
 10
-44.370881762550958
 20
-30.119770306812669
 30
0.0
 11
-69.220881762550974
 21
-30.119770306812669
 31
0.0
  0
LINE
  5
6D9
  8
AM_REFDIM
 10
-44.370881762551029
 20
38.880229693187317
 30
0.0
 11
-69.220881762550974
 21
38.880229693187339
 31
0.0
  0
LINE
  5
6DA
  8
AM_REFDIM
 10
-67.620881762550965
 20
-28.519770306812671
 30
0.0
 11
-67.620881762550965
 21
-0.2769131639555261
 31
0.0
  0
LINE
  5
6DB
  8
AM_REFDIM
 10
-67.620881762550965
 20
37.28022969318733
 30
0.0
 11
-67.620881762550965
 21
9.0373725503301863
 31
0.0
  0
SOLID
  5
6DC
  8
AM_REFDIM
 10
-67.887548429217645
 20
-28.519770306812671
 30
0.0
 11
-67.354215095884314
 21
-28.519770306812671
 31
0.0
 12
-67.620881762550965
 22
-30.119770306812669
 32
0.0
 13
-67.620881762550965
 23
-30.119770306812669
 33
0.0
  0
SOLID
  5
6DD
  8
AM_REFDIM
 10
-67.887548429217631
 20
37.28022969318733
 30
0.0
 11
-67.3542150958843
 21
37.28022969318733
 31
0.0
 12
-67.620881762550965
 22
38.880229693187339
 32
0.0
 13
-67.620881762550965
 23
38.880229693187339
 33
0.0
  0
INSERT
  5
6DE
  8
6
  2
*U30
 10
0.0
 20
0.0
 30
0.0
  0
POINT
  5
6DF
  8
DEFPOINTS
 62
     0
 10
-43.120881762550958
 20
-30.119770306812669
 30
0.0
  0
POINT
  5
6E0
  8
DEFPOINTS
 62
     0
 10
-43.120881762551029
 20
38.880229693187317
 30
0.0
  0
POINT
  5
6E1
  8
DEFPOINTS
 62
     0
 10
-67.620881762550965
 20
38.880229693187339
 30
0.0
  0
ENDBLK
  5
482
  8
0
  0
BLOCK
  8
0
  2
*D22
 70
     1
 10
0.0
 20
0.0
 30
0.0
  3
*D22
  1

  0
LINE
  5
6CE
  8
AM_REFDIM
 10
-61.370881762550972
 20
-42.119770306812633
 30
0.0
 11
-69.220881762550974
 21
-42.119770306812633
 31
0.0
  0
LINE
  5
6CF
  8
AM_REFDIM
 10
-44.370881762550958
 20
-30.119770306812669
 30
0.0
 11
-69.22088176255096
 21
-30.119770306812669
 31
0.0
  0
LINE
  5
6D0
  8
AM_REFDIM
 10
-67.620881762550965
 20
-43.719770306812627
 30
0.0
 11
-67.620881762550965
 21
-45.319770306812643
 31
0.0
  0
LINE
  5
6D1
  8
AM_REFDIM
 10
-67.620881762550965
 20
-28.519770306812671
 30
0.0
 11
-67.620881762550965
 21
-26.919770306812669
 31
0.0
  0
SOLID
  5
6D2
  8
AM_REFDIM
 10
-67.887548429217645
 20
-43.719770306812627
 30
0.0
 11
-67.354215095884314
 21
-43.719770306812627
 31
0.0
 12
-67.620881762550965
 22
-42.119770306812633
 32
0.0
 13
-67.620881762550965
 23
-42.119770306812633
 33
0.0
  0
SOLID
  5
6D3
  8
AM_REFDIM
 10
-67.887548429217631
 20
-28.519770306812671
 30
0.0
 11
-67.3542150958843
 21
-28.519770306812671
 31
0.0
 12
-67.620881762550965
 22
-30.119770306812669
 32
0.0
 13
-67.620881762550965
 23
-30.119770306812669
 33
0.0
  0
INSERT
  5
6D4
  8
6
  2
*U29
 10
0.0
 20
0.0
 30
0.0
  0
POINT
  5
6D5
  8
DEFPOINTS
 62
     0
 10
-60.120881762550972
 20
-42.119770306812633
 30
0.0
  0
POINT
  5
6D6
  8
DEFPOINTS
 62
     0
 10
-43.120881762550958
 20
-30.119770306812669
 30
0.0
  0
POINT
  5
6D7
  8
DEFPOINTS
 62
     0
 10
-67.620881762550965
 20
-30.119770306812669
 30
0.0
  0
ENDBLK
  5
48F
  8
0
  0
BLOCK
  8
0
  2
*D23
 70
     1
 10
0.0
 20
0.0
 30
0.0
  3
*D23
  1

  0
LINE
  5
6C4
  8
AM_REFDIM
 10
-61.370881762550972
 20
-58.244770306812612
 30
0.0
 11
-69.22088176255096
 21
-58.244770306812612
 31
0.0
  0
LINE
  5
6C5
  8
AM_REFDIM
 10
-61.370881762550972
 20
-42.119770306812633
 30
0.0
 11
-69.22088176255096
 21
-42.119770306812633
 31
0.0
  0
LINE
  5
6C6
  8
AM_REFDIM
 10
-67.620881762550965
 20
-56.64477030681261
 30
0.0
 11
-67.620881762550965
 21
-53.172746497288799
 31
0.0
  0
LINE
  5
6C7
  8
AM_REFDIM
 10
-67.620881762550965
 20
-43.719770306812627
 30
0.0
 11
-67.620881762550965
 21
-47.191794116336439
 31
0.0
  0
SOLID
  5
6C8
  8
AM_REFDIM
 10
-67.887548429217631
 20
-56.64477030681261
 30
0.0
 11
-67.3542150958843
 21
-56.64477030681261
 31
0.0
 12
-67.620881762550965
 22
-58.244770306812612
 32
0.0
 13
-67.620881762550965
 23
-58.244770306812612
 33
0.0
  0
SOLID
  5
6C9
  8
AM_REFDIM
 10
-67.887548429217631
 20
-43.719770306812627
 30
0.0
 11
-67.3542150958843
 21
-43.719770306812627
 31
0.0
 12
-67.620881762550965
 22
-42.119770306812633
 32
0.0
 13
-67.620881762550965
 23
-42.119770306812633
 33
0.0
  0
TEXT
  5
6CA
  8
6
 10
-72.76373890540809
 20
-51.182270306812633
 30
0.0
 40
2.0
  1
16.13"
  7
ROMANS
  0
POINT
  5
6CB
  8
DEFPOINTS
 62
     0
 10
-60.120881762550972
 20
-58.244770306812612
 30
0.0
  0
POINT
  5
6CC
  8
DEFPOINTS
 62
     0
 10
-60.120881762550972
 20
-42.119770306812633
 30
0.0
  0
POINT
  5
6CD
  8
DEFPOINTS
 62
     0
 10
-67.620881762550965
 20
-42.119770306812633
 30
0.0
  0
ENDBLK
  5
49C
  8
0
  0
BLOCK
  8
0
  2
*D24
 70
     1
 10
0.0
 20
0.0
 30
0.0
  3
*D24
  1

  0
LINE
  5
49E
  8
AM_REFDIM
 10
-43.183381762551022
 20
38.880229693187317
 30
0.0
 11
-67.700881762550964
 21
38.880229693187339
 31
0.0
  0
LINE
  5
49F
  8
AM_REFDIM
 10
-44.183381762550972
 20
41.130229693187388
 30
0.0
 11
-67.700881762550964
 21
41.130229693187388
 31
0.0
  0
LINE
  5
4A0
  8
AM_REFDIM
 10
-67.620881762550965
 20
38.960229693187337
 30
0.0
 11
-67.620881762550965
 21
39.865229693187359
 31
0.0
  0
LINE
  5
4A1
  8
AM_REFDIM
 10
-67.620881762550965
 20
41.05022969318739
 30
0.0
 11
-67.620881762550965
 21
40.145229693187353
 31
0.0
  0
SOLID
  5
4A2
  8
AM_REFDIM
 10
-67.634215095884301
 20
38.960229693187337
 30
0.0
 11
-67.607548429217616
 21
38.960229693187337
 31
0.0
 12
-67.620881762550965
 22
38.880229693187339
 32
0.0
 13
-67.620881762550965
 23
38.880229693187339
 33
0.0
  0
SOLID
  5
4A3
  8
AM_REFDIM
 10
-67.634215095884301
 20
41.05022969318739
 30
0.0
 11
-67.607548429217616
 21
41.05022969318739
 31
0.0
 12
-67.620881762550965
 22
41.130229693187388
 32
0.0
 13
-67.620881762550965
 23
41.130229693187388
 33
0.0
  0
TEXT
  5
4A4
  8
6
 10
-67.930405572074775
 20
39.955229693187363
 30
0.0
 40
0.1
  1
45.0000
  7
ROMANS
  0
POINT
  5
4A5
  8
DEFPOINTS
 62
     0
 10
-43.120881762551029
 20
38.880229693187317
 30
0.0
  0
POINT
  5
4A6
  8
DEFPOINTS
 62
     0
 10
-44.120881762550972
 20
41.130229693187388
 30
0.0
  0
POINT
  5
4A7
  8
DEFPOINTS
 62
     0
 10
-67.620881762550965
 20
41.130229693187388
 30
0.0
  0
ENDBLK
  5
4A9
  8
0
  0
BLOCK
  8
0
  2
*D25
 70
     1
 10
0.0
 20
0.0
 30
0.0
  3
*D25
  1

  0
LINE
  5
729
  8
AM_REFDIM
 10
93.415207979254916
 20
-58.244770306812619
 30
0.0
 11
83.167432679322147
 21
-58.244770306812619
 31
0.0
  0
LINE
  5
72A
  8
AM_REFDIM
 10
93.415207979254987
 20
-42.119770306812619
 30
0.0
 11
83.167432679322147
 21
-42.119770306812619
 31
0.0
  0
LINE
  5
72B
  8
AM_REFDIM
 10
84.767432679322155
 20
-56.644770306812617
 30
0.0
 11
84.767432679322155
 21
-53.17274649728882
 31
0.0
  0
LINE
  5
72C
  8
AM_REFDIM
 10
84.767432679322155
 20
-43.719770306812627
 30
0.0
 11
84.767432679322155
 21
-47.191794116336432
 31
0.0
  0
SOLID
  5
72D
  8
AM_REFDIM
 10
84.500766012655475
 20
-56.644770306812617
 30
0.0
 11
85.034099345988835
 21
-56.644770306812617
 31
0.0
 12
84.767432679322155
 22
-58.244770306812619
 32
0.0
 13
84.767432679322155
 23
-58.244770306812619
 33
0.0
  0
SOLID
  5
72E
  8
AM_REFDIM
 10
84.500766012655475
 20
-43.719770306812627
 30
0.0
 11
85.034099345988835
 21
-43.719770306812627
 31
0.0
 12
84.767432679322155
 22
-42.119770306812619
 32
0.0
 13
84.767432679322155
 23
-42.119770306812619
 33
0.0
  0
TEXT
  5
72F
  8
6
 10
79.624575536465031
 20
-51.182270306812612
 30
0.0
 40
2.0
  1
16.13"
  7
ROMANS
  0
POINT
  5
730
  8
DEFPOINTS
 62
     0
 10
94.665207979254916
 20
-58.244770306812619
 30
0.0
  0
POINT
  5
731
  8
DEFPOINTS
 62
     0
 10
94.665207979254987
 20
-42.119770306812619
 30
0.0
  0
POINT
  5
732
  8
DEFPOINTS
 62
     0
 10
84.767432679322155
 20
-42.119770306812619
 30
0.0
  0
ENDBLK
  5
728
  8
0
  0
BLOCK
  8
0
  2
*X26
 70
     1
 10
0.0
 20
0.0
 30
0.0
  3
*X26
  1

  0
LINE
  5
737
  8
0
 62
     0
 10
51.748654895701613
 20
-42.119770306812583
 30
0.0
 11
52.879118237449028
 21
-40.989306965065147
 31
0.0
  0
LINE
  5
738
  8
0
 62
     0
 10
50.157664638031882
 20
-42.119770306812583
 30
0.0
 11
52.879118237449021
 21
-39.398316707395431
 31
0.0
  0
LINE
  5
739
  8
0
 62
     0
 10
48.566674380362137
 20
-42.119770306812583
 30
0.0
 11
52.879118237449021
 21
-37.8073264497257
 31
0.0
  0
LINE
  5
73A
  8
0
 62
     0
 10
46.9756841226924
 20
-42.119770306812583
 30
0.0
 11
52.879118237449021
 21
-36.216336192055969
 31
0.0
  0
LINE
  5
73B
  8
0
 62
     0
 10
45.384693865022662
 20
-42.11977030681259
 30
0.0
 11
52.879118237449021
 21
-34.625345934386239
 31
0.0
  0
LINE
  5
73C
  8
0
 62
     0
 10
43.793703607352931
 20
-42.11977030681259
 30
0.0
 11
52.879118237449021
 21
-33.034355676716501
 31
0.0
  0
LINE
  5
73D
  8
0
 62
     0
 10
42.202713349683201
 20
-42.11977030681259
 30
0.0
 11
52.879118237449013
 21
-31.443365419046781
 31
0.0
  0
LINE
  5
73E
  8
0
 62
     0
 10
40.61172309201347
 20
-42.119770306812597
 30
0.0
 11
52.61172309201342
 21
-30.11977030681264
 31
0.0
  0
LINE
  5
73F
  8
0
 62
     0
 10
39.02073283434374
 20
-42.119770306812597
 30
0.0
 11
51.02073283434369
 21
-30.11977030681264
 31
0.0
  0
LINE
  5
740
  8
0
 62
     0
 10
37.429742576674002
 20
-42.11977030681259
 30
0.0
 11
49.429742576673959
 21
-30.11977030681264
 31
0.0
  0
LINE
  5
741
  8
0
 62
     0
 10
35.838752319004271
 20
-42.119770306812597
 30
0.0
 11
47.838752319004222
 21
-30.11977030681264
 31
0.0
  0
LINE
  5
742
  8
0
 62
     0
 10
34.247762061334527
 20
-42.119770306812597
 30
0.0
 11
46.247762061334477
 21
-30.11977030681264
 31
0.0
  0
LINE
  5
743
  8
0
 62
     0
 10
32.656771803664803
 20
-42.119770306812597
 30
0.0
 11
44.656771803664753
 21
-30.11977030681264
 31
0.0
  0
LINE
  5
744
  8
0
 62
     0
 10
31.065781545995069
 20
-42.119770306812597
 30
0.0
 11
43.065781545995023
 21
-30.11977030681264
 31
0.0
  0
LINE
  5
745
  8
0
 62
     0
 10
29.474791288325338
 20
-42.119770306812597
 30
0.0
 11
41.474791288325292
 21
-30.11977030681264
 31
0.0
  0
LINE
  5
746
  8
0
 62
     0
 10
27.883801030655601
 20
-42.119770306812597
 30
0.0
 11
39.883801030655562
 21
-30.11977030681264
 31
0.0
  0
LINE
  5
747
  8
0
 62
     0
 10
26.29281077298587
 20
-42.119770306812597
 30
0.0
 11
38.292810772985817
 21
-30.119770306812651
 31
0.0
  0
LINE
  5
748
  8
0
 62
     0
 10
24.70182051531614
 20
-42.119770306812597
 30
0.0
 11
36.701820515316093
 21
-30.119770306812651
 31
0.0
  0
LINE
  5
749
  8
0
 62
     0
 10
23.110830257646398
 20
-42.119770306812597
 30
0.0
 11
35.110830257646363
 21
-30.11977030681264
 31
0.0
  0
LINE
  5
74A
  8
0
 62
     0
 10
21.519839999976671
 20
-42.119770306812597
 30
0.0
 11
33.519839999976632
 21
-30.119770306812651
 31
0.0
  0
LINE
  5
74B
  8
0
 62
     0
 10
19.928849742306941
 20
-42.119770306812597
 30
0.0
 11
31.928849742306891
 21
-30.119770306812651
 31
0.0
  0
LINE
  5
74C
  8
0
 62
     0
 10
18.33785948463721
 20
-42.119770306812597
 30
0.0
 11
30.337859484637161
 21
-30.119770306812651
 31
0.0
  0
LINE
  5
74D
  8
0
 62
     0
 10
16.746869226967469
 20
-42.119770306812597
 30
0.0
 11
28.746869226967419
 21
-30.119770306812651
 31
0.0
  0
LINE
  5
74E
  8
0
 62
     0
 10
15.15587896929774
 20
-42.119770306812612
 30
0.0
 11
27.155878969297689
 21
-30.119770306812651
 31
0.0
  0
LINE
  5
74F
  8
0
 62
     0
 10
13.56488871162801
 20
-42.119770306812612
 30
0.0
 11
25.564888711627962
 21
-30.119770306812651
 31
0.0
  0
LINE
  5
750
  8
0
 62
     0
 10
11.97389845395827
 20
-42.119770306812597
 30
0.0
 11
23.973898453958221
 21
-30.119770306812651
 31
0.0
  0
LINE
  5
751
  8
0
 62
     0
 10
10.38290819628854
 20
-42.119770306812612
 30
0.0
 11
22.38290819628849
 21
-30.119770306812651
 31
0.0
  0
LINE
  5
752
  8
0
 62
     0
 10
8.7919179386188091
 20
-42.119770306812612
 30
0.0
 11
20.791917938618759
 21
-30.119770306812661
 31
0.0
  0
LINE
  5
753
  8
0
 62
     0
 10
7.2009276809490776
 20
-42.119770306812612
 30
0.0
 11
19.200927680949029
 21
-30.119770306812661
 31
0.0
  0
LINE
  5
754
  8
0
 62
     0
 10
5.6099374232793471
 20
-42.119770306812612
 30
0.0
 11
17.609937423279291
 21
-30.119770306812661
 31
0.0
  0
LINE
  5
755
  8
0
 62
     0
 10
4.018947165609613
 20
-42.119770306812612
 30
0.0
 11
16.018947165609561
 21
-30.119770306812661
 31
0.0
  0
LINE
  5
756
  8
0
 62
     0
 10
2.4279569079398788
 20
-42.119770306812612
 30
0.0
 11
14.42795690793983
 21
-30.119770306812661
 31
0.0
  0
LINE
  5
757
  8
0
 62
     0
 10
0.8369666502701491
 20
-42.119770306812612
 30
0.0
 11
12.836966650270091
 21
-30.119770306812661
 31
0.0
  0
LINE
  5
758
  8
0
 62
     0
 10
-0.754023607399585
 20
-42.119770306812612
 30
0.0
 11
11.24597639260036
 21
-30.119770306812669
 31
0.0
  0
LINE
  5
759
  8
0
 62
     0
 10
-2.3450138650693151
 20
-42.119770306812612
 30
0.0
 11
9.6549861349306294
 21
-30.119770306812669
 31
0.0
  0
LINE
  5
75A
  8
0
 62
     0
 10
-3.9360041227390532
 20
-42.119770306812612
 30
0.0
 11
8.0639958772608953
 21
-30.119770306812669
 31
0.0
  0
LINE
  5
75B
  8
0
 62
     0
 10
-5.5269943804087873
 20
-42.119770306812619
 30
0.0
 11
6.4730056195911612
 21
-30.119770306812669
 31
0.0
  0
LINE
  5
75C
  8
0
 62
     0
 10
-7.117984638078517
 20
-42.119770306812619
 30
0.0
 11
4.8820153619214297
 21
-30.119770306812669
 31
0.0
  0
LINE
  5
75D
  8
0
 62
     0
 10
-8.7089748957482485
 20
-42.119770306812619
 30
0.0
 11
3.2910251042517009
 21
-30.119770306812669
 31
0.0
  0
LINE
  5
75E
  8
0
 62
     0
 10
-10.299965153417981
 20
-42.119770306812619
 30
0.0
 11
1.700034846581967
 21
-30.119770306812669
 31
0.0
  0
LINE
  5
75F
  8
0
 62
     0
 10
-11.89095541108771
 20
-42.119770306812619
 30
0.0
 11
0.1090445889122336
 21
-30.119770306812669
 31
0.0
  0
LINE
  5
760
  8
0
 62
     0
 10
-13.48194566875744
 20
-42.119770306812619
 30
0.0
 11
-1.4819456687575021
 21
-30.119770306812669
 31
0.0
  0
LINE
  5
761
  8
0
 62
     0
 10
-15.07293592642718
 20
-42.119770306812619
 30
0.0
 11
-3.0729359264272338
 21
-30.119770306812669
 31
0.0
  0
LINE
  5
762
  8
0
 62
     0
 10
-16.663926184096908
 20
-42.119770306812619
 30
0.0
 11
-4.6639261840969679
 21
-30.119770306812669
 31
0.0
  0
LINE
  5
763
  8
0
 62
     0
 10
-18.25491644176665
 20
-42.119770306812619
 30
0.0
 11
-6.2549164417666994
 21
-30.119770306812669
 31
0.0
  0
LINE
  5
764
  8
0
 62
     0
 10
-19.84590669943638
 20
-42.119770306812619
 30
0.0
 11
-7.8459066994364308
 21
-30.119770306812679
 31
0.0
  0
LINE
  5
765
  8
0
 62
     0
 10
-21.436896957106111
 20
-42.119770306812619
 30
0.0
 11
-9.4368969571061658
 21
-30.119770306812679
 31
0.0
  0
LINE
  5
766
  8
0
 62
     0
 10
-23.027887214775841
 20
-42.119770306812619
 30
0.0
 11
-11.0278872147759
 21
-30.119770306812679
 31
0.0
  0
LINE
  5
767
  8
0
 62
     0
 10
-24.618877472445568
 20
-42.119770306812619
 30
0.0
 11
-12.618877472445631
 21
-30.119770306812679
 31
0.0
  0
LINE
  5
768
  8
0
 62
     0
 10
-26.20986773011531
 20
-42.119770306812619
 30
0.0
 11
-14.209867730115359
 21
-30.119770306812679
 31
0.0
  0
LINE
  5
769
  8
0
 62
     0
 10
-27.80085798778504
 20
-42.119770306812619
 30
0.0
 11
-15.800857987785101
 21
-30.119770306812679
 31
0.0
  0
LINE
  5
76A
  8
0
 62
     0
 10
51.608151754545283
 20
38.880229693187417
 30
0.0
 11
52.879118237448992
 21
40.151196176091119
 31
0.0
  0
LINE
  5
76B
  8
0
 62
     0
 10
-29.391848245454771
 20
-42.119770306812619
 30
0.0
 11
-17.391848245454831
 21
-30.119770306812679
 31
0.0
  0
LINE
  5
76C
  8
0
 62
     0
 10
50.017161496875552
 20
38.880229693187417
 30
0.0
 11
51.517161496875502
 21
40.380229693187367
 31
0.0
  0
LINE
  5
76D
  8
0
 62
     0
 10
-30.982838503124508
 20
-42.119770306812619
 30
0.0
 11
-18.982838503124562
 21
-30.119770306812679
 31
0.0
  0
LINE
  5
76E
  8
0
 62
     0
 10
48.426171239205807
 20
38.880229693187417
 30
0.0
 11
49.926171239205772
 21
40.380229693187367
 31
0.0
  0
LINE
  5
76F
  8
0
 62
     0
 10
-32.573828760794242
 20
-42.119770306812619
 30
0.0
 11
-20.573828760794289
 21
-30.119770306812679
 31
0.0
  0
LINE
  5
770
  8
0
 62
     0
 10
46.835180981536077
 20
38.880229693187417
 30
0.0
 11
48.335180981536027
 21
40.38022969318736
 31
0.0
  0
LINE
  5
771
  8
0
 62
     0
 10
-34.164819018463973
 20
-42.119770306812619
 30
0.0
 11
-22.16481901846403
 21
-30.119770306812679
 31
0.0
  0
LINE
  5
772
  8
0
 62
     0
 10
45.244190723866339
 20
38.88022969318741
 30
0.0
 11
46.744190723866289
 21
40.380229693187367
 31
0.0
  0
LINE
  5
773
  8
0
 62
     0
 10
-35.755809276133697
 20
-42.119770306812619
 30
0.0
 11
-23.75580927613376
 21
-30.119770306812679
 31
0.0
  0
LINE
  5
774
  8
0
 62
     0
 10
43.653200466196601
 20
38.88022969318741
 30
0.0
 11
45.153200466196552
 21
40.38022969318736
 31
0.0
  0
LINE
  5
775
  8
0
 62
     0
 10
-37.346799533803427
 20
-42.119770306812619
 30
0.0
 11
-25.346799533803491
 21
-30.119770306812679
 31
0.0
  0
LINE
  5
776
  8
0
 62
     0
 10
42.062210208526871
 20
38.88022969318741
 30
0.0
 11
43.562210208526821
 21
40.38022969318736
 31
0.0
  0
LINE
  5
777
  8
0
 62
     0
 10
-38.937789791473158
 20
-42.119770306812619
 30
0.0
 11
-26.937789791473229
 21
-30.119770306812679
 31
0.0
  0
LINE
  5
778
  8
0
 62
     0
 10
40.47121995085714
 20
38.88022969318741
 30
0.0
 11
41.97121995085709
 21
40.380229693187353
 31
0.0
  0
LINE
  5
779
  8
0
 62
     0
 10
-40.528780049142902
 20
-42.119770306812619
 30
0.0
 11
-28.528780049142959
 21
-30.11977030681269
 31
0.0
  0
LINE
  5
77A
  8
0
 62
     0
 10
38.880229693187417
 20
38.88022969318741
 30
0.0
 11
40.38022969318736
 21
40.380229693187353
 31
0.0
  0
LINE
  5
77B
  8
0
 62
     0
 10
-42.119770306812619
 20
-42.119770306812619
 30
0.0
 11
-30.119770306812701
 21
-30.11977030681269
 31
0.0
  0
LINE
  5
77C
  8
0
 62
     0
 10
37.289239435517679
 20
38.88022969318741
 30
0.0
 11
38.789239435517629
 21
40.38022969318736
 31
0.0
  0
LINE
  5
77D
  8
0
 62
     0
 10
-43.120881762550972
 20
-41.529891504881242
 30
0.0
 11
-31.710760564482431
 21
-30.119770306812701
 31
0.0
  0
LINE
  5
77E
  8
0
 62
     0
 10
35.698249177847941
 20
38.880229693187403
 30
0.0
 11
37.198249177847892
 21
40.380229693187353
 31
0.0
  0
LINE
  5
77F
  8
0
 62
     0
 10
-43.120881762550958
 20
-39.93890124721149
 30
0.0
 11
-33.301750822152158
 21
-30.119770306812701
 31
0.0
  0
LINE
  5
780
  8
0
 62
     0
 10
34.107258920178211
 20
38.880229693187388
 30
0.0
 11
35.607258920178161
 21
40.380229693187353
 31
0.0
  0
LINE
  5
781
  8
0
 62
     0
 10
-43.120881762550972
 20
-38.347910989541766
 30
0.0
 11
-34.892741079821882
 21
-30.11977030681269
 31
0.0
  0
LINE
  5
782
  8
0
 62
     0
 10
32.51626866250848
 20
38.880229693187388
 30
0.0
 11
34.016268662508431
 21
40.380229693187353
 31
0.0
  0
LINE
  5
783
  8
0
 62
     0
 10
-43.120881762550972
 20
-36.756920731872043
 30
0.0
 11
-36.483731337491619
 21
-30.119770306812701
 31
0.0
  0
LINE
  5
784
  8
0
 62
     0
 10
30.925278404838739
 20
38.880229693187403
 30
0.0
 11
32.425278404838693
 21
40.380229693187353
 31
0.0
  0
LINE
  5
785
  8
0
 62
     0
 10
-43.120881762550958
 20
-35.165930474202291
 30
0.0
 11
-38.074721595161357
 21
-30.119770306812701
 31
0.0
  0
LINE
  5
786
  8
0
 62
     0
 10
29.334288147169008
 20
38.880229693187388
 30
0.0
 11
30.834288147168959
 21
40.380229693187353
 31
0.0
  0
LINE
  5
787
  8
0
 62
     0
 10
-43.120881762550958
 20
-33.574940216532561
 30
0.0
 11
-39.665711852831087
 21
-30.119770306812701
 31
0.0
  0
LINE
  5
788
  8
0
 62
     0
 10
27.743297889499271
 20
38.880229693187388
 30
0.0
 11
29.243297889499232
 21
40.380229693187353
 31
0.0
  0
LINE
  5
789
  8
0
 62
     0
 10
-43.120881762550958
 20
-31.98394995886283
 30
0.0
 11
-41.256702110500832
 21
-30.11977030681269
 31
0.0
  0
LINE
  5
78A
  8
0
 62
     0
 10
26.15230763182953
 20
38.880229693187388
 30
0.0
 11
27.65230763182949
 21
40.380229693187339
 31
0.0
  0
LINE
  5
78B
  8
0
 62
     0
 10
-43.120881762550958
 20
-30.392959701193099
 30
0.0
 11
-42.84769236817057
 21
-30.119770306812701
 31
0.0
  0
LINE
  5
78C
  8
0
 62
     0
 10
24.561317374159799
 20
38.880229693187381
 30
0.0
 11
26.061317374159749
 21
40.380229693187339
 31
0.0
  0
LINE
  5
78D
  8
0
 62
     0
 10
22.970327116490068
 20
38.880229693187388
 30
0.0
 11
24.470327116490019
 21
40.380229693187339
 31
0.0
  0
LINE
  5
78E
  8
0
 62
     0
 10
21.379336858820341
 20
38.880229693187388
 30
0.0
 11
22.879336858820299
 21
40.380229693187339
 31
0.0
  0
LINE
  5
78F
  8
0
 62
     0
 10
19.7883466011506
 20
38.880229693187381
 30
0.0
 11
21.288346601150561
 21
40.380229693187339
 31
0.0
  0
LINE
  5
790
  8
0
 62
     0
 10
18.197356343480859
 20
38.880229693187381
 30
0.0
 11
19.697356343480809
 21
40.380229693187331
 31
0.0
  0
LINE
  5
791
  8
0
 62
     0
 10
16.606366085811128
 20
38.880229693187381
 30
0.0
 11
18.106366085811079
 21
40.380229693187331
 31
0.0
  0
LINE
  5
792
  8
0
 62
     0
 10
15.0153758281414
 20
38.880229693187381
 30
0.0
 11
16.515375828141352
 21
40.380229693187339
 31
0.0
  0
LINE
  5
793
  8
0
 62
     0
 10
13.424385570471671
 20
38.880229693187381
 30
0.0
 11
14.924385570471619
 21
40.380229693187331
 31
0.0
  0
LINE
  5
794
  8
0
 62
     0
 10
11.83339531280193
 20
38.880229693187367
 30
0.0
 11
13.33339531280189
 21
40.380229693187331
 31
0.0
  0
LINE
  5
795
  8
0
 62
     0
 10
10.242405055132201
 20
38.880229693187367
 30
0.0
 11
11.742405055132149
 21
40.380229693187317
 31
0.0
  0
LINE
  5
796
  8
0
 62
     0
 10
8.6514147974624702
 20
38.880229693187367
 30
0.0
 11
10.15141479746242
 21
40.380229693187331
 31
0.0
  0
LINE
  5
797
  8
0
 62
     0
 10
7.060424539792737
 20
38.880229693187367
 30
0.0
 11
8.5604245397926846
 21
40.38022969318731
 31
0.0
  0
LINE
  5
798
  8
0
 62
     0
 10
5.4694342821230029
 20
38.880229693187367
 30
0.0
 11
6.969434282122946
 21
40.38022969318731
 31
0.0
  0
LINE
  5
799
  8
0
 62
     0
 10
3.8784440244532661
 20
38.88022969318736
 30
0.0
 11
5.378444024453219
 21
40.38022969318731
 31
0.0
  0
LINE
  5
79A
  8
0
 62
     0
 10
2.2874537667835351
 20
38.880229693187367
 30
0.0
 11
3.7874537667834889
 21
40.38022969318731
 31
0.0
  0
LINE
  5
79B
  8
0
 62
     0
 10
0.6964635091138014
 20
38.88022969318736
 30
0.0
 11
2.1964635091137512
 21
40.38022969318731
 31
0.0
  0
LINE
  5
79C
  8
0
 62
     0
 10
-0.8945267485559327
 20
38.88022969318736
 30
0.0
 11
0.6054732514440211
 21
40.38022969318731
 31
0.0
  0
LINE
  5
79D
  8
0
 62
     0
 10
-2.485517006225666
 20
38.88022969318736
 30
0.0
 11
-0.9855170062257201
 21
40.38022969318731
 31
0.0
  0
LINE
  5
79E
  8
0
 62
     0
 10
-4.0765072638954001
 20
38.88022969318736
 30
0.0
 11
-2.5765072638954498
 21
40.380229693187303
 31
0.0
  0
LINE
  5
79F
  8
0
 62
     0
 10
-5.6674975215651306
 20
38.88022969318736
 30
0.0
 11
-4.1674975215651813
 21
40.380229693187303
 31
0.0
  0
LINE
  5
7A0
  8
0
 62
     0
 10
-7.2584877792348674
 20
38.88022969318736
 30
0.0
 11
-5.7584877792349181
 21
40.380229693187303
 31
0.0
  0
LINE
  5
7A1
  8
0
 62
     0
 10
-8.8494780369046033
 20
38.88022969318736
 30
0.0
 11
-7.3494780369046531
 21
40.380229693187303
 31
0.0
  0
LINE
  5
7A2
  8
0
 62
     0
 10
-10.44046829457433
 20
38.88022969318736
 30
0.0
 11
-8.9404682945743836
 21
40.380229693187303
 31
0.0
  0
LINE
  5
7A3
  8
0
 62
     0
 10
-12.031458552244059
 20
38.88022969318736
 30
0.0
 11
-10.53145855224412
 21
40.380229693187303
 31
0.0
  0
LINE
  5
7A4
  8
0
 62
     0
 10
-13.6224488099138
 20
38.880229693187353
 30
0.0
 11
-12.12244880991385
 21
40.380229693187303
 31
0.0
  0
LINE
  5
7A5
  8
0
 62
     0
 10
-15.213439067583529
 20
38.880229693187339
 30
0.0
 11
-13.71343906758359
 21
40.380229693187289
 31
0.0
  0
LINE
  5
7A6
  8
0
 62
     0
 10
-16.80442932525327
 20
38.880229693187339
 30
0.0
 11
-15.30442932525332
 21
40.380229693187289
 31
0.0
  0
LINE
  5
7A7
  8
0
 62
     0
 10
-18.395419582923001
 20
38.880229693187339
 30
0.0
 11
-16.895419582923051
 21
40.380229693187289
 31
0.0
  0
LINE
  5
7A8
  8
0
 62
     0
 10
-19.986409840592732
 20
38.880229693187339
 30
0.0
 11
-18.486409840592781
 21
40.380229693187289
 31
0.0
  0
LINE
  5
7A9
  8
0
 62
     0
 10
-21.577400098262459
 20
38.880229693187339
 30
0.0
 11
-20.07740009826253
 21
40.380229693187289
 31
0.0
  0
LINE
  5
7AA
  8
0
 62
     0
 10
-23.168390355932189
 20
38.880229693187353
 30
0.0
 11
-21.66839035593226
 21
40.380229693187289
 31
0.0
  0
LINE
  5
7AB
  8
0
 62
     0
 10
-24.75938061360193
 20
38.880229693187353
 30
0.0
 11
-23.25938061360198
 21
40.380229693187289
 31
0.0
  0
LINE
  5
7AC
  8
0
 62
     0
 10
-26.350370871271661
 20
38.880229693187339
 30
0.0
 11
-24.850370871271728
 21
40.380229693187268
 31
0.0
  0
LINE
  5
7AD
  8
0
 62
     0
 10
-27.941361128941399
 20
38.880229693187339
 30
0.0
 11
-26.441361128941459
 21
40.380229693187282
 31
0.0
  0
LINE
  5
7AE
  8
0
 62
     0
 10
-29.532351386611129
 20
38.880229693187339
 30
0.0
 11
-28.032351386611179
 21
40.380229693187289
 31
0.0
  0
LINE
  5
7AF
  8
0
 62
     0
 10
-31.12334164428086
 20
38.880229693187339
 30
0.0
 11
-29.623341644280931
 21
40.380229693187268
 31
0.0
  0
LINE
  5
7B0
  8
0
 62
     0
 10
-32.714331901950587
 20
38.880229693187339
 30
0.0
 11
-31.214331901950661
 21
40.380229693187268
 31
0.0
  0
LINE
  5
7B1
  8
0
 62
     0
 10
-34.305322159620317
 20
38.880229693187339
 30
0.0
 11
-32.805322159620388
 21
40.380229693187268
 31
0.0
  0
LINE
  5
7B2
  8
0
 62
     0
 10
-35.896312417290062
 20
38.880229693187339
 30
0.0
 11
-34.396312417290133
 21
40.380229693187268
 31
0.0
  0
LINE
  5
7B3
  8
0
 62
     0
 10
-37.487302674959793
 20
38.880229693187339
 30
0.0
 11
-35.987302674959857
 21
40.380229693187268
 31
0.0
  0
LINE
  5
7B4
  8
0
 62
     0
 10
-39.07829293262953
 20
38.880229693187339
 30
0.0
 11
-37.578292932629601
 21
40.380229693187268
 31
0.0
  0
LINE
  5
7B5
  8
0
 62
     0
 10
-40.669283190299247
 20
38.880229693187339
 30
0.0
 11
-39.169283190299339
 21
40.380229693187253
 31
0.0
  0
LINE
  5
7B6
  8
0
 62
     0
 10
-42.260273447968991
 20
38.880229693187339
 30
0.0
 11
-40.760273447969077
 21
40.38022969318726
 31
0.0
  0
LINE
  5
7B7
  8
0
 62
     0
 10
-43.120881762551079
 20
39.610611636274989
 30
0.0
 11
-42.351263705638807
 21
40.38022969318726
 31
0.0
  0
ENDBLK
  5
7B9
  8
0
  0
BLOCK
  8
0
  2
*X27
 70
     1
 10
0.0
 20
0.0
 30
0.0
  3
*X27
  1

  0
LINE
  5
7BB
  8
0
 62
     0
 10
52.879118237448999
 20
37.807326449725707
 30
0.0
 11
51.806214993987361
 21
38.880229693187353
 31
0.0
  0
LINE
  5
7BC
  8
0
 62
     0
 10
52.879118237448999
 20
36.216336192055977
 30
0.0
 11
50.879118237448978
 21
38.216336192056012
 31
0.0
  0
LINE
  5
7BD
  8
0
 62
     0
 10
52.879118237448999
 20
34.625345934386253
 30
0.0
 11
50.879118237448978
 21
36.625345934386267
 31
0.0
  0
LINE
  5
7BE
  8
0
 62
     0
 10
52.879118237448999
 20
33.034355676716508
 30
0.0
 11
50.879118237448992
 21
35.034355676716537
 31
0.0
  0
LINE
  5
7BF
  8
0
 62
     0
 10
52.879118237448999
 20
31.443365419046781
 30
0.0
 11
50.879118237448992
 21
33.443365419046813
 31
0.0
  0
LINE
  5
7C0
  8
0
 62
     0
 10
52.879118237449013
 20
29.852375161377051
 30
0.0
 11
50.879118237448992
 21
31.852375161377068
 31
0.0
  0
LINE
  5
7C1
  8
0
 62
     0
 10
52.879118237449013
 20
28.26138490370732
 30
0.0
 11
50.879118237448992
 21
30.261384903707341
 31
0.0
  0
LINE
  5
7C2
  8
0
 62
     0
 10
52.879118237448999
 20
26.67039464603759
 30
0.0
 11
50.879118237448992
 21
28.670394646037611
 31
0.0
  0
LINE
  5
7C3
  8
0
 62
     0
 10
52.879118237448999
 20
25.079404388367859
 30
0.0
 11
50.879118237448992
 21
27.07940438836788
 31
0.0
  0
LINE
  5
7C4
  8
0
 62
     0
 10
52.879118237448999
 20
23.488414130698121
 30
0.0
 11
50.879118237448992
 21
25.488414130698139
 31
0.0
  0
LINE
  5
7C5
  8
0
 62
     0
 10
52.879118237448999
 20
21.897423873028391
 30
0.0
 11
50.879118237448992
 21
23.897423873028401
 31
0.0
  0
LINE
  5
7C6
  8
0
 62
     0
 10
52.879118237448999
 20
20.30643361535866
 30
0.0
 11
50.879118237448992
 21
22.306433615358682
 31
0.0
  0
LINE
  5
7C7
  8
0
 62
     0
 10
52.879118237448999
 20
18.71544335768893
 30
0.0
 11
50.879118237448992
 21
20.71544335768894
 31
0.0
  0
LINE
  5
7C8
  8
0
 62
     0
 10
52.879118237448999
 20
17.124453100019199
 30
0.0
 11
50.879118237448992
 21
19.12445310001921
 31
0.0
  0
LINE
  5
7C9
  8
0
 62
     0
 10
52.879118237448999
 20
15.53346284234947
 30
0.0
 11
50.879118237448992
 21
17.533462842349479
 31
0.0
  0
LINE
  5
7CA
  8
0
 62
     0
 10
52.879118237448999
 20
13.942472584679731
 30
0.0
 11
50.879118237448999
 21
15.94247258467974
 31
0.0
  0
LINE
  5
7CB
  8
0
 62
     0
 10
52.879118237448999
 20
12.35148232701
 30
0.0
 11
50.879118237448992
 21
14.35148232701
 31
0.0
  0
LINE
  5
7CC
  8
0
 62
     0
 10
52.879118237448999
 20
10.76049206934027
 30
0.0
 11
50.879118237448999
 21
12.76049206934027
 31
0.0
  0
LINE
  5
7CD
  8
0
 62
     0
 10
52.879118237448999
 20
9.1695018116705391
 30
0.0
 11
50.879118237448999
 21
11.16950181167053
 31
0.0
  0
LINE
  5
7CE
  8
0
 62
     0
 10
52.879118237448999
 20
7.5785115540008077
 30
0.0
 11
50.879118237448999
 21
9.5785115540008086
 31
0.0
  0
LINE
  5
7CF
  8
0
 62
     0
 10
52.879118237448999
 20
5.9875212963310771
 30
0.0
 11
50.879118237448999
 21
7.98752129633107
 31
0.0
  0
LINE
  5
7D0
  8
0
 62
     0
 10
52.879118237448999
 20
4.3965310386613474
 30
0.0
 11
50.879118237449013
 21
6.3965310386613359
 31
0.0
  0
LINE
  5
7D1
  8
0
 62
     0
 10
52.879118237448999
 20
2.805540780991616
 30
0.0
 11
50.879118237449013
 21
4.8055407809916062
 31
0.0
  0
LINE
  5
7D2
  8
0
 62
     0
 10
52.879118237448999
 20
1.2145505233218821
 30
0.0
 11
50.879118237448999
 21
3.2145505233218721
 31
0.0
  0
LINE
  5
7D3
  8
0
 62
     0
 10
52.879118237448999
 20
-0.3764397343478514
 30
0.0
 11
50.879118237448999
 21
1.6235602656521411
 31
0.0
  0
LINE
  5
7D4
  8
0
 62
     0
 10
52.879118237448999
 20
-1.9674299920175811
 30
0.0
 11
50.879118237448999
 21
0.032570007982411
 31
0.0
  0
LINE
  5
7D5
  8
0
 62
     0
 10
52.879118237448999
 20
-3.5584202496873121
 30
0.0
 11
50.879118237448999
 21
-1.558420249687319
 31
0.0
  0
LINE
  5
7D6
  8
0
 62
     0
 10
52.879118237448999
 20
-5.1494105073570431
 30
0.0
 11
50.879118237448999
 21
-3.1494105073570529
 31
0.0
  0
LINE
  5
7D7
  8
0
 62
     0
 10
52.879118237448999
 20
-6.7404007650267772
 30
0.0
 11
50.879118237448999
 21
-4.740400765026787
 31
0.0
  0
LINE
  5
7D8
  8
0
 62
     0
 10
52.879118237448999
 20
-8.3313910226965113
 30
0.0
 11
50.879118237448999
 21
-6.3313910226965184
 31
0.0
  0
LINE
  5
7D9
  8
0
 62
     0
 10
52.879118237448992
 20
-9.9223812803662348
 30
0.0
 11
50.879118237448999
 21
-7.922381280366249
 31
0.0
  0
LINE
  5
7DA
  8
0
 62
     0
 10
52.879118237448999
 20
-11.513371538035971
 30
0.0
 11
50.879118237449021
 21
-9.5133715380359867
 31
0.0
  0
LINE
  5
7DB
  8
0
 62
     0
 10
52.879118237448992
 20
-13.104361795705699
 30
0.0
 11
50.879118237449013
 21
-11.10436179570571
 31
0.0
  0
LINE
  5
7DC
  8
0
 62
     0
 10
52.879118237448992
 20
-14.69535205337543
 30
0.0
 11
50.879118237449013
 21
-12.69535205337545
 31
0.0
  0
LINE
  5
7DD
  8
0
 62
     0
 10
52.879118237448999
 20
-16.286342311045161
 30
0.0
 11
50.879118237449021
 21
-14.28634231104518
 31
0.0
  0
LINE
  5
7DE
  8
0
 62
     0
 10
52.879118237448999
 20
-17.877332568714891
 30
0.0
 11
50.879118237449021
 21
-15.877332568714911
 31
0.0
  0
LINE
  5
7DF
  8
0
 62
     0
 10
52.879118237448999
 20
-19.468322826384629
 30
0.0
 11
50.879118237449021
 21
-17.46832282638464
 31
0.0
  0
LINE
  5
7E0
  8
0
 62
     0
 10
52.879118237448999
 20
-21.059313084054359
 30
0.0
 11
50.879118237449013
 21
-19.059313084054381
 31
0.0
  0
LINE
  5
7E1
  8
0
 62
     0
 10
52.879118237448999
 20
-22.650303341724101
 30
0.0
 11
50.879118237449013
 21
-20.650303341724111
 31
0.0
  0
LINE
  5
7E2
  8
0
 62
     0
 10
52.879118237448999
 20
-24.241293599393831
 30
0.0
 11
50.879118237449013
 21
-22.241293599393838
 31
0.0
  0
LINE
  5
7E3
  8
0
 62
     0
 10
52.879118237448999
 20
-25.832283857063569
 30
0.0
 11
50.879118237449013
 21
-23.832283857063569
 31
0.0
  0
LINE
  5
7E4
  8
0
 62
     0
 10
52.879118237449013
 20
-27.423274114733299
 30
0.0
 11
50.879118237448999
 21
-25.423274114733299
 31
0.0
  0
LINE
  5
7E5
  8
0
 62
     0
 10
52.879118237449013
 20
-29.01426437240303
 30
0.0
 11
50.879118237449013
 21
-27.014264372403041
 31
0.0
  0
LINE
  5
7E6
  8
0
 62
     0
 10
52.393633914188882
 20
-30.11977030681264
 30
0.0
 11
50.879118237448999
 21
-28.605254630072771
 31
0.0
  0
LINE
  5
7E7
  8
0
 62
     0
 10
-41.120881762551043
 20
37.938901247211582
 30
0.0
 11
-42.062210208526793
 21
38.880229693187339
 31
0.0
  0
LINE
  5
7E8
  8
0
 62
     0
 10
-41.120881762551029
 20
36.347910989541852
 30
0.0
 11
-43.120881762551008
 21
38.34791098954183
 31
0.0
  0
LINE
  5
7E9
  8
0
 62
     0
 10
-41.120881762551029
 20
34.756920731872121
 30
0.0
 11
-43.120881762551008
 21
36.7569207318721
 31
0.0
  0
LINE
  5
7EA
  8
0
 62
     0
 10
-41.120881762551029
 20
33.165930474202383
 30
0.0
 11
-43.120881762551022
 21
35.165930474202362
 31
0.0
  0
LINE
  5
7EB
  8
0
 62
     0
 10
-41.120881762551029
 20
31.574940216532649
 30
0.0
 11
-43.120881762551022
 21
33.574940216532639
 31
0.0
  0
LINE
  5
7EC
  8
0
 62
     0
 10
-41.120881762551029
 20
29.983949958862912
 30
0.0
 11
-43.120881762551008
 21
31.98394995886289
 31
0.0
  0
LINE
  5
7ED
  8
0
 62
     0
 10
-41.120881762551029
 20
28.392959701193181
 30
0.0
 11
-43.120881762551008
 21
30.39295970119316
 31
0.0
  0
LINE
  5
7EE
  8
0
 62
     0
 10
-41.120881762551029
 20
26.801969443523451
 30
0.0
 11
-43.120881762551008
 21
28.801969443523429
 31
0.0
  0
LINE
  5
7EF
  8
0
 62
     0
 10
-41.120881762551029
 20
25.21097918585372
 30
0.0
 11
-43.120881762551008
 21
27.210979185853699
 31
0.0
  0
LINE
  5
7F0
  8
0
 62
     0
 10
-41.120881762551022
 20
23.619988928183979
 30
0.0
 11
-43.120881762551008
 21
25.619988928183961
 31
0.0
  0
LINE
  5
7F1
  8
0
 62
     0
 10
-41.120881762551029
 20
22.028998670514259
 30
0.0
 11
-43.120881762551008
 21
24.02899867051423
 31
0.0
  0
LINE
  5
7F2
  8
0
 62
     0
 10
-41.120881762551029
 20
20.438008412844521
 30
0.0
 11
-43.120881762551008
 21
22.438008412844489
 31
0.0
  0
LINE
  5
7F3
  8
0
 62
     0
 10
-41.120881762551029
 20
18.847018155174791
 30
0.0
 11
-43.120881762551008
 21
20.847018155174759
 31
0.0
  0
LINE
  5
7F4
  8
0
 62
     0
 10
-41.120881762551029
 20
17.25602789750506
 30
0.0
 11
-43.120881762551008
 21
19.256027897505032
 31
0.0
  0
LINE
  5
7F5
  8
0
 62
     0
 10
-41.120881762551029
 20
15.665037639835329
 30
0.0
 11
-43.120881762551008
 21
17.66503763983529
 31
0.0
  0
LINE
  5
7F6
  8
0
 62
     0
 10
-41.120881762551029
 20
14.07404738216559
 30
0.0
 11
-43.120881762551001
 21
16.07404738216556
 31
0.0
  0
LINE
  5
7F7
  8
0
 62
     0
 10
-41.120881762551029
 20
12.483057124495859
 30
0.0
 11
-43.120881762551001
 21
14.48305712449582
 31
0.0
  0
LINE
  5
7F8
  8
0
 62
     0
 10
-41.120881762551029
 20
10.892066866826131
 30
0.0
 11
-43.120881762550987
 21
12.89206686682609
 31
0.0
  0
LINE
  5
7F9
  8
0
 62
     0
 10
-41.120881762551029
 20
9.3010766091563966
 30
0.0
 11
-43.120881762550987
 21
11.30107660915635
 31
0.0
  0
LINE
  5
7FA
  8
0
 62
     0
 10
-41.120881762551029
 20
7.7100863514866651
 30
0.0
 11
-43.120881762550987
 21
9.7100863514866234
 31
0.0
  0
LINE
  5
7FB
  8
0
 62
     0
 10
-41.120881762551029
 20
6.1190960938169354
 30
0.0
 11
-43.120881762550987
 21
8.1190960938168892
 31
0.0
  0
LINE
  5
7FC
  8
0
 62
     0
 10
-41.120881762551029
 20
4.528105836147204
 30
0.0
 11
-43.120881762550987
 21
6.5281058361471578
 31
0.0
  0
LINE
  5
7FD
  8
0
 62
     0
 10
-41.120881762551029
 20
2.9371155784774698
 30
0.0
 11
-43.120881762550979
 21
4.9371155784774237
 31
0.0
  0
LINE
  5
7FE
  8
0
 62
     0
 10
-41.120881762551029
 20
1.3461253208077359
 30
0.0
 11
-43.120881762550972
 21
3.346125320807686
 31
0.0
  0
LINE
  5
7FF
  8
0
 62
     0
 10
-41.120881762551029
 20
-0.2448649368619904
 30
0.0
 11
-43.120881762550987
 21
1.755135063137959
 31
0.0
  0
LINE
  5
800
  8
0
 62
     0
 10
-41.120881762551029
 20
-1.8358551945317201
 30
0.0
 11
-43.120881762550987
 21
0.1641448054682293
 31
0.0
  0
LINE
  5
801
  8
0
 62
     0
 10
-41.120881762551029
 20
-3.4268454522014551
 30
0.0
 11
-43.120881762550979
 21
-1.4268454522015039
 31
0.0
  0
LINE
  5
802
  8
0
 62
     0
 10
-41.120881762551029
 20
-5.0178357098711848
 30
0.0
 11
-43.120881762550979
 21
-3.017835709871235
 31
0.0
  0
LINE
  5
803
  8
0
 62
     0
 10
-41.120881762551029
 20
-6.6088259675409233
 30
0.0
 11
-43.120881762550979
 21
-4.6088259675409731
 31
0.0
  0
LINE
  5
804
  8
0
 62
     0
 10
-41.120881762551029
 20
-8.1998162252106521
 30
0.0
 11
-43.120881762550979
 21
-6.1998162252107072
 31
0.0
  0
LINE
  5
805
  8
0
 62
     0
 10
-41.120881762551029
 20
-9.7908064828803845
 30
0.0
 11
-43.120881762550979
 21
-7.7908064828804369
 31
0.0
  0
LINE
  5
806
  8
0
 62
     0
 10
-41.120881762551029
 20
-11.38179674055011
 30
0.0
 11
-43.120881762550972
 21
-9.3817967405501719
 31
0.0
  0
LINE
  5
807
  8
0
 62
     0
 10
-41.120881762551029
 20
-12.97278699821984
 30
0.0
 11
-43.120881762550972
 21
-10.97278699821989
 31
0.0
  0
LINE
  5
808
  8
0
 62
     0
 10
-41.120881762551029
 20
-14.56377725588958
 30
0.0
 11
-43.120881762550979
 21
-12.563777255889629
 31
0.0
  0
LINE
  5
809
  8
0
 62
     0
 10
-41.120881762551022
 20
-16.154767513559321
 30
0.0
 11
-43.120881762550979
 21
-14.15476751355936
 31
0.0
  0
LINE
  5
80A
  8
0
 62
     0
 10
-41.120881762551022
 20
-17.745757771229052
 30
0.0
 11
-43.120881762550979
 21
-15.745757771229091
 31
0.0
  0
LINE
  5
80B
  8
0
 62
     0
 10
-41.120881762551022
 20
-19.336748028898779
 30
0.0
 11
-43.120881762550972
 21
-17.336748028898828
 31
0.0
  0
LINE
  5
80C
  8
0
 62
     0
 10
-41.120881762551022
 20
-20.92773828656852
 30
0.0
 11
-43.120881762550979
 21
-18.927738286568559
 31
0.0
  0
LINE
  5
80D
  8
0
 62
     0
 10
-41.120881762551022
 20
-22.51872854423825
 30
0.0
 11
-43.120881762550979
 21
-20.518728544238289
 31
0.0
  0
LINE
  5
80E
  8
0
 62
     0
 10
-41.120881762551022
 20
-24.109718801907981
 30
0.0
 11
-43.120881762550979
 21
-22.10971880190802
 31
0.0
  0
LINE
  5
80F
  8
0
 62
     0
 10
-41.120881762551022
 20
-25.700709059577719
 30
0.0
 11
-43.120881762550979
 21
-23.700709059577761
 31
0.0
  0
LINE
  5
810
  8
0
 62
     0
 10
-41.120881762551022
 20
-27.291699317247449
 30
0.0
 11
-43.120881762550987
 21
-25.291699317247481
 31
0.0
  0
LINE
  5
811
  8
0
 62
     0
 10
-41.120881762551022
 20
-28.88268957491718
 30
0.0
 11
-43.120881762550979
 21
-26.882689574917219
 31
0.0
  0
LINE
  5
812
  8
0
 62
     0
 10
-41.474791288325257
 20
-30.119770306812669
 30
0.0
 11
-43.120881762550979
 21
-28.473679832586949
 31
0.0
  0
LINE
  5
813
  8
0
 62
     0
 10
-43.065781545994987
 20
-30.119770306812669
 30
0.0
 11
-43.120881762550979
 21
-30.06467009025668
 31
0.0
  0
ENDBLK
  5
815
  8
0
  0
BLOCK
  8
0
  2
*U28
 70
     1
 10
0.0
 20
0.0
 30
0.0
  3
*U28
  1

  0
TEXT
  5
817
  8
6
 10
-2.2161198577890571
 20
5.23737255033015
 30
0.0
 40
2.0
  1
XXX DIAG
  7
ROMANS
  0
TEXT
  5
818
  8
6
 10
-7.3113579530271506
 20
1.713563026520627
 30
0.0
 40
2.0
  1
ACTUAL 
  7
ROMANS
  0
TEXT
  5
819
  8
6
 10
5.3553087136395137
 20
1.713563026520627
 30
0.0
 40
2.0
  1
115.00"
  7
ROMANS
  0
ENDBLK
  5
81B
  8
0
  0
BLOCK
  8
0
  2
*U29
 70
     1
 10
0.0
 20
0.0
 30
0.0
  3
*U29
  1

  0
TEXT
  5
81D
  8
6
 10
-72.763738905408104
 20
-35.45310364014599
 30
0.0
 40
2.0
  1
12.00"
  7
ROMANS
  0
TEXT
  5
81E
  8
6
 10
-70.478024619693826
 20
-38.976913163955508
 30
0.0
 40
2.0
  1
BLK
  7
ROMANS
  0
ENDBLK
  5
820
  8
0
  0
BLOCK
  8
0
  2
*U30
 70
     1
 10
0.0
 20
0.0
 30
0.0
  3
*U30
  1

  0
TEXT
  5
822
  8
6
 10
-72.668500810170016
 20
5.0468963598539851
 30
0.0
 40
2.0
  1
69.00"
  7
ROMANS
  0
TEXT
  5
823
  8
6
 10
-70.239929381598586
 20
1.5230868360444609
 30
0.0
 40
2.0
  1
VAH
  7
ROMANS
  0
ENDBLK
  5
825
  8
0
  0
ENDSEC
  0
SECTION
  2
ENTITIES
  0
TEXT
  5
2DE
  8
6
 10
-78.847162090699015
 20
-78.584693791105792
 30
0.0
 40
2.0
  1
= TOTAL BLACK AT BOTTOM
  7
ROMANS
  0
TEXT
  5
2DF
  8
6
 10
-86.34716209069903
 20
-78.584693791105792
 30
0.0
 40
2.0
  1
BLK
  7
ROMANS
  0
TEXT
  5
2E0
  8
6
 10
-78.847162090699015
 20
-72.108503314915311
 30
0.0
 40
2.0
  1
= VIEWING AREA WIDTH
  7
ROMANS
  0
TEXT
  5
2E1
  8
6
 10
-78.847162090699015
 20
-75.346598553010566
 30
0.0
 40
2.0
  1
= VIEWING AREA HEIGHT
  7
ROMANS
  0
TEXT
  5
2E2
  8
6
 10
-86.34716209069903
 20
-75.346598553010566
 30
0.0
 40
2.0
  1
VAH
  7
ROMANS
  0
TEXT
  5
2E3
  8
6
 10
-86.34716209069903
 20
-72.108503314915311
 30
0.0
 40
2.0
  1
VAW
  7
ROMANS
  0
TEXT
  5
2E4
  8
6
 10
-86.34716209069903
 20
-68.870408076820084
 30
0.0
 40
2.0
  1
NOTES:
  7
ROMANS
  0
DIMENSION
  5
2E5
  8
AM_REFDIM
  2
*D19
 10
-41.120881762550951
 20
-30.119770306812701
 30
0.0
 11
4.8791182374490401
 21
4.3802296931872942
 31
0.0
 70
     1
  1
XXX DIAG\PACTUAL \FROMANS.shx;<>
 13
50.879118237448992
 23
38.88022969318736
 33
0.0
 14
-41.120881762550979
 24
-30.119770306812669
 34
0.0
1001
ACAD
1000
DSTYLE
1002
{
1070
   287
1070
     3
1070
   271
1070
     2
1070
     3
1000
"
1070
   279
1070
     0
1070
    40
1040
20.0
1070
   144
1040
1.0
1070
   170
1070
     0
1002
}
  0
POINT
  5
2E7
  8
6
 10
0.0
 20
0.0
 30
0.0
  0
LINE
  5
307
  8
4
 10
61.246753488468457
 20
68.621653765954093
 30
0.0
 11
61.246753488468457
 21
78.596696606081466
 31
0.0
  0
DIMENSION
  5
30E
  8
AM_REFDIM
  2
*D23
 10
-67.620881762550965
 20
-42.119770306812633
 30
0.0
 11
-67.620881762550951
 21
-50.182270306812633
 31
0.0
 70
     0
 13
-60.120881762550972
 23
-58.244770306812612
 33
0.0
 14
-60.120881762550972
 24
-42.119770306812633
 34
0.0
 50
90.0
1001
ACAD
1000
DSTYLE
1002
{
1070
   287
1070
     3
1070
   271
1070
     2
1070
     3
1000
"
1070
   279
1070
     0
1070
    40
1040
20.0
1070
   144
1040
1.0
1002
}
  0
DIMENSION
  5
30F
  8
AM_REFDIM
  2
*D22
 10
-67.620881762550965
 20
-30.119770306812669
 30
0.0
 11
-67.620881762550965
 21
-36.119770306812661
 31
0.0
 70
     0
  1
<>\PBLK
 13
-60.120881762550972
 23
-42.119770306812633
 33
0.0
 14
-43.120881762550958
 24
-30.119770306812669
 34
0.0
 50
90.0
1001
ACAD
1000
DSTYLE
1002
{
1070
   287
1070
     3
1070
   271
1070
     2
1070
     3
1000
"
1070
   279
1070
     0
1070
    40
1040
20.0
1070
   144
1040
1.0
1070
   170
1070
     0
1002
}
  0
DIMENSION
  5
310
  8
AM_REFDIM
  2
*D21
 10
-67.620881762550965
 20
38.880229693187339
 30
0.0
 11
-67.620881762550965
 21
4.380229693187319
 31
0.0
 70
     0
  1
<>\PVAH
 13
-43.120881762550958
 23
-30.119770306812669
 33
0.0
 14
-43.120881762551029
 24
38.880229693187317
 34
0.0
 50
90.0
1001
ACAD
1000
DSTYLE
1002
{
1070
   287
1070
     3
1070
   271
1070
     2
1070
     3
1000
"
1070
   279
1070
     0
1070
    40
1040
20.0
1070
   144
1040
1.0
1070
   170
1070
     0
1002
}
  0
DIMENSION
  5
311
  8
AM_REFDIM
  2
*D20
 10
-77.495881762550951
 20
-42.119770306812633
 30
0.0
 11
-77.495881762550951
 21
-0.4947703068126283
 31
0.0
 70
     0
 13
-44.120881762550972
 23
41.130229693187388
 33
0.0
 14
-60.120881762550972
 24
-42.119770306812633
 34
0.0
 50
90.0
1001
ACAD
1000
DSTYLE
1002
{
1070
   287
1070
     3
1070
   271
1070
     2
1070
     3
1000
"
1070
   279
1070
     0
1070
    40
1040
20.0
1070
   144
1040
1.0
1002
}
  0
DIMENSION
  5
312
  8
AM_REFDIM
  2
*D18
 10
69.879118237449035
 20
-65.057270306812597
 30
0.0
 11
4.8791182374490312
 21
-65.057270306812597
 31
0.0
 70
     0
  1
<> (LENGTH OF CASE)
 13
-60.120881762550972
 23
-58.244770306812612
 33
0.0
 14
69.879118237449035
 24
-58.244770306812612
 34
0.0
1001
ACAD
1000
DSTYLE
1002
{
1070
   287
1070
     3
1070
   271
1070
     2
1070
   279
1070
     0
1070
    40
1040
20.0
1070
   144
1040
1.0
1070
     3
1000
"
1070
   170
1070
     0
1002
}
  0
DIMENSION
  5
313
  8
AM_REFDIM
  2
*D17
 10
50.879118237448992
 20
45.442729693187353
 30
0.0
 11
4.8791182374489814
 21
45.442729693187353
 31
0.0
 70
     0
  1
<> VAW
 13
-41.120881762551043
 23
38.880229693187317
 33
0.0
 14
50.879118237448992
 24
38.88022969318736
 34
0.0
1001
ACAD
1000
DSTYLE
1002
{
1070
   287
1070
     3
1070
   271
1070
     2
1070
     3
1000
"
1070
   279
1070
     0
1070
    40
1040
20.0
1070
   144
1040
1.0
1070
   170
1070
     0
1002
}
  0
DIMENSION
  5
314
  8
AM_REFDIM
  2
*D16
 10
52.879118237448978
 20
50.44272969318736
 30
0.0
 11
4.879118237448969
 21
50.44272969318736
 31
0.0
 70
     0
  1
<> (FABRIC WIDTH)
 13
-43.120881762551029
 23
40.380229693187339
 33
0.0
 14
52.879118237448978
 24
40.38022969318736
 34
0.0
1001
ACAD
1000
DSTYLE
1002
{
1070
   287
1070
     3
1070
   271
1070
     2
1070
     3
1000
"
1070
   279
1070
     0
1070
    40
1040
20.0
1070
   144
1040
1.0
1070
   170
1070
     0
1002
}
  0
DIMENSION
  5
315
  8
AM_REFDIM
  2
*D15
 10
53.879118237448999
 20
55.44272969318736
 30
0.0
 11
4.8791182374490116
 21
55.44272969318736
 31
0.0
 70
     0
  1
<> (LENGTH OF SLAT)
 13
-44.120881762550972
 23
41.130229693187388
 33
0.0
 14
53.879118237448999
 24
41.130229693187388
 34
0.0
1001
ACAD
1000
DSTYLE
1002
{
1070
   287
1070
     3
1070
   271
1070
     2
1070
     3
1000
"
1070
   279
1070
     0
1070
    40
1040
20.0
1070
   144
1040
1.0
1070
   170
1070
     0
1002
}
  0
DIMENSION
  5
316
  8
AM_REFDIM
  2
*D24
 10
-67.620881762550965
 20
41.130229693187388
 30
0.0
 11
-67.620881762550965
 21
40.00522969318736
 31
0.0
 70
     0
 13
-43.120881762551029
 23
38.880229693187317
 33
0.0
 14
-44.120881762550972
 24
41.130229693187388
 34
0.0
 50
90.0
1001
ACAD
1000
DSTYLE
1002
{
1070
   144
1040
20.0
1002
}
  0
LINE
  5
317
  8
AM_VIS
 10
-43.120881762550972
 20
-40.486471832945142
 30
0.0
 11
-43.700386256455857
 21
-42.119770306812619
 31
0.0
  0
LINE
  5
318
  8
AM_VIS
 10
53.458622731353948
 20
-42.119770306812619
 30
0.0
 11
52.879118237448999
 21
-40.486471832944872
 31
0.0
  0
LINE
  5
319
  8
AM_VIS
 10
52.879118237448992
 20
38.88022969318736
 30
0.0
 11
-43.120881762551043
 21
38.880229693187339
 31
0.0
1001
ACAD
1000
ASC_BOUNDS
1002
{
1070
    19
1005
694
1005
694
1005
681
1002
}
  0
LINE
  5
31A
  8
AM_VIS
 10
-43.120881762551072
 20
40.380229693187289
 30
0.0
 11
52.879118237448992
 21
40.380229693187367
 31
0.0
1001
ACAD
1000
ASC_BOUNDS
1002
{
1070
    19
1005
681
1002
}
  0
LINE
  5
31B
  8
AM_VIS
 10
52.879118237448992
 20
40.380229693187367
 30
0.0
 11
52.879118237448992
 21
38.88022969318736
 31
0.0
1001
ACAD
1000
ASC_BOUNDS
1002
{
1070
    19
1005
681
1002
}
  0
LINE
  5
31C
  8
AM_VIS
 10
-43.120881762551072
 20
38.880229693187339
 30
0.0
 11
-43.120881762551072
 21
40.380229693187339
 31
0.0
1001
ACAD
1000
ASC_BOUNDS
1002
{
1070
    19
1005
681
1002
}
  0
LINE
  5
31D
  8
AM_VIS
 10
50.879118237448992
 20
38.88022969318736
 30
0.0
 11
50.879118237449028
 21
-30.11977030681264
 31
0.0
1001
ACAD
1000
ASC_BOUNDS
1002
{
1070
    19
1005
694
1002
}
  0
LINE
  5
31E
  8
AM_VIS
 10
-41.120881762551022
 20
-30.119770306812669
 30
0.0
 11
-41.120881762551058
 21
38.880229693187339
 31
0.0
1001
ACAD
1000
ASC_BOUNDS
1002
{
1070
    19
1005
694
1002
}
  0
LINE
  5
31F
  8
AM_VIS
 10
-43.120881762550972
 20
-30.119770306812669
 30
0.0
 11
52.879118237448999
 21
-30.11977030681264
 31
0.0
1001
ACAD
1000
ASC_BOUNDS
1002
{
1070
    19
1005
694
1005
694
1005
681
1002
}
  0
LINE
  5
320
  8
AM_VIS
 10
-43.120881762550972
 20
-30.119770306812651
 30
0.0
 11
-43.120881762551022
 21
38.880229693187339
 31
0.0
1001
ACAD
1000
ASC_BOUNDS
1002
{
1070
    19
1005
694
1002
}
  0
LINE
  5
321
  8
AM_VIS
 10
52.879118237448992
 20
38.88022969318736
 30
0.0
 11
52.879118237448999
 21
-30.11977030681264
 31
0.0
1001
ACAD
1000
ASC_BOUNDS
1002
{
1070
    19
1005
694
1002
}
  0
LINE
  5
322
  8
AM_VIS
 10
-43.120881762550972
 20
-42.119770306812619
 30
0.0
 11
-43.120881762550972
 21
-30.119770306812669
 31
0.0
1001
ACAD
1000
ASC_BOUNDS
1002
{
1070
    19
1005
681
1002
}
  0
LINE
  5
323
  8
AM_VIS
 10
52.879118237448999
 20
-30.11977030681264
 30
0.0
 11
52.879118237448999
 21
-42.119770306812619
 31
0.0
1001
ACAD
1000
ASC_BOUNDS
1002
{
1070
    19
1005
681
1002
}
  0
LINE
  5
324
  8
AM_VIS
 10
69.879118237449035
 20
-42.119770306812619
 30
0.0
 11
-60.120881762550972
 21
-42.119770306812619
 31
0.0
1001
ACAD
1000
ASC_BOUNDS
1002
{
1070
    19
1005
681
1002
}
  0
LINE
  5
325
  8
AM_VIS
 10
-60.120881762551001
 20
-58.244770306812612
 30
0.0
 11
69.879118237449035
 21
-58.244770306812612
 31
0.0
  0
LINE
  5
326
  8
AM_VIS
 10
69.879118237449035
 20
-58.244770306812612
 30
0.0
 11
69.879118237449035
 21
-42.119770306812619
 31
0.0
  0
LINE
  5
327
  8
AM_VIS
 10
-60.120881762551001
 20
-42.119770306812619
 30
0.0
 11
-60.120881762551001
 21
-58.244770306812612
 31
0.0
  0
LINE
  5
328
  8
AM_VIS
 10
69.879118237449035
 20
-32.057503817247841
 30
0.0
 11
52.879118237448999
 21
-32.057503817247841
 31
0.0
  0
LINE
  5
329
  8
AM_VIS
 10
-43.120881762551022
 20
-32.057503817247849
 30
0.0
 11
-60.120881762551001
 21
-32.057503817247849
 31
0.0
  0
LINE
  5
32A
  8
AM_VIS
 10
69.879118237449035
 20
-42.119770306812619
 30
0.0
 11
69.879118237449035
 21
-32.289266563029031
 31
0.0
  0
LINE
  5
32B
  8
AM_VIS
 10
-60.120881762551029
 20
-32.289266563029059
 30
0.0
 11
-43.120881762551008
 21
-32.289266563029059
 31
0.0
  0
LINE
  5
32C
  8
AM_VIS
 10
52.879118237448999
 20
-32.289266563029031
 30
0.0
 11
69.879118237449035
 21
-32.289266563029031
 31
0.0
  0
LINE
  5
32D
  8
AM_VIS
 10
-60.120881762551001
 20
-32.289266563029059
 30
0.0
 11
-60.120881762551001
 21
-42.119770306812619
 31
0.0
  0
LINE
  5
32E
  8
AM_VIS
 10
69.879118237449035
 20
-32.289266563029031
 30
0.0
 11
69.879118237449035
 21
-32.057503817247841
 31
0.0
  0
LINE
  5
32F
  8
AM_VIS
 10
-60.120881762551001
 20
-32.057503817247849
 30
0.0
 11
-60.120881762551001
 21
-32.289266563029059
 31
0.0
  0
LINE
  5
330
  8
AM_VIS
 10
53.879118237448999
 20
40.285229693187411
 30
0.0
 11
52.879118237448992
 21
40.285229693187411
 31
0.0
  0
LINE
  5
331
  8
AM_VIS
 10
-43.120881762551072
 20
40.285229693187411
 30
0.0
 11
-44.120881762551001
 21
40.285229693187411
 31
0.0
  0
LINE
  5
332
  8
AM_VIS
 10
-44.120881762551001
 20
40.47522969318738
 30
0.0
 11
53.879118237448999
 21
40.47522969318738
 31
0.0
  0
LINE
  5
333
  8
AM_VIS
 10
-44.120881762551001
 20
40.940229693187383
 30
0.0
 11
-44.120881762551001
 21
40.47522969318738
 31
0.0
  0
LINE
  5
334
  8
AM_VIS
 10
-44.120881762551001
 20
40.940229693187383
 30
0.0
 11
-44.120881762551001
 21
41.130229693187388
 31
0.0
  0
LINE
  5
335
  8
AM_VIS
 10
-44.120881762551001
 20
38.630229693187388
 30
0.0
 11
-44.120881762551001
 21
38.820229693187379
 31
0.0
  0
LINE
  5
336
  8
AM_VIS
 10
-44.120881762551001
 20
40.285229693187411
 30
0.0
 11
-44.120881762551001
 21
38.820229693187379
 31
0.0
  0
LINE
  5
337
  8
AM_VIS
 10
-44.120881762551001
 20
40.285229693187411
 30
0.0
 11
-44.120881762551001
 21
40.47522969318738
 31
0.0
  0
LINE
  5
338
  8
AM_VIS
 10
53.879118237448999
 20
38.820229693187379
 30
0.0
 11
52.879118237449063
 21
38.820229693187379
 31
0.0
  0
LINE
  5
339
  8
AM_VIS
 10
-43.120881762551022
 20
38.820229693187379
 30
0.0
 11
-44.120881762551001
 21
38.820229693187379
 31
0.0
  0
LINE
  5
33A
  8
AM_VIS
 10
53.879118237448999
 20
38.820229693187379
 30
0.0
 11
53.879118237448999
 21
40.285229693187411
 31
0.0
  0
LINE
  5
33B
  8
AM_VIS
 10
53.879118237448999
 20
40.47522969318738
 30
0.0
 11
53.879118237448999
 21
40.285229693187411
 31
0.0
  0
LINE
  5
33C
  8
AM_VIS
 10
53.879118237448999
 20
40.940229693187383
 30
0.0
 11
-44.120881762551001
 21
40.940229693187383
 31
0.0
  0
LINE
  5
33D
  8
AM_VIS
 10
53.879118237448999
 20
41.130229693187388
 30
0.0
 11
53.879118237448999
 21
40.940229693187383
 31
0.0
  0
LINE
  5
33E
  8
AM_VIS
 10
53.879118237448999
 20
40.47522969318738
 30
0.0
 11
53.879118237448999
 21
40.940229693187383
 31
0.0
  0
LINE
  5
33F
  8
AM_VIS
 10
53.879118237448999
 20
38.820229693187379
 30
0.0
 11
53.879118237448999
 21
38.630229693187388
 31
0.0
  0
LINE
  5
340
  8
AM_VIS
 10
53.879118237448999
 20
41.130229693187388
 30
0.0
 11
-44.120881762551001
 21
41.130229693187388
 31
0.0
  0
LINE
  5
341
  8
AM_VIS
 10
53.879118237448999
 20
38.630229693187388
 30
0.0
 11
52.879118237448999
 21
38.630229693187388
 31
0.0
  0
LINE
  5
342
  8
AM_VIS
 10
-43.120881762551022
 20
38.630229693187388
 30
0.0
 11
-44.120881762551001
 21
38.630229693187388
 31
0.0
  0
LINE
  5
343
  8
AM_VIS
 10
102.7652079792549
 20
-5.7077402427432133
 30
0.0
 11
102.7652079792549
 21
-4.8015974639629704
 31
0.0
  0
LINE
  5
344
  8
AM_HID
 10
102.7652079792549
 20
-6.0956241379751361
 30
0.0
 11
102.7652079792549
 21
-5.7077402427432133
 31
0.0
  0
LINE
  5
345
  8
AM_HID
 10
104.56520797925489
 20
-6.0956241379751361
 30
0.0
 11
104.56520797925489
 21
-5.7077402427432133
 31
0.0
  0
LINE
  5
346
  8
AM_VIS
 10
104.56520797925489
 20
-4.8015974639629704
 30
0.0
 11
104.56520797925489
 21
-5.707740242743248
 31
0.0
  0
LINE
  5
347
  8
AM_VIS
 10
104.56520797925489
 20
-5.7077402427432133
 30
0.0
 11
102.7652079792549
 21
-5.7077402427432133
 31
0.0
  0
LINE
  5
348
  8
AM_HID
 10
102.7652079792549
 20
-6.0956241379751361
 30
0.0
 11
104.56520797925489
 21
-6.0956241379751361
 31
0.0
  0
LINE
  5
349
  8
AM_VIS
 10
105.025207979255
 20
-4.2940841600763022
 30
0.0
 11
104.56520797925489
 21
-4.2940841600763022
 31
0.0
  0
LINE
  5
34A
  8
AM_HID
 10
104.56520797925489
 20
-4.6819680553082099
 30
0.0
 11
105.025207979255
 21
-4.6819680553082099
 31
0.0
  0
LINE
  5
34B
  8
AM_HID
 10
102.305207979255
 20
-4.6819680553082099
 30
0.0
 11
102.7652079792549
 21
-4.6819680553082099
 31
0.0
  0
LINE
  5
34C
  8
AM_VIS
 10
102.7652079792549
 20
-4.2940841600763022
 30
0.0
 11
102.305207979255
 21
-4.2940841600763022
 31
0.0
  0
LINE
  5
34D
  8
AM_HID
 10
105.0252079792548
 20
-54.159930948650903
 30
0.0
 11
102.3052079792549
 21
-54.159930948650903
 31
0.0
  0
LINE
  5
34E
  8
AM_HID
 10
102.3052079792548
 20
-53.772047053419001
 30
0.0
 11
102.3052079792549
 21
-42.869770306812612
 31
0.0
  0
LINE
  5
34F
  8
AM_VIS
 10
102.3052079792549
 20
-42.869770306812612
 30
0.0
 11
102.305207979255
 21
-4.2940841600763022
 31
0.0
  0
LINE
  5
350
  8
AM_HID
 10
102.3052079792548
 20
-53.772047053418973
 30
0.0
 11
105.0252079792548
 21
-53.772047053419001
 31
0.0
  0
LINE
  5
351
  8
AM_VIS
 10
105.025207979255
 20
-4.2940841600763022
 30
0.0
 11
105.0252079792549
 21
-42.869770306812562
 31
0.0
  0
LINE
  5
352
  8
AM_HID
 10
105.0252079792549
 20
-42.869770306812562
 30
0.0
 11
105.0252079792548
 21
-53.772047053419001
 31
0.0
  0
LINE
  5
353
  8
AM_HID
 10
105.0252079792548
 20
-53.772047053419001
 30
0.0
 11
105.0252079792548
 21
-54.159930948650903
 31
0.0
  0
LINE
  5
354
  8
AM_HID
 10
102.3052079792548
 20
-54.159930948650903
 30
0.0
 11
102.3052079792548
 21
-53.772047053419001
 31
0.0
  0
LINE
  5
355
  8
AM_HID
 10
102.305207979255
 20
-4.8342448019145641
 30
0.0
 11
102.7652079792549
 21
-4.8342448019145641
 31
0.0
  0
LINE
  5
356
  8
AM_HID
 10
102.305207979255
 20
-5.0842448019145356
 30
0.0
 11
102.7652079792549
 21
-5.0842448019145356
 31
0.0
  0
LINE
  5
357
  8
AM_HID
 10
104.56520797925501
 20
-4.8342448019145641
 30
0.0
 11
105.025207979255
 21
-4.8342448019145641
 31
0.0
  0
LINE
  5
358
  8
AM_HID
 10
104.56520797925501
 20
-5.0842448019145641
 30
0.0
 11
105.025207979255
 21
-5.0842448019145641
 31
0.0
  0
LINE
  5
359
  8
AM_HID
 10
102.3052079792548
 20
-53.369770306812619
 30
0.0
 11
105.0252079792549
 21
-53.369770306812619
 31
0.0
  0
LINE
  5
35A
  8
AM_HID
 10
102.3052079792548
 20
-53.619770306812633
 30
0.0
 11
105.0252079792549
 21
-53.619770306812633
 31
0.0
  0
LINE
  5
35B
  8
AM_VIS
 10
99.165207979255072
 20
-42.119770306812619
 30
0.0
 11
99.167207979255082
 21
-42.119770306812619
 31
0.0
  0
LINE
  5
35C
  8
AM_HID
 10
99.167207979255082
 20
-54.11977030681264
 30
0.0
 11
99.167207979255082
 21
-42.86977030681264
 31
0.0
  0
LINE
  5
35D
  8
AM_VIS
 10
99.167207979255082
 20
-42.86977030681264
 30
0.0
 11
99.167207979255082
 21
-42.119770306812619
 31
0.0
  0
LINE
  5
35E
  8
AM_VIS
 10
99.1532079792551
 20
38.88022969318736
 30
0.0
 11
99.151207979255105
 21
38.88022969318736
 31
0.0
  0
LINE
  5
35F
  8
AM_VIS
 10
99.165207979255143
 20
40.380229693187367
 30
0.0
 11
99.151207979255105
 21
40.380229693187367
 31
0.0
  0
LINE
  5
360
  8
AM_VIS
 10
99.151207979255105
 20
40.380229693187367
 30
0.0
 11
99.151207979255105
 21
38.88022969318736
 31
0.0
  0
LINE
  5
361
  8
AM_VIS
 10
99.152207979255095
 20
38.88022969318736
 30
0.0
 11
99.152207979254996
 21
-30.11977030681264
 31
0.0
  0
LINE
  5
362
  8
AM_VIS
 10
99.153207979255015
 20
-30.11977030681264
 30
0.0
 11
99.151207979255076
 21
-30.11977030681264
 31
0.0
  0
LINE
  5
363
  8
AM_VIS
 10
99.153207979255129
 20
38.88022969318736
 30
0.0
 11
99.153207979255058
 21
-30.11977030681264
 31
0.0
  0
LINE
  5
364
  8
AM_HID
 10
99.151207979255076
 20
-54.11977030681264
 30
0.0
 11
99.167207979255082
 21
-54.11977030681264
 31
0.0
  0
LINE
  5
365
  8
AM_VIS
 10
99.151207979255076
 20
-30.11977030681264
 30
0.0
 11
99.151207979255076
 21
-42.869770306812633
 31
0.0
  0
LINE
  5
366
  8
AM_HID
 10
99.151207979255076
 20
-42.869770306812633
 30
0.0
 11
99.151207979255076
 21
-54.11977030681264
 31
0.0
  0
LINE
  5
367
  8
AM_VIS
 10
99.165207979255072
 20
-42.119770306812619
 30
0.0
 11
99.165207979255143
 21
38.820229693187379
 31
0.0
  0
LINE
  5
368
  8
AM_VIS
 10
99.165207979255143
 20
40.285229693187411
 30
0.0
 11
99.165207979255143
 21
40.380229693187367
 31
0.0
  0
LINE
  5
369
  8
AM_VIS
 10
109.1652079792549
 20
-42.86977030681264
 30
0.0
 11
98.040207979254916
 21
-42.86977030681264
 31
0.0
  0
LINE
  5
36A
  8
AM_VIS
 10
98.040207979254916
 20
-42.869770306812633
 30
0.0
 11
98.040207979254916
 21
-42.119770306812619
 31
0.0
  0
LINE
  5
36B
  8
AM_HID
 10
95.415207979254987
 20
-42.869770306812633
 30
0.0
 11
98.040207979254916
 21
-42.869770306812633
 31
0.0
  0
LINE
  5
36C
  8
AM_HID
 10
108.4152079792549
 20
-42.86977030681264
 30
0.0
 11
108.4152079792549
 21
-57.49477030681264
 31
0.0
  0
LINE
  5
36D
  8
AM_HID
 10
108.4152079792549
 20
-57.49477030681264
 30
0.0
 11
95.415207979254987
 21
-57.494770306812619
 31
0.0
  0
LINE
  5
36E
  8
AM_HID
 10
95.415207979254987
 20
-57.494770306812619
 30
0.0
 11
95.415207979254987
 21
-42.869770306812633
 31
0.0
  0
LINE
  5
36F
  8
AM_VIS
 10
109.1652079792549
 20
-42.86977030681264
 30
0.0
 11
109.1652079792549
 21
-58.244770306812647
 31
0.0
  0
LINE
  5
370
  8
AM_VIS
 10
94.665207979255001
 20
-42.119770306812619
 30
0.0
 11
98.040207979254916
 21
-42.119770306812619
 31
0.0
  0
LINE
  5
371
  8
AM_VIS
 10
109.1652079792549
 20
-58.244770306812647
 30
0.0
 11
94.665207979254987
 21
-58.244770306812619
 31
0.0
  0
LINE
  5
372
  8
AM_VIS
 10
94.665207979254916
 20
-58.244770306812619
 30
0.0
 11
94.665207979254987
 21
-42.119770306812619
 31
0.0
  0
LINE
  5
373
  8
AM_HID
 10
108.4152079792549
 20
-53.369770306812619
 30
0.0
 11
108.9152079792549
 21
-53.369770306812619
 31
0.0
  0
LINE
  5
374
  8
AM_HID
 10
108.4152079792549
 20
-53.61977030681264
 30
0.0
 11
108.9152079792549
 21
-53.61977030681264
 31
0.0
  0
LINE
  5
375
  8
AM_HID
 10
108.9152079792549
 20
-53.369770306812619
 30
0.0
 11
108.9152079792549
 21
-53.49477030681264
 31
0.0
  0
LINE
  5
376
  8
AM_HID
 10
108.9152079792549
 20
-53.49477030681264
 30
0.0
 11
108.9152079792549
 21
-53.61977030681264
 31
0.0
  0
LINE
  5
377
  8
AM_VIS
 10
106.44068630405501
 20
-32.057503817247841
 30
0.0
 11
109.8785003664762
 21
-42.638007561031429
 31
0.0
  0
LINE
  5
378
  8
AM_VIS
 10
109.8785003664762
 20
-42.638007561031429
 30
0.0
 11
109.1652079792548
 21
-42.86977030681264
 31
0.0
  0
LINE
  5
379
  8
AM_VIS
 10
109.1652079792549
 20
-42.86977030681264
 30
0.0
 11
105.72739391683351
 21
-32.289266563029031
 31
0.0
  0
LINE
  5
37A
  8
AM_VIS
 10
105.72739391683351
 20
-32.289266563029031
 30
0.0
 11
106.44068630405491
 21
-32.057503817247841
 31
0.0
  0
LINE
  5
37B
  8
AM_VIS
 10
99.248357747010786
 20
40.285229693187411
 30
0.0
 11
99.165207979255143
 21
40.285229693187411
 31
0.0
  0
LINE
  5
37C
  8
AM_VIS
 10
99.165207979255143
 20
40.47522969318738
 30
0.0
 11
99.248357747010786
 21
40.47522969318738
 31
0.0
  0
LINE
  5
37D
  8
AM_VIS
 10
99.165207979255143
 20
38.820229693187379
 30
0.0
 11
99.165207979255143
 21
40.285229693187411
 31
0.0
  0
LINE
  5
37E
  8
AM_VIS
 10
99.165207979255143
 20
40.47522969318738
 30
0.0
 11
99.165207979255143
 21
40.940229693187383
 31
0.0
  0
LINE
  5
37F
  8
AM_VIS
 10
101.1652079792551
 20
40.940232847007103
 30
0.0
 11
101.1652079792551
 21
38.820226539367702
 31
0.0
  0
LINE
  5
380
  8
AM_HID
 10
101.1652079792551
 20
38.880229693187381
 30
0.0
 11
100.6652079792551
 21
38.880229693187381
 31
0.0
  0
LINE
  5
381
  8
AM_HID
 10
101.1652079792551
 20
39.130229693187381
 30
0.0
 11
100.6652079792551
 21
39.130229693187381
 31
0.0
  0
LINE
  5
382
  8
AM_HID
 10
100.6652079792551
 20
38.880229693187381
 30
0.0
 11
100.6652079792551
 21
39.00522969318741
 31
0.0
  0
LINE
  5
383
  8
AM_HID
 10
100.6652079792551
 20
39.00522969318741
 30
0.0
 11
100.6652079792551
 21
39.130229693187381
 31
0.0
  0
ARC
  5
384
  8
AM_VIS
 10
99.415207979255115
 20
40.380229693187367
 30
0.0
 40
0.192
 50
209.6560135411778
 51
150.343986458822
  0
ARC
  5
385
  8
AM_VIS
 10
100.165211979247
 20
38.403629693187391
 30
0.0
 40
2.726599999999999
 50
68.484330578477454
 51
111.5158501220802
  0
ARC
  5
386
  8
AM_VIS
 10
100.165211979247
 20
41.356829693187393
 30
0.0
 40
2.726599999999999
 50
248.48414987791969
 51
291.51566942152249
  0
LINE
  5
387
  8
AM_HID
 10
102.7652079792549
 20
-3.8641936325977611
 30
0.0
 11
102.480207979255
 21
-3.8641936325977611
 31
0.0
  0
LINE
  5
388
  8
AM_HID
 10
102.765207979255
 20
-3.8641936325977611
 30
0.0
 11
102.765207979255
 21
-4.1217915978202413
 31
0.0
  0
LINE
  5
389
  8
AM_VIS
 10
102.480207979255
 20
-4.1217915978202546
 30
0.0
 11
102.7652079792549
 21
-4.1217915978202546
 31
0.0
  0
LINE
  5
38A
  8
AM_VIS
 10
102.765207979255
 20
-4.1217915978202413
 30
0.0
 11
102.765207979255
 21
-4.8015974639629704
 31
0.0
  0
LINE
  5
38B
  8
AM_VIS
 10
104.56520797925501
 20
-4.8015974639629704
 30
0.0
 11
104.56520797925501
 21
-4.1217915978202413
 31
0.0
  0
LINE
  5
38C
  8
AM_HID
 10
104.56520797925501
 20
-3.8641936325977611
 30
0.0
 11
104.56520797925501
 21
-4.1217915978202413
 31
0.0
  0
LINE
  5
38D
  8
AM_VIS
 10
104.56520797925501
 20
-4.1217915978202546
 30
0.0
 11
104.850207979255
 21
-4.1217915978202546
 31
0.0
  0
LINE
  5
38E
  8
AM_HID
 10
104.850207979255
 20
-3.8641936325977611
 30
0.0
 11
104.56520797925501
 21
-3.8641936325977611
 31
0.0
  0
LINE
  5
38F
  8
AM_VIS
 10
102.7652079792549
 20
-5.5711698778785603
 30
0.0
 11
104.56520797925489
 21
-5.5711698778785603
 31
0.0
  0
LINE
  5
390
  8
AM_HID
 10
104.56520797925489
 20
-5.313571912656065
 30
0.0
 11
102.7652079792549
 21
-5.313571912656065
 31
0.0
  0
LINE
  5
391
  8
AM_VIS
 10
102.480207979255
 20
39.617154769151391
 30
0.0
 11
104.850207979255
 21
39.617154769151391
 31
0.0
  0
LINE
  5
392
  8
AM_VIS
 10
102.480207979255
 20
-4.1217915978202413
 30
0.0
 11
102.480207979255
 21
39.359556803928882
 31
0.0
  0
LINE
  5
393
  8
AM_VIS
 10
102.480207979255
 20
39.359556803928882
 30
0.0
 11
102.480207979255
 21
39.617154769151391
 31
0.0
  0
LINE
  5
394
  8
AM_VIS
 10
104.850207979255
 20
39.617154769151391
 30
0.0
 11
104.850207979255
 21
39.359556803928882
 31
0.0
  0
LINE
  5
395
  8
AM_VIS
 10
104.850207979255
 20
-4.1217915978202413
 30
0.0
 11
104.850207979255
 21
39.359556803928882
 31
0.0
  0
LINE
  5
396
  8
AM_VIS
 10
104.850207979255
 20
39.359556803928882
 30
0.0
 11
102.480207979255
 21
39.359556803928882
 31
0.0
  0
LINE
  5
397
  8
AM_HID
 10
102.7652079792549
 20
-4.8342448019145223
 30
0.0
 11
104.56520797925501
 21
-4.8342448019145223
 31
0.0
  0
LINE
  5
398
  8
AM_HID
 10
102.7652079792549
 20
-5.0842448019145356
 30
0.0
 11
104.56520797925501
 21
-5.0842448019145356
 31
0.0
  0
LINE
  5
399
  8
AM_HID
 10
102.480207979255
 20
39.130229693187417
 30
0.0
 11
104.850207979255
 21
39.130229693187417
 31
0.0
  0
LINE
  5
39A
  8
AM_HID
 10
102.480207979255
 20
38.880229693187381
 30
0.0
 11
104.850207979255
 21
38.880229693187381
 31
0.0
  0
LINE
  5
39B
  8
AM_VIS
 10
-29.186369325478051
 20
75.212958825964961
 30
0.0
 11
-29.484866379486359
 21
75.212958825964961
 31
0.0
  0
LINE
  5
39C
  8
AM_HID
 10
-30.640898403502959
 20
75.212958825964932
 30
0.0
 11
-30.78117069852885
 21
75.212958825964932
 31
0.0
  0
LINE
  5
39D
  8
AM_VIS
 10
-29.484866379486402
 20
77.012958825964915
 30
0.0
 11
-29.186369325478051
 21
77.012958825964915
 31
0.0
  0
LINE
  5
39E
  8
AM_HID
 10
-30.78117069852885
 20
77.012958825964915
 30
0.0
 11
-30.640898403502941
 21
77.012958825964915
 31
0.0
  0
LINE
  5
39F
  8
AM_HID
 10
-29.687943327933091
 20
77.012958825964915
 30
0.0
 11
-29.687943327933091
 21
75.212958825964961
 31
0.0
  0
LINE
  5
3A0
  8
AM_HID
 10
-30.78117069852885
 20
75.212958825964961
 30
0.0
 11
-30.78117069852885
 21
77.012958825964958
 31
0.0
  0
LINE
  5
3A1
  8
AM_VIS
 10
-29.186369325478051
 20
77.47295882596498
 30
0.0
 11
-29.186369325478051
 21
77.012958825964915
 31
0.0
  0
LINE
  5
3A2
  8
AM_VIS
 10
-30.279596696073781
 20
77.472958825964952
 30
0.0
 11
-29.186369325478051
 21
77.472958825964952
 31
0.0
  0
LINE
  5
3A3
  8
AM_HID
 10
-30.279596696073781
 20
77.012958825964915
 30
0.0
 11
-30.279596696073781
 21
77.297958825964912
 31
0.0
  0
LINE
  5
3A4
  8
AM_VIS
 10
-30.279596696073781
 20
77.297958825964912
 30
0.0
 11
-30.279596696073781
 21
77.472958825965009
 31
0.0
  0
LINE
  5
3A5
  8
AM_VIS
 10
-30.279596696073781
 20
74.752958825964981
 30
0.0
 11
-30.279596696073781
 21
74.927958825964978
 31
0.0
  0
LINE
  5
3A6
  8
AM_HID
 10
-30.279596696073781
 20
74.927958825964978
 30
0.0
 11
-30.279596696073781
 21
75.212958825964961
 31
0.0
  0
LINE
  5
3A7
  8
AM_VIS
 10
-29.186369325478051
 20
74.752958825964981
 30
0.0
 11
-30.279596696073781
 21
74.752958825964981
 31
0.0
  0
LINE
  5
3A8
  8
AM_VIS
 10
-29.186369325478051
 20
75.212958825964961
 30
0.0
 11
-29.186369325478051
 21
74.75295882596501
 31
0.0
  0
LINE
  5
3A9
  8
AM_VIS
 10
-30.279596696073781
 20
77.472958825964952
 30
0.0
 11
-47.834686782000539
 21
77.47295882596481
 31
0.0
  0
LINE
  5
3AA
  8
AM_VIS
 10
-47.834686782000539
 20
77.47295882596481
 30
0.0
 11
-47.834686782000539
 21
74.752958825964825
 31
0.0
  0
LINE
  5
3AB
  8
AM_VIS
 10
-30.279596696073781
 20
74.75295882596491
 30
0.0
 11
-47.834686782000539
 21
74.752958825964825
 31
0.0
  0
LINE
  5
3AC
  8
AM_HID
 10
-46.74145941140474
 20
74.752958825964825
 30
0.0
 11
-46.74145941140474
 21
77.47295882596481
 31
0.0
  0
LINE
  5
3AD
  8
AM_HID
 10
-30.025174344927638
 20
74.75295882596491
 30
0.0
 11
-30.025174344927638
 21
75.212958825964918
 31
0.0
  0
LINE
  5
3AE
  8
AM_HID
 10
-29.775174344927631
 20
74.75295882596491
 30
0.0
 11
-29.775174344927631
 21
75.212958825964918
 31
0.0
  0
LINE
  5
3AF
  8
AM_HID
 10
-30.025174344927638
 20
77.012958825964915
 30
0.0
 11
-30.025174344927638
 21
77.472958825964909
 31
0.0
  0
LINE
  5
3B0
  8
AM_HID
 10
-29.775174344927631
 20
77.012958825964915
 30
0.0
 11
-29.775174344927631
 21
77.472958825964909
 31
0.0
  0
LINE
  5
3B1
  8
AM_HID
 10
-47.245881762550951
 20
74.752958825964782
 30
0.0
 11
-47.245881762550951
 21
77.47295882596481
 31
0.0
  0
LINE
  5
3B2
  8
AM_HID
 10
-46.99588176255093
 20
74.752958825964782
 30
0.0
 11
-46.99588176255093
 21
77.47295882596481
 31
0.0
  0
LINE
  5
3B3
  8
AM_VIS
 10
39.243102854384318
 20
75.212958825964918
 30
0.0
 11
38.944605800376131
 21
75.212958825964918
 31
0.0
  0
LINE
  5
3B4
  8
AM_HID
 10
40.539407173426902
 20
75.212958825964918
 30
0.0
 11
40.399134878400929
 21
75.212958825964918
 31
0.0
  0
LINE
  5
3B5
  8
AM_VIS
 10
38.944605800376131
 20
77.012958825964887
 30
0.0
 11
39.243102854384318
 21
77.012958825964887
 31
0.0
  0
LINE
  5
3B6
  8
AM_HID
 10
40.399134878400929
 20
77.012958825964887
 30
0.0
 11
40.539407173426902
 21
77.012958825964887
 31
0.0
  0
LINE
  5
3B7
  8
AM_HID
 10
40.539407173426902
 20
77.012958825964887
 30
0.0
 11
40.539407173426902
 21
75.212958825964918
 31
0.0
  0
LINE
  5
3B8
  8
AM_HID
 10
39.446179802831203
 20
75.212958825964918
 30
0.0
 11
39.446179802831203
 21
77.012958825964887
 31
0.0
  0
LINE
  5
3B9
  8
AM_VIS
 10
40.037833170971872
 20
77.472958825964952
 30
0.0
 11
40.037833170971872
 21
77.297958825964912
 31
0.0
  0
LINE
  5
3BA
  8
AM_HID
 10
40.037833170971872
 20
77.297958825964912
 30
0.0
 11
40.037833170971872
 21
77.012958825964887
 31
0.0
  0
LINE
  5
3BB
  8
AM_VIS
 10
38.944605800376131
 20
77.472958825964952
 30
0.0
 11
40.037833170971879
 21
77.472958825964952
 31
0.0
  0
LINE
  5
3BC
  8
AM_VIS
 10
38.944605800376131
 20
77.012958825964887
 30
0.0
 11
38.944605800376131
 21
77.472958825964952
 31
0.0
  0
LINE
  5
3BD
  8
AM_VIS
 10
38.944605800376131
 20
74.75295882596491
 30
0.0
 11
38.944605800376131
 21
75.212958825964918
 31
0.0
  0
LINE
  5
3BE
  8
AM_VIS
 10
40.037833170971922
 20
74.75295882596491
 30
0.0
 11
38.944605800376159
 21
74.75295882596491
 31
0.0
  0
LINE
  5
3BF
  8
AM_HID
 10
40.037833170971872
 20
75.212958825964918
 30
0.0
 11
40.037833170971872
 21
74.927958825964907
 31
0.0
  0
LINE
  5
3C0
  8
AM_VIS
 10
40.037833170971872
 20
74.927958825964865
 30
0.0
 11
40.037833170971872
 21
74.75295882596491
 31
0.0
  0
LINE
  5
3C1
  8
AM_HID
 10
56.499695886302838
 20
77.47295882596481
 30
0.0
 11
56.499695886302838
 21
74.752958825964825
 31
0.0
  0
LINE
  5
3C2
  8
AM_VIS
 10
57.592923256898622
 20
74.752958825964825
 30
0.0
 11
40.037833170971879
 21
74.75295882596491
 31
0.0
  0
LINE
  5
3C3
  8
AM_VIS
 10
57.592923256898622
 20
74.752958825964825
 30
0.0
 11
57.592923256898622
 21
77.47295882596481
 31
0.0
  0
LINE
  5
3C4
  8
AM_VIS
 10
40.037833170971872
 20
77.472958825964952
 30
0.0
 11
57.592923256898622
 21
77.47295882596481
 31
0.0
  0
LINE
  5
3C5
  8
AM_HID
 10
39.533410819825647
 20
74.75295882596491
 30
0.0
 11
39.533410819825647
 21
75.21295882596489
 31
0.0
  0
LINE
  5
3C6
  8
AM_HID
 10
39.783410819825697
 20
74.75295882596491
 30
0.0
 11
39.783410819825697
 21
75.21295882596489
 31
0.0
  0
LINE
  5
3C7
  8
AM_HID
 10
39.533410819825647
 20
77.012958825964915
 30
0.0
 11
39.533410819825647
 21
77.47295882596498
 31
0.0
  0
LINE
  5
3C8
  8
AM_HID
 10
39.783410819825697
 20
77.012958825964915
 30
0.0
 11
39.783410819825697
 21
77.47295882596498
 31
0.0
  0
LINE
  5
3C9
  8
AM_HID
 10
56.754118237449028
 20
74.752958825964825
 30
0.0
 11
56.754118237449028
 21
77.472958825964866
 31
0.0
  0
LINE
  5
3CA
  8
AM_HID
 10
57.004118237448999
 20
74.752958825964825
 30
0.0
 11
57.004118237448999
 21
77.472958825964866
 31
0.0
  0
LINE
  5
3CB
  8
AM_HID
 10
52.879118237448999
 20
71.614958825964905
 30
0.0
 11
-43.120881762550958
 21
71.614958825964905
 31
0.0
  0
LINE
  5
3CC
  8
AM_HID
 10
-43.120881762550958
 20
71.612958825964895
 30
0.0
 11
-43.120881762550958
 21
71.614958825964905
 31
0.0
  0
LINE
  5
3CD
  8
AM_HID
 10
52.879118237448999
 20
71.612958825964895
 30
0.0
 11
52.879118237448999
 21
71.614958825964905
 31
0.0
  0
LINE
  5
3CE
  8
AM_HID
 10
50.879118237448992
 20
71.60095882596498
 30
0.0
 11
52.879118237448999
 21
71.60095882596498
 31
0.0
  0
LINE
  5
3CF
  8
AM_HID
 10
-43.120881762551008
 20
71.60095882596498
 30
0.0
 11
-41.120881762551022
 21
71.60095882596498
 31
0.0
  0
LINE
  5
3D0
  8
AM_HID
 10
-41.120881762551043
 20
71.60095882596498
 30
0.0
 11
-41.120881762551043
 21
71.599958825964961
 31
0.0
  0
LINE
  5
3D1
  8
AM_HID
 10
-41.120881762551043
 20
71.599958825964961
 30
0.0
 11
50.879118237448971
 21
71.599958825964961
 31
0.0
  0
LINE
  5
3D2
  8
AM_HID
 10
50.879118237448992
 20
71.60095882596498
 30
0.0
 11
50.879118237448992
 21
71.599958825964961
 31
0.0
  0
LINE
  5
3D3
  8
AM_VIS
 10
-43.120881762551072
 20
71.598958825964971
 30
0.0
 11
52.879118237448949
 21
71.598958825964971
 31
0.0
  0
LINE
  5
3D4
  8
AM_VIS
 10
52.879118237448992
 20
71.612958825964981
 30
0.0
 11
52.879118237448992
 21
71.598958825964971
 31
0.0
  0
LINE
  5
3D5
  8
AM_VIS
 10
-43.120881762551072
 20
71.612958825964981
 30
0.0
 11
-43.120881762551072
 21
71.598958825964971
 31
0.0
  0
LINE
  5
3D6
  8
AM_VIS
 10
69.129118237448992
 20
70.487958825964867
 30
0.0
 11
69.129118237448992
 21
78.175144763543528
 31
0.0
  0
LINE
  5
3D7
  8
AM_HID
 10
69.129118237448992
 20
78.175144763543528
 30
0.0
 11
69.129118237448992
 21
80.862958825964867
 31
0.0
  0
LINE
  5
3D8
  8
AM_VIS
 10
69.879118237449035
 20
78.175144763543528
 30
0.0
 11
69.879118237449035
 21
70.487958825964839
 31
0.0
  0
LINE
  5
3D9
  8
AM_HID
 10
-60.120881762551001
 20
81.612958825964824
 30
0.0
 11
69.879118237449035
 21
81.612958825964824
 31
0.0
  0
LINE
  5
3DA
  8
AM_VIS
 10
-60.120881762551001
 20
70.487958825964867
 30
0.0
 11
-60.120881762551001
 21
78.175144763543599
 31
0.0
  0
LINE
  5
3DB
  8
AM_HID
 10
-59.370881762550958
 20
80.862958825964867
 30
0.0
 11
-59.370881762550958
 21
78.175144763543528
 31
0.0
  0
LINE
  5
3DC
  8
AM_VIS
 10
-59.370881762550958
 20
78.175144763543528
 30
0.0
 11
-59.370881762550958
 21
70.487958825964867
 31
0.0
  0
LINE
  5
3DD
  8
AM_HID
 10
-59.370881762550958
 20
80.862958825964867
 30
0.0
 11
69.129118237448992
 21
80.862958825964867
 31
0.0
  0
LINE
  5
3DE
  8
AM_VIS
 10
69.879118237449035
 20
70.487958825964867
 30
0.0
 11
-60.120881762550972
 21
70.487958825964867
 31
0.0
  0
LINE
  5
3DF
  8
AM_HID
 10
69.129118237448992
 20
67.862958825964824
 30
0.0
 11
69.129118237448992
 21
70.487958825964839
 31
0.0
  0
LINE
  5
3E0
  8
AM_HID
 10
-59.370881762550958
 20
70.487958825964867
 30
0.0
 11
-59.370881762550958
 21
67.862958825964867
 31
0.0
  0
LINE
  5
3E1
  8
AM_HID
 10
69.129118237448992
 20
67.862958825964824
 30
0.0
 11
-59.370881762550958
 21
67.862958825964824
 31
0.0
  0
LINE
  5
3E2
  8
AM_VIS
 10
-60.120881762551001
 20
70.487958825964867
 30
0.0
 11
-60.120881762551001
 21
67.112958825964895
 31
0.0
  0
LINE
  5
3E3
  8
AM_VIS
 10
69.879118237449035
 20
67.112958825964867
 30
0.0
 11
-60.120881762550972
 21
67.112958825964867
 31
0.0
  0
LINE
  5
3E4
  8
AM_VIS
 10
69.879118237449035
 20
67.112958825964881
 30
0.0
 11
69.879118237449035
 21
70.487958825964839
 31
0.0
  0
LINE
  5
3E5
  8
AM_HID
 10
-47.245881762550987
 20
80.862958825964867
 30
0.0
 11
-47.245881762550987
 21
81.362958825964824
 31
0.0
  0
LINE
  5
3E6
  8
AM_HID
 10
-46.995881762551001
 20
80.862958825964867
 30
0.0
 11
-46.995881762551001
 21
81.362958825964824
 31
0.0
  0
LINE
  5
3E7
  8
AM_HID
 10
56.754118237448978
 20
80.862958825964867
 30
0.0
 11
56.754118237448978
 21
81.362958825964824
 31
0.0
  0
LINE
  5
3E8
  8
AM_HID
 10
57.004118237448999
 20
80.862958825964867
 30
0.0
 11
57.004118237448999
 21
81.362958825964824
 31
0.0
  0
LINE
  5
3E9
  8
AM_HID
 10
-47.245881762550987
 20
81.362958825964824
 30
0.0
 11
-46.995881762551001
 21
81.362958825964824
 31
0.0
  0
LINE
  5
3EA
  8
AM_HID
 10
56.754118237448978
 20
81.362958825964824
 30
0.0
 11
57.004118237448999
 21
81.362958825964824
 31
0.0
  0
LINE
  5
3EB
  8
AM_VIS
 10
69.879118237449035
 20
78.888437150764901
 30
0.0
 11
69.879118237449035
 21
82.326251213186254
 31
0.0
  0
LINE
  5
3EC
  8
AM_VIS
 10
-60.120881762551001
 20
82.32625121318614
 30
0.0
 11
69.879118237449035
 21
82.32625121318614
 31
0.0
  0
LINE
  5
3ED
  8
AM_VIS
 10
-60.120881762551001
 20
82.326251213186254
 30
0.0
 11
-60.120881762551001
 21
78.888437150764901
 31
0.0
  0
LINE
  5
3EE
  8
AM_VIS
 10
69.879118237449035
 20
78.888437150764901
 30
0.0
 11
-60.120881762550972
 21
78.888437150764901
 31
0.0
  0
LINE
  5
3EF
  8
AM_HID
 10
-60.120881762551001
 20
81.612958825964782
 30
0.0
 11
69.879118237449035
 21
81.612958825964782
 31
0.0
  0
LINE
  5
3F0
  8
AM_VIS
 10
-60.120881762551001
 20
78.175144763543528
 30
0.0
 11
69.879118237449035
 21
78.175144763543528
 31
0.0
  0
LINE
  5
3F1
  8
AM_VIS
 10
69.879118237449035
 20
78.175144763543528
 30
0.0
 11
69.879118237449035
 21
78.888437150764901
 31
0.0
  0
LINE
  5
3F2
  8
AM_VIS
 10
-60.120881762551001
 20
78.888437150764901
 30
0.0
 11
-60.120881762551001
 21
78.175144763543528
 31
0.0
  0
LINE
  5
3F3
  8
AM_HID
 10
53.879118237448999
 20
71.696108593720609
 30
0.0
 11
-44.120881762550987
 21
71.696108593720609
 31
0.0
  0
LINE
  5
3F4
  8
AM_VIS
 10
53.879118237448999
 20
71.612958825964981
 30
0.0
 11
-44.120881762550987
 21
71.612958825964981
 31
0.0
  0
LINE
  5
3F5
  8
AM_VIS
 10
-44.120881762550987
 20
73.612958825964981
 30
0.0
 11
53.879118237448999
 21
73.612958825964981
 31
0.0
  0
LINE
  5
3F6
  8
AM_HID
 10
-41.495881762550987
 20
73.612958825964981
 30
0.0
 11
-41.495881762550987
 21
73.112958825964981
 31
0.0
  0
LINE
  5
3F7
  8
AM_HID
 10
-41.745881762551001
 20
73.612958825964981
 30
0.0
 11
-41.745881762551001
 21
73.112958825964981
 31
0.0
  0
LINE
  5
3F8
  8
AM_HID
 10
51.504118237448992
 20
73.612958825964981
 30
0.0
 11
51.504118237448992
 21
73.112958825964981
 31
0.0
  0
LINE
  5
3F9
  8
AM_HID
 10
51.254118237449028
 20
73.612958825964981
 30
0.0
 11
51.254118237449028
 21
73.112958825964981
 31
0.0
  0
LINE
  5
3FA
  8
AM_HID
 10
-44.120881762550987
 20
72.054958825964974
 30
0.0
 11
53.879118237448999
 21
72.054958825964974
 31
0.0
  0
LINE
  5
3FB
  8
AM_HID
 10
-41.495881762550987
 20
73.112958825964981
 30
0.0
 11
-41.745881762551001
 21
73.112958825964981
 31
0.0
  0
LINE
  5
3FC
  8
AM_HID
 10
51.504118237448992
 20
73.112958825964981
 30
0.0
 11
51.254118237448971
 21
73.112958825964981
 31
0.0
  0
LINE
  5
3FD
  8
AM_VIS
 10
-44.120881762550987
 20
71.612958825964981
 30
0.0
 11
-44.120881762550987
 21
73.612958825964981
 31
0.0
  0
LINE
  5
3FE
  8
AM_VIS
 10
53.879118237448999
 20
73.612958825964981
 30
0.0
 11
53.879118237448999
 21
71.612958825964981
 31
0.0
  0
LINE
  5
3FF
  8
AM_HID
 10
-30.640898403502959
 20
75.212958825964918
 30
0.0
 11
-30.640898403502959
 21
74.927958825964907
 31
0.0
  0
LINE
  5
400
  8
AM_HID
 10
-30.640898403502959
 20
75.212958825964918
 30
0.0
 11
-29.674646216797409
 21
75.212958825964918
 31
0.0
  0
LINE
  5
401
  8
AM_VIS
 10
-29.674646216797381
 20
74.927958825964865
 30
0.0
 11
-29.674646216797381
 21
75.212958825964918
 31
0.0
  0
LINE
  5
402
  8
AM_VIS
 10
-29.674646216797381
 20
75.212958825964918
 30
0.0
 11
-29.484866379486359
 21
75.212958825964918
 31
0.0
  0
LINE
  5
403
  8
AM_VIS
 10
-29.484866379486359
 20
77.012958825964915
 30
0.0
 11
-29.67464621679742
 21
77.012958825964915
 31
0.0
  0
LINE
  5
404
  8
AM_HID
 10
-30.640898403502959
 20
77.012958825964887
 30
0.0
 11
-29.674646216797409
 21
77.012958825964887
 31
0.0
  0
LINE
  5
405
  8
AM_VIS
 10
-29.674646216797381
 20
77.012958825964915
 30
0.0
 11
-29.674646216797381
 21
77.297958825964912
 31
0.0
  0
LINE
  5
406
  8
AM_HID
 10
-30.640898403502959
 20
77.297958825964912
 30
0.0
 11
-30.640898403502959
 21
77.012958825964915
 31
0.0
  0
LINE
  5
407
  8
AM_VIS
 10
-29.288249268963661
 20
75.212958825964918
 30
0.0
 11
-29.288249268963661
 21
77.012958825964887
 31
0.0
  0
LINE
  5
408
  8
AM_HID
 10
-30.254501455669189
 20
77.012958825964887
 30
0.0
 11
-30.254501455669189
 21
75.212958825964918
 31
0.0
  0
LINE
  5
409
  8
AM_VIS
 10
-42.23280683851501
 20
74.927958825964978
 30
0.0
 11
-42.23280683851501
 21
77.297958825964969
 31
0.0
  0
LINE
  5
40A
  8
AM_VIS
 10
-29.674646216797381
 20
74.927958825964865
 30
0.0
 11
-41.26655465180945
 21
74.927958825964978
 31
0.0
  0
LINE
  5
40B
  8
AM_VIS
 10
-41.26655465180945
 20
74.927958825964978
 30
0.0
 11
-42.232806838514982
 21
74.927958825964978
 31
0.0
  0
LINE
  5
40C
  8
AM_VIS
 10
-42.23280683851501
 20
77.297958825964969
 30
0.0
 11
-41.266554651809507
 21
77.297958825964969
 31
0.0
  0
LINE
  5
40D
  8
AM_VIS
 10
-29.674646216797381
 20
77.297958825964912
 30
0.0
 11
-41.26655465180945
 21
77.297958825964969
 31
0.0
  0
LINE
  5
40E
  8
AM_VIS
 10
-41.266554651809507
 20
77.297958825964969
 30
0.0
 11
-41.266554651809507
 21
74.927958825964978
 31
0.0
  0
LINE
  5
40F
  8
AM_HID
 10
-30.025174344927638
 20
75.21295882596489
 30
0.0
 11
-30.025174344927638
 21
77.012958825964844
 31
0.0
  0
LINE
  5
410
  8
AM_HID
 10
-29.775174344927631
 20
75.21295882596489
 30
0.0
 11
-29.775174344927631
 21
77.012958825964844
 31
0.0
  0
LINE
  5
411
  8
AM_HID
 10
-41.745881762550972
 20
74.927958825964978
 30
0.0
 11
-41.745881762550972
 21
77.297958825964969
 31
0.0
  0
LINE
  5
412
  8
AM_HID
 10
-41.495881762550987
 20
74.927958825964978
 30
0.0
 11
-41.495881762550987
 21
77.297958825964969
 31
0.0
  0
LINE
  5
413
  8
AM_VIS
 10
39.432882691695369
 20
75.212958825964918
 30
0.0
 11
39.432882691695369
 21
74.927958825964907
 31
0.0
  0
LINE
  5
414
  8
AM_HID
 10
39.432882691695369
 20
75.212958825964932
 30
0.0
 11
40.399134878400929
 21
75.212958825964932
 31
0.0
  0
LINE
  5
415
  8
AM_HID
 10
40.399134878400929
 20
74.927958825964865
 30
0.0
 11
40.399134878400929
 21
75.212958825964918
 31
0.0
  0
LINE
  5
416
  8
AM_VIS
 10
39.243102854384382
 20
75.212958825964932
 30
0.0
 11
39.432882691695369
 21
75.212958825964932
 31
0.0
  0
LINE
  5
417
  8
AM_VIS
 10
39.432882691695369
 20
77.012958825964915
 30
0.0
 11
39.243102854384318
 21
77.012958825964915
 31
0.0
  0
LINE
  5
418
  8
AM_HID
 10
39.432882691695369
 20
77.012958825964915
 30
0.0
 11
40.399134878400929
 21
77.012958825964915
 31
0.0
  0
LINE
  5
419
  8
AM_HID
 10
40.399134878400929
 20
77.012958825964915
 30
0.0
 11
40.399134878400929
 21
77.297958825964912
 31
0.0
  0
LINE
  5
41A
  8
AM_VIS
 10
39.432882691695369
 20
77.297958825964912
 30
0.0
 11
39.432882691695369
 21
77.012958825964915
 31
0.0
  0
LINE
  5
41B
  8
AM_HID
 10
40.012737930567212
 20
75.212958825964918
 30
0.0
 11
40.012737930567212
 21
77.012958825964887
 31
0.0
  0
LINE
  5
41C
  8
AM_VIS
 10
39.046485743861673
 20
77.012958825964887
 30
0.0
 11
39.046485743861673
 21
75.212958825964918
 31
0.0
  0
LINE
  5
41D
  8
AM_VIS
 10
51.024791126707527
 20
74.927958825964978
 30
0.0
 11
39.432882691695369
 21
74.927958825964907
 31
0.0
  0
LINE
  5
41E
  8
AM_VIS
 10
51.024791126707569
 20
74.927958825964978
 30
0.0
 11
51.024791126707569
 21
77.297958825964969
 31
0.0
  0
LINE
  5
41F
  8
AM_VIS
 10
39.432882691695369
 20
77.297958825964912
 30
0.0
 11
51.024791126707527
 21
77.297958825964912
 31
0.0
  0
LINE
  5
420
  8
AM_VIS
 10
51.991043313413108
 20
74.927958825964978
 30
0.0
 11
51.024791126707569
 21
74.927958825964978
 31
0.0
  0
LINE
  5
421
  8
AM_VIS
 10
51.024791126707569
 20
77.297958825964969
 30
0.0
 11
51.991043313413108
 21
77.297958825964969
 31
0.0
  0
LINE
  5
422
  8
AM_VIS
 10
51.991043313413108
 20
77.297958825964969
 30
0.0
 11
51.991043313413108
 21
74.927958825964978
 31
0.0
  0
LINE
  5
423
  8
AM_HID
 10
39.533410819825711
 20
75.21295882596489
 30
0.0
 11
39.533410819825711
 21
77.012958825964915
 31
0.0
  0
LINE
  5
424
  8
AM_HID
 10
39.783410819825697
 20
75.21295882596489
 30
0.0
 11
39.783410819825697
 21
77.012958825964915
 31
0.0
  0
LINE
  5
425
  8
AM_HID
 10
51.254118237449042
 20
74.927958825964978
 30
0.0
 11
51.254118237449042
 21
77.297958825964969
 31
0.0
  0
LINE
  5
426
  8
AM_HID
 10
51.50411823744907
 20
74.927958825964978
 30
0.0
 11
51.50411823744907
 21
77.297958825964969
 31
0.0
  0
INSERT
  5
681
  8
6
  6
CONTINUOUS
  2
*X26
 10
0.0
 20
0.0
 30
0.0
1001
ACAD
1000
HATCH
1002
{
1070
    19
1000
ANSI31
1040
9.0
1040
0.0
1000
ASC_BOUNDS
1070
     2
1070
     1
1070
     4
1005
31B
1005
319
1005
31C
1005
31A
1070
     1
1070
     4
1005
323
1005
324
1005
322
1005
31F
1000
ASC_SEEDPOINT
1011
-1.3553888283435069
1021
0.0
1031
0.0
1021
-32.714668353475759
1031
0.0
1000
R14_HATCH_DATA
1000
681
1011
1.0
1021
0.0
1031
0.0
1021
0.0
1031
0.0
1011
0.0
1021
0.0
1031
0.0
1021
1.0
1031
0.0
1011
0.0
1021
0.0
1031
0.0
1021
0.0
1031
1.0
1040
0.0
1010
0.0
1020
0.0
1030
1.0
1000
ANSI31
1070
     0
1070
     1
1071
        2
1071
        7
1070
     0
1070
     1
1071
        4
1040
52.879118237448999
1040
-30.11977030681264
1040
-43.120881762550958
1040
-30.119770306812669
1040
-43.120881762550972
1040
-42.119770306812619
1040
52.879118237449021
1040
-42.119770306812619
1071
        4
1005
31F
1005
322
1005
324
1005
323
1071
        7
1070
     0
1070
     1
1071
        4
1040
52.879118237448992
1040
40.380229693187367
1040
-43.120881762551072
1040
40.380229693187289
1040
-43.120881762551079
1040
38.880229693187339
1040
52.879118237448992
1040
38.88022969318736
1071
        4
1005
31A
1005
31C
1005
319
1005
31B
1070
     0
1070
     1
1040
0.0
1040
9.0
1070
     0
1070
     1
1040
0.7853981633974483
1040
0.0
1040
0.0
1040
-0.795495128834866
1040
0.7954951288348661
1070
     0
1040
0.2089755141205527
1071
        2
1040
-1.3553888283435069
1040
-32.714668353475759
1040
0.0
1040
2.825109539243726
1040
39.172908469741962
1040
0.0
1002
}
  0
INSERT
  5
694
  8
6
  6
CONTINUOUS
  2
*X27
 10
0.0
 20
0.0
 30
0.0
1001
ACAD
1000
HATCH
1002
{
1070
    19
1000
ANSI31
1040
9.0
1040
1.5707963267948959
1000
ASC_BOUNDS
1070
     2
1070
     1
1070
     4
1005
31E
1005
31F
1005
320
1005
319
1070
     1
1070
     4
1005
321
1005
31F
1005
31D
1005
319
1000
ASC_SEEDPOINT
1011
51.945961313163423
1021
0.0
1031
0.0
1021
13.8868711480859
1031
0.0
1000
R14_HATCH_DATA
1000
694
1011
1.0
1021
0.0
1031
0.0
1021
0.0
1031
0.0
1011
0.0
1021
0.0
1031
0.0
1021
1.0
1031
0.0
1011
0.0
1021
0.0
1031
0.0
1021
0.0
1031
1.0
1040
0.0
1010
0.0
1020
0.0
1030
1.0
1000
ANSI31
1070
     0
1070
     1
1071
        2
1071
        7
1070
     0
1070
     1
1071
        4
1040
52.879118237448978
1040
38.880229693187353
1040
50.879118237448978
1040
38.880229693187353
1040
50.879118237449028
1040
-30.11977030681264
1040
52.879118237448999
1040
-30.11977030681264
1071
        4
1005
319
1005
31D
1005
31F
1005
321
1071
        7
1070
     0
1070
     1
1071
        4
1040
-41.120881762551072
1040
38.880229693187339
1040
-43.120881762551022
1040
38.880229693187339
1040
-43.120881762550958
1040
-30.119770306812669
1040
-41.120881762551022
1040
-30.119770306812669
1071
        4
1005
319
1005
320
1005
31F
1005
31E
1070
     0
1070
     1
1040
1.5707963267948959
1040
9.0
1070
     0
1070
     1
1040
2.3561944901923439
1040
0.0
1040
0.0
1040
-0.7954951288348661
1040
-0.795495128834866
1070
     0
1040
0.2089755141205527
1071
        2
1040
51.945961313163423
1040
13.8868711480859
1040
0.0
1040
-42.324269502051827
1040
11.797116187869319
1040
0.0
1002
}
  0
DIMENSION
  5
71B
  8
AM_REFDIM
  2
*D25
 10
84.767432679322155
 20
-42.119770306812619
 30
0.0
 11
84.76743267932217
 21
-50.182270306812612
 31
0.0
 70
     0
 13
94.665207979254916
 23
-58.244770306812619
 33
0.0
 14
94.665207979254987
 24
-42.119770306812619
 34
0.0
 50
90.0
1001
ACAD
1000
DSTYLE
1002
{
1070
     3
1000
"
1070
    40
1040
20.0
1070
   271
1070
     2
1002
}
  0
ENDSEC
  0
EOF
