  0
SECTION
  2
HEADER
  9
$ACADVER
  1
AC1015
  9
$ACADMAINTVER
 70
    20
  9
$DWGCODEPAGE
  3
ANSI_1252
  9
$INSBASE
 10
0.0
 20
0.0
 30
0.0
  9
$EXTMIN
 10
153.8059788394461
 20
-179.5891496241696
 30
-0.0015258207003583
  9
$EXTMAX
 10
322.5333953124305
 20
-82.79262875848383
 30
0.0000000349246037
  9
$LIMMIN
 10
0.0
 20
0.0
  9
$LIMMAX
 10
11.0
 20
8.5
  9
$ORTHOMODE
 70
     1
  9
$REGENMODE
 70
     1
  9
$FILLMODE
 70
     1
  9
$QTEXTMODE
 70
     0
  9
$MIRRTEXT
 70
     1
  9
$LTSCALE
 40
0.605
  9
$ATTMODE
 70
     1
  9
$TEXTSIZE
 40
0.0
  9
$TRACEWID
 40
0.05
  9
$TEXTSTYLE
  7
STANDARD
  9
$CLAYER
  8
6
  9
$CELTYPE
  6
BYLAYER
  9
$CECOLOR
 62
   256
  9
$CELTSCALE
 40
1.0
  9
$DISPSILH
 70
     0
  9
$DIMSCALE
 40
18.0
  9
$DIMASZ
 40
0.18
  9
$DIMEXO
 40
0.0625
  9
$DIMDLI
 40
0.38
  9
$DIMRND
 40
0.0
  9
$DIMDLE
 40
0.0
  9
$DIMEXE
 40
0.18
  9
$DIMTP
 40
0.001
  9
$DIMTM
 40
0.001
  9
$DIMTXT
 40
0.1
  9
$DIMCEN
 40
0.09
  9
$DIMTSZ
 40
0.0
  9
$DIMTOL
 70
     0
  9
$DIMLIM
 70
     0
  9
$DIMTIH
 70
     1
  9
$DIMTOH
 70
     1
  9
$DIMSE1
 70
     0
  9
$DIMSE2
 70
     0
  9
$DIMTAD
 70
     0
  9
$DIMZIN
 70
     0
  9
$DIMBLK
  1

  9
$DIMASO
 70
     1
  9
$DIMSHO
 70
     1
  9
$DIMPOST
  1

  9
$DIMAPOST
  1

  9
$DIMALT
 70
     0
  9
$DIMALTD
 70
     2
  9
$DIMALTF
 40
25.4
  9
$DIMLFAC
 40
1.0
  9
$DIMTOFL
 70
     0
  9
$DIMTVP
 40
0.0
  9
$DIMTIX
 70
     0
  9
$DIMSOXD
 70
     0
  9
$DIMSAH
 70
     0
  9
$DIMBLK1
  1

  9
$DIMBLK2
  1

  9
$DIMSTYLE
  2
STANDARD
  9
$DIMCLRD
 70
     0
  9
$DIMCLRE
 70
     0
  9
$DIMCLRT
 70
     0
  9
$DIMTFAC
 40
1.0
  9
$DIMGAP
 40
0.09
  9
$DIMJUST
 70
     0
  9
$DIMSD1
 70
     0
  9
$DIMSD2
 70
     0
  9
$DIMTOLJ
 70
     1
  9
$DIMTZIN
 70
     0
  9
$DIMALTZ
 70
     0
  9
$DIMALTTZ
 70
     0
  9
$DIMUPT
 70
     0
  9
$DIMDEC
 70
     2
  9
$DIMTDEC
 70
     2
  9
$DIMALTU
 70
     2
  9
$DIMALTTD
 70
     2
  9
$DIMTXSTY
  7
STANDARD
  9
$DIMAUNIT
 70
     0
  9
$DIMADEC
 70
     0
  9
$DIMALTRND
 40
0.0
  9
$DIMAZIN
 70
     0
  9
$DIMDSEP
 70
    46
  9
$DIMATFIT
 70
     0
  9
$DIMFRAC
 70
     0
  9
$DIMLDRBLK
  1

  9
$DIMLUNIT
 70
     2
  9
$DIMLWD
 70
    -2
  9
$DIMLWE
 70
    -2
  9
$DIMTMOVE
 70
     0
  9
$LUNITS
 70
     2
  9
$LUPREC
 70
     4
  9
$SKETCHINC
 40
0.1
  9
$FILLETRAD
 40
0.0
  9
$AUNITS
 70
     0
  9
$AUPREC
 70
     0
  9
$MENU
  1
acad
  9
$ELEVATION
 40
0.0
  9
$PELEVATION
 40
0.0
  9
$THICKNESS
 40
0.0
  9
$LIMCHECK
 70
     0
  9
$CHAMFERA
 40
0.0
  9
$CHAMFERB
 40
0.0
  9
$CHAMFERC
 40
0.0
  9
$CHAMFERD
 40
0.0
  9
$SKPOLY
 70
     0
  9
$TDCREATE
 40
2444971.791666667
  9
$TDUCREATE
 40
2444972.000000000
  9
$TDUPDATE
 40
2454527.345640093
  9
$TDUUPDATE
 40
2454527.553973426
  9
$TDINDWG
 40
0.0231408218
  9
$TDUSRTIMER
 40
0.0231397222
  9
$USRTIMER
 70
     1
  9
$ANGBASE
 50
0.0
  9
$ANGDIR
 70
     0
  9
$PDMODE
 70
     0
  9
$PDSIZE
 40
0.0
  9
$PLINEWID
 40
0.0
  9
$SPLFRAME
 70
     0
  9
$SPLINETYPE
 70
     6
  9
$SPLINESEGS
 70
     8
  9
$HANDSEED
  5
3C72
  9
$SURFTAB1
 70
     6
  9
$SURFTAB2
 70
     6
  9
$SURFTYPE
 70
     6
  9
$SURFU
 70
     6
  9
$SURFV
 70
     6
  9
$UCSBASE
  2

  9
$UCSNAME
  2

  9
$UCSORG
 10
0.0
 20
0.0
 30
0.0
  9
$UCSXDIR
 10
1.0
 20
0.0
 30
0.0
  9
$UCSYDIR
 10
0.0
 20
1.0
 30
0.0
  9
$UCSORTHOREF
  2

  9
$UCSORTHOVIEW
 70
     0
  9
$UCSORGTOP
 10
0.0
 20
0.0
 30
0.0
  9
$UCSORGBOTTOM
 10
0.0
 20
0.0
 30
0.0
  9
$UCSORGLEFT
 10
0.0
 20
0.0
 30
0.0
  9
$UCSORGRIGHT
 10
0.0
 20
0.0
 30
0.0
  9
$UCSORGFRONT
 10
0.0
 20
0.0
 30
0.0
  9
$UCSORGBACK
 10
0.0
 20
0.0
 30
0.0
  9
$PUCSBASE
  2

  9
$PUCSNAME
  2

  9
$PUCSORG
 10
0.0
 20
0.0
 30
0.0
  9
$PUCSXDIR
 10
1.0
 20
0.0
 30
0.0
  9
$PUCSYDIR
 10
0.0
 20
1.0
 30
0.0
  9
$PUCSORTHOREF
  2

  9
$PUCSORTHOVIEW
 70
     0
  9
$PUCSORGTOP
 10
0.0
 20
0.0
 30
0.0
  9
$PUCSORGBOTTOM
 10
0.0
 20
0.0
 30
0.0
  9
$PUCSORGLEFT
 10
0.0
 20
0.0
 30
0.0
  9
$PUCSORGRIGHT
 10
0.0
 20
0.0
 30
0.0
  9
$PUCSORGFRONT
 10
0.0
 20
0.0
 30
0.0
  9
$PUCSORGBACK
 10
0.0
 20
0.0
 30
0.0
  9
$USERI1
 70
     0
  9
$USERI2
 70
     0
  9
$USERI3
 70
     0
  9
$USERI4
 70
     0
  9
$USERI5
 70
     0
  9
$USERR1
 40
0.0
  9
$USERR2
 40
0.0
  9
$USERR3
 40
0.0
  9
$USERR4
 40
0.0
  9
$USERR5
 40
0.0
  9
$WORLDVIEW
 70
     1
  9
$SHADEDGE
 70
     3
  9
$SHADEDIF
 70
    70
  9
$TILEMODE
 70
     1
  9
$MAXACTVP
 70
    16
  9
$PINSBASE
 10
0.0
 20
0.0
 30
0.0
  9
$PLIMCHECK
 70
     0
  9
$PEXTMIN
 10
1.058749955470167
 20
0.7937500251559762
 30
0.0
  9
$PEXTMAX
 10
9.52874959923151
 20
7.143750226403783
 30
0.0
  9
$PLIMMIN
 10
-0.1479165385088583
 20
-0.2812499887361301
  9
$PLIMMAX
 10
10.85208322119525
 20
8.218749770967978
  9
$UNITMODE
 70
     0
  9
$VISRETAIN
 70
     0
  9
$PLINEGEN
 70
     1
  9
$PSLTSCALE
 70
     0
  9
$TREEDEPTH
 70
  3020
  9
$CMLSTYLE
  2
STANDARD
  9
$CMLJUST
 70
     0
  9
$CMLSCALE
 40
1.0
  9
$PROXYGRAPHICS
 70
     1
  9
$MEASUREMENT
 70
     0
  9
$CELWEIGHT
370
    -1
  9
$ENDCAPS
280
     0
  9
$JOINSTYLE
280
     0
  9
$LWDISPLAY
290
     0
  9
$INSUNITS
 70
     0
  9
$HYPERLINKBASE
  1

  9
$STYLESHEET
  1

  9
$XEDIT
290
     1
  9
$CEPSNTYPE
380
     0
  9
$PSTYLEMODE
290
     1
  9
$FINGERPRINTGUID
  2
{A5E9DCFB-CCA2-45FD-BE76-3E1E56B022F8}
  9
$VERSIONGUID
  2
{7F7A5304-6B45-420E-B13F-645D461E1943}
  9
$EXTNAMES
290
     1
  9
$PSVPSCALE
 40
0.0
  9
$OLESTARTUP
290
     0
  0
ENDSEC
  0
SECTION
  2
CLASSES
  0
CLASS
  1
IMAGE
  2
AcDbRasterImage
  3
ISM
 90
    32895
280
     0
281
     1
  0
CLASS
  1
DICTIONARYVAR
  2
AcDbDictionaryVar
  3
ObjectDBX Classes
 90
        0
280
     0
281
     0
  0
CLASS
  1
RASTERVARIABLES
  2
AcDbRasterVariables
  3
ISM
 90
    32768
280
     0
281
     0
  0
CLASS
  1
IMAGEDEF
  2
AcDbRasterImageDef
  3
ISM
 90
    32768
280
     0
281
     0
  0
CLASS
  1
IMAGEDEF_REACTOR
  2
AcDbRasterImageDefReactor
  3
ISM
 90
    32769
280
     0
281
     0
  0
CLASS
  1
IDBUFFER
  2
AcDbIdBuffer
  3
ObjectDBX Classes
 90
    32768
280
     0
281
     0
  0
CLASS
  1
SPATIAL_FILTER
  2
AcDbSpatialFilter
  3
ObjectDBX Classes
 90
    32768
280
     0
281
     0
  0
CLASS
  1
SORTENTSTABLE
  2
AcDbSortentsTable
  3
ObjectDBX Classes
 90
        0
280
     0
281
     0
  0
CLASS
  1
LAYER_INDEX
  2
AcDbLayerIndex
  3
ObjectDBX Classes
 90
    32768
280
     0
281
     0
  0
CLASS
  1
SPATIAL_INDEX
  2
AcDbSpatialIndex
  3
ObjectDBX Classes
 90
    32768
280
     0
281
     0
  0
CLASS
  1
OBJECT_PTR
  2
CAseDLPNTableRecord
  3
ASE-LPNTableRecord
 90
    32769
280
     0
281
     0
  0
CLASS
  1
PLOTSETTINGS
  2
AcDbPlotSettings
  3
ObjectDBX Classes
 90
    32768
280
     0
281
     0
  0
CLASS
  1
ACDBDICTIONARYWDFLT
  2
AcDbDictionaryWithDefault
  3
ObjectDBX Classes
 90
        0
280
     0
281
     0
  0
CLASS
  1
WIPEOUT
  2
AcDbWipeout
  3
"WipeOut|Product Desc: Object Enabler for WipeOut entity^I^I^I^I^I^I|Company: Autodesk, Inc.^I^I^I^I^I^I|WEB Address: www.autodesk.com"
 90
    32895
280
     0
281
     1
  0
CLASS
  1
WIPEOUTVARIABLES
  2
AcDbWipeoutVariables
  3
"WipeOut|Product Desc:     WipeOut Dbx Application|Company:          Autodesk, Inc.|WEB Address:      www.autodesk.com"
 90
    32768
280
     0
281
     0
  0
CLASS
  1
RTEXT
  2
RText
  3
RText|AutoCAD Express Tool|expresstools@autodesk.com
 90
    33791
280
     0
281
     1
  0
CLASS
  1
ARCALIGNEDTEXT
  2
AcDbArcAlignedText
  3
ATEXT|AutoCAD Express Tool|expresstools@autodesk.com
 90
    32768
280
     0
281
     1
  0
CLASS
  1
TABLESTYLE
  2
AcDbTableStyle
  3
ObjectDBX Classes
 90
     2047
280
     0
281
     0
  0
CLASS
  1
ACDBPLACEHOLDER
  2
AcDbPlaceHolder
  3
ObjectDBX Classes
 90
        0
280
     0
281
     0
  0
CLASS
  1
LAYOUT
  2
AcDbLayout
  3
ObjectDBX Classes
 90
        0
280
     0
281
     0
  0
ENDSEC
  0
SECTION
  2
TABLES
  0
TABLE
  2
VPORT
  5
6
330
0
100
AcDbSymbolTable
 70
     3
  0
VPORT
  5
3C6A
330
6
100
AcDbSymbolTableRecord
100
AcDbViewportTableRecord
  2
*Active
 70
     0
 10
0.0
 20
0.0
 11
1.0
 21
1.0
 12
238.1696870759383
 22
-131.1908891913267
 13
0.0
 23
0.0
 14
1.0
 24
1.0
 15
0.0
 25
0.0
 16
0.0
 26
0.0
 36
1.0
 17
0.0
 27
0.0
 37
0.0
 40
113.966379379868
 41
1.488020176544766
 42
50.0
 43
0.0
 44
0.0
 50
0.0
 51
0.0
 71
     0
 72
   100
 73
     1
 74
     1
 75
     0
 76
     0
 77
     0
 78
     0
281
     0
 65
     1
110
0.0
120
0.0
130
0.0
111
1.0
121
0.0
131
0.0
112
0.0
122
1.0
132
0.0
 79
     0
146
0.0
  0
ENDTAB
  0
TABLE
  2
LTYPE
  5
3
330
0
100
AcDbSymbolTable
 70
     6
  0
LTYPE
  5
C
330
3
100
AcDbSymbolTableRecord
100
AcDbLinetypeTableRecord
  2
BYBLOCK
 70
     0
  3

 72
    65
 73
     0
 40
0.0
  0
LTYPE
  5
D
330
3
100
AcDbSymbolTableRecord
100
AcDbLinetypeTableRecord
  2
BYLAYER
 70
     0
  3

 72
    65
 73
     0
 40
0.0
  0
LTYPE
  5
E
330
3
100
AcDbSymbolTableRecord
100
AcDbLinetypeTableRecord
  2
CONTINUOUS
 70
     0
  3
Solid line
 72
    65
 73
     0
 40
0.0
  0
LTYPE
  5
F
330
3
100
AcDbSymbolTableRecord
100
AcDbLinetypeTableRecord
  2
CENTER
 70
     0
  3
____ _ ____ _ ____ _ ____ _ ____ _ ____ _ ____
 72
    65
 73
     4
 40
0.6
 49
0.375
 74
     0
 49
-0.075
 74
     0
 49
0.075
 74
     0
 49
-0.075
 74
     0
  0
LTYPE
  5
10
330
3
100
AcDbSymbolTableRecord
100
AcDbLinetypeTableRecord
  2
HIDDEN
 70
     0
  3
- - - - - - - - - - - - - - - - - - - -
 72
    65
 73
     2
 40
0.2
 49
0.1
 74
     0
 49
-0.1
 74
     0
  0
LTYPE
  5
11
330
3
100
AcDbSymbolTableRecord
100
AcDbLinetypeTableRecord
  2
PHANTOM
 70
     0
  3
_____ _ _ _____ _ _ _____ _ _ _____
 72
    65
 73
     6
 40
0.8
 49
0.45
 74
     0
 49
-0.05
 74
     0
 49
0.1
 74
     0
 49
-0.05
 74
     0
 49
0.1
 74
     0
 49
-0.05
 74
     0
  0
LTYPE
  5
12
330
3
100
AcDbSymbolTableRecord
100
AcDbLinetypeTableRecord
  2
DOT
 70
     0
  3
. . . . . . . . . . . . . . . . . . . .
 72
    65
 73
     2
 40
0.2
 49
0.1
 74
     0
 49
-0.1
 74
     0
  0
LTYPE
  5
13
330
3
100
AcDbSymbolTableRecord
100
AcDbLinetypeTableRecord
  2
DASHED
 70
     0
  3
- - - - - - - - - - - - - - - - - - - -
 72
    65
 73
     2
 40
0.2
 49
0.1
 74
     0
 49
-0.1
 74
     0
  0
ENDTAB
  0
TABLE
  2
LAYER
  5
1
102
{ACAD_XDICTIONARY
360
1811
102
}
330
0
100
AcDbSymbolTable
 70
    11
  0
LAYER
  5
14
330
1
100
AcDbSymbolTableRecord
100
AcDbLayerTableRecord
  2
0
 70
     0
 62
     7
  6
CONTINUOUS
370
    -3
390
CEB
  0
LAYER
  5
15
330
1
100
AcDbSymbolTableRecord
100
AcDbLayerTableRecord
  2
DEFAULT_1
 70
     0
 62
     7
  6
CENTER
370
    -3
390
CEB
  0
LAYER
  5
16
330
1
100
AcDbSymbolTableRecord
100
AcDbLayerTableRecord
  2
DEFAULT_2
 70
     0
 62
     8
  6
HIDDEN
370
    -3
390
CEB
  0
LAYER
  5
17
330
1
100
AcDbSymbolTableRecord
100
AcDbLayerTableRecord
  2
DEFAULT_3
 70
     0
 62
     7
  6
PHANTOM
370
    -3
390
CEB
  0
LAYER
  5
18
330
1
100
AcDbSymbolTableRecord
100
AcDbLayerTableRecord
  2
7_DIM
 70
     0
 62
     7
  6
CONTINUOUS
370
    -3
390
CEB
  0
LAYER
  5
19
330
1
100
AcDbSymbolTableRecord
100
AcDbLayerTableRecord
  2
8_NOTE_BALLOONS_SYMBOLS_GTOLS
 70
     0
 62
     7
  6
CONTINUOUS
370
    -3
390
CEB
  0
LAYER
  5
1A
330
1
100
AcDbSymbolTableRecord
100
AcDbLayerTableRecord
  2
PENME
 70
     0
 62
     7
  6
CONTINUOUS
370
    -3
390
CEB
  0
LAYER
  5
CF8
330
1
100
AcDbSymbolTableRecord
100
AcDbLayerTableRecord
  2
Defpoints
 70
     0
 62
     7
  6
CONTINUOUS
290
     0
370
    -3
390
CEB
  0
LAYER
  5
FA6
330
1
100
AcDbSymbolTableRecord
100
AcDbLayerTableRecord
  2
AM_VIS
 70
     0
 62
     2
  6
CONTINUOUS
370
    30
390
CEB
  0
LAYER
  5
12BF
330
1
100
AcDbSymbolTableRecord
100
AcDbLayerTableRecord
  2
6
 70
     0
 62
     6
  6
CONTINUOUS
370
    -3
390
CEB
  0
LAYER
  5
1810
330
1
100
AcDbSymbolTableRecord
100
AcDbLayerTableRecord
  2
AM_REFDIM
 70
     0
 62
     6
  6
CONTINUOUS
370
    -3
390
CEB
  0
ENDTAB
  0
TABLE
  2
STYLE
  5
2
330
0
100
AcDbSymbolTable
 70
     5
  0
STYLE
  5
20
330
2
100
AcDbSymbolTableRecord
100
AcDbTextStyleTableRecord
  2
STANDARD
 70
     0
 40
0.0
 41
1.0
 50
0.0
 71
     0
 42
0.0
  3
txt
  4

  0
STYLE
  5
1D
330
2
100
AcDbSymbolTableRecord
100
AcDbTextStyleTableRecord
  2
TEXTSTYLE_0
 70
     0
 40
0.0
 41
0.8
 50
0.0
 71
     0
 42
0.2
  3
txt
  4

  0
STYLE
  5
1E
330
2
100
AcDbSymbolTableRecord
100
AcDbTextStyleTableRecord
  2
TEXTSTYLE_1
 70
     0
 40
0.0
 41
0.8
 50
0.0
 71
     0
 42
0.2
  3
times.ttf
  4

1001
ACAD
1000
Times New Roman
1071
       18
  0
STYLE
  5
1F
330
2
100
AcDbSymbolTableRecord
100
AcDbTextStyleTableRecord
  2
TEXTSTYLE_2
 70
     0
 40
0.0
 41
0.8
 50
0.0
 71
     0
 42
0.2
  3
txt
  4

  0
STYLE
  5
FA7
330
2
100
AcDbSymbolTableRecord
100
AcDbTextStyleTableRecord
  2
ROMANS
 70
     0
 40
0.0
 41
1.0
 50
0.0
 71
     0
 42
0.275
  3
ROMANS.shx
  4

  0
ENDTAB
  0
TABLE
  2
VIEW
  5
4
330
0
100
AcDbSymbolTable
 70
     1
  0
ENDTAB
  0
TABLE
  2
UCS
  5
5
330
0
100
AcDbSymbolTable
 70
     0
  0
ENDTAB
  0
TABLE
  2
APPID
  5
7
330
0
100
AcDbSymbolTable
 70
     4
  0
APPID
  5
1C
330
7
100
AcDbSymbolTableRecord
100
AcDbRegAppTableRecord
  2
ACAD
 70
     0
  0
APPID
  5
D9E
330
7
100
AcDbSymbolTableRecord
100
AcDbRegAppTableRecord
  2
ACAD_DSTYLE_DIMTEXT_FILL
 70
     0
  0
APPID
  5
F95
330
7
100
AcDbSymbolTableRecord
100
AcDbRegAppTableRecord
  2
DCO15
 70
     0
  0
APPID
  5
3C60
330
7
100
AcDbSymbolTableRecord
100
AcDbRegAppTableRecord
  2
ACAD_PSEXT
 70
     0
  0
ENDTAB
  0
TABLE
  2
DIMSTYLE
  5
8
330
0
100
AcDbSymbolTable
 70
     4
100
AcDbDimStyleTable
 71
     1
340
38
  0
DIMSTYLE
105
38
102
{ACAD_REACTORS
330
47
330
46
330
101B
330
102A
330
1038
330
1072
330
108E
330
109C
330
10B4
330
1167
330
1641
330
166D
330
167B
330
173C
330
3C2A
102
}
330
8
100
AcDbSymbolTableRecord
100
AcDbDimStyleTableRecord
  2
STANDARD
 70
     0
 40
18.0
 47
0.001
 48
0.001
140
0.1
271
     2
272
     2
289
     0
340
20
  0
DIMSTYLE
105
39
330
8
100
AcDbSymbolTableRecord
100
AcDbDimStyleTableRecord
  2
DIMSTYLE_1
 70
     0
 47
0.01
 48
0.01
140
0.1
144
18.1818181818
289
     0
340
20
  0
DIMSTYLE
105
3A
330
8
100
AcDbSymbolTableRecord
100
AcDbDimStyleTableRecord
  2
DIMSTYLE_2
 70
     0
 47
0.01
 48
0.01
140
0.1
144
6.0
289
     0
340
20
  0
DIMSTYLE
105
FA8
330
8
100
AcDbSymbolTableRecord
100
AcDbDimStyleTableRecord
  2
AM_ANSI
 70
     0
  4
mm
 41
0.1
 42
0.05
 43
0.5
 44
0.1
 47
0.1
 48
0.1
 78
     7
 79
     2
140
0.12
141
0.0
146
0.71
147
0.06
176
   256
177
   256
178
     2
274
     4
284
     7
340
20
371
    -1
372
    -1
  0
ENDTAB
  0
TABLE
  2
BLOCK_RECORD
  5
33
330
0
100
AcDbSymbolTable
 70
    58
  0
BLOCK_RECORD
  5
31
102
{ACAD_XDICTIONARY
360
FD4
102
}
330
33
100
AcDbSymbolTableRecord
100
AcDbBlockTableRecord
  2
*MODEL_SPACE
340
CF2
  0
BLOCK_RECORD
  5
32
330
33
100
AcDbSymbolTableRecord
100
AcDbBlockTableRecord
  2
*PAPER_SPACE
340
CF3
  0
BLOCK_RECORD
  5
21
330
33
100
AcDbSymbolTableRecord
100
AcDbBlockTableRecord
  2
*D0
340
0
  0
BLOCK_RECORD
  5
22
330
33
100
AcDbSymbolTableRecord
100
AcDbBlockTableRecord
  2
*D1
340
0
  0
BLOCK_RECORD
  5
23
330
33
100
AcDbSymbolTableRecord
100
AcDbBlockTableRecord
  2
*D2
340
0
  0
BLOCK_RECORD
  5
24
330
33
100
AcDbSymbolTableRecord
100
AcDbBlockTableRecord
  2
*D3
340
0
  0
BLOCK_RECORD
  5
25
330
33
100
AcDbSymbolTableRecord
100
AcDbBlockTableRecord
  2
*D4
340
0
  0
BLOCK_RECORD
  5
26
330
33
100
AcDbSymbolTableRecord
100
AcDbBlockTableRecord
  2
*D5
340
0
  0
BLOCK_RECORD
  5
27
330
33
100
AcDbSymbolTableRecord
100
AcDbBlockTableRecord
  2
*D6
340
0
  0
BLOCK_RECORD
  5
28
330
33
100
AcDbSymbolTableRecord
100
AcDbBlockTableRecord
  2
*D7
340
0
  0
BLOCK_RECORD
  5
29
330
33
100
AcDbSymbolTableRecord
100
AcDbBlockTableRecord
  2
*D8
340
0
  0
BLOCK_RECORD
  5
2A
330
33
100
AcDbSymbolTableRecord
100
AcDbBlockTableRecord
  2
*D9
340
0
  0
BLOCK_RECORD
  5
2B
330
33
100
AcDbSymbolTableRecord
100
AcDbBlockTableRecord
  2
*D10
340
0
  0
BLOCK_RECORD
  5
2C
330
33
100
AcDbSymbolTableRecord
100
AcDbBlockTableRecord
  2
*D11
340
0
  0
BLOCK_RECORD
  5
2D
330
33
100
AcDbSymbolTableRecord
100
AcDbBlockTableRecord
  2
*D12
340
0
  0
BLOCK_RECORD
  5
2E
330
33
100
AcDbSymbolTableRecord
100
AcDbBlockTableRecord
  2
*D13
340
0
  0
BLOCK_RECORD
  5
2F
330
33
100
AcDbSymbolTableRecord
100
AcDbBlockTableRecord
  2
*D14
340
0
  0
BLOCK_RECORD
  5
30
330
33
100
AcDbSymbolTableRecord
100
AcDbBlockTableRecord
  2
*D15
340
0
  0
BLOCK_RECORD
  5
101C
330
33
100
AcDbSymbolTableRecord
100
AcDbBlockTableRecord
  2
*D16
340
0
  0
BLOCK_RECORD
  5
102B
330
33
100
AcDbSymbolTableRecord
100
AcDbBlockTableRecord
  2
*D17
340
0
  0
BLOCK_RECORD
  5
1039
330
33
100
AcDbSymbolTableRecord
100
AcDbBlockTableRecord
  2
*D18
340
0
  0
BLOCK_RECORD
  5
1073
330
33
100
AcDbSymbolTableRecord
100
AcDbBlockTableRecord
  2
*D19
340
0
  0
BLOCK_RECORD
  5
1081
330
33
100
AcDbSymbolTableRecord
100
AcDbBlockTableRecord
  2
*D20
340
0
  0
BLOCK_RECORD
  5
108F
330
33
100
AcDbSymbolTableRecord
100
AcDbBlockTableRecord
  2
*D21
340
0
  0
BLOCK_RECORD
  5
109D
330
33
100
AcDbSymbolTableRecord
100
AcDbBlockTableRecord
  2
*D22
340
0
  0
BLOCK_RECORD
  5
10B5
330
33
100
AcDbSymbolTableRecord
100
AcDbBlockTableRecord
  2
*D23
340
0
  0
BLOCK_RECORD
  5
1168
330
33
100
AcDbSymbolTableRecord
100
AcDbBlockTableRecord
  2
*D24
340
0
  0
BLOCK_RECORD
  5
1634
330
33
100
AcDbSymbolTableRecord
100
AcDbBlockTableRecord
  2
*D25
340
0
  0
BLOCK_RECORD
  5
1642
330
33
100
AcDbSymbolTableRecord
100
AcDbBlockTableRecord
  2
*D26
340
0
  0
BLOCK_RECORD
  5
166E
330
33
100
AcDbSymbolTableRecord
100
AcDbBlockTableRecord
  2
*D27
340
0
  0
BLOCK_RECORD
  5
167C
330
33
100
AcDbSymbolTableRecord
100
AcDbBlockTableRecord
  2
*D28
340
0
  0
BLOCK_RECORD
  5
173D
330
33
100
AcDbSymbolTableRecord
100
AcDbBlockTableRecord
  2
*D29
340
0
  0
BLOCK_RECORD
  5
1765
330
33
100
AcDbSymbolTableRecord
100
AcDbBlockTableRecord
  2
*D30
340
0
  0
BLOCK_RECORD
  5
1772
330
33
100
AcDbSymbolTableRecord
100
AcDbBlockTableRecord
  2
*D31
340
0
  0
BLOCK_RECORD
  5
1780
330
33
100
AcDbSymbolTableRecord
100
AcDbBlockTableRecord
  2
*D32
340
0
  0
BLOCK_RECORD
  5
178D
330
33
100
AcDbSymbolTableRecord
100
AcDbBlockTableRecord
  2
*D33
340
0
  0
BLOCK_RECORD
  5
179A
330
33
100
AcDbSymbolTableRecord
100
AcDbBlockTableRecord
  2
*D34
340
0
  0
BLOCK_RECORD
  5
17A7
330
33
100
AcDbSymbolTableRecord
100
AcDbBlockTableRecord
  2
*D35
340
0
  0
BLOCK_RECORD
  5
17B5
330
33
100
AcDbSymbolTableRecord
100
AcDbBlockTableRecord
  2
*D36
340
0
  0
BLOCK_RECORD
  5
17C2
330
33
100
AcDbSymbolTableRecord
100
AcDbBlockTableRecord
  2
*D37
340
0
  0
BLOCK_RECORD
  5
17CF
330
33
100
AcDbSymbolTableRecord
100
AcDbBlockTableRecord
  2
*D38
340
0
  0
BLOCK_RECORD
  5
17DC
330
33
100
AcDbSymbolTableRecord
100
AcDbBlockTableRecord
  2
*D39
340
0
  0
BLOCK_RECORD
  5
17E9
330
33
100
AcDbSymbolTableRecord
100
AcDbBlockTableRecord
  2
*D40
340
0
  0
BLOCK_RECORD
  5
17F6
330
33
100
AcDbSymbolTableRecord
100
AcDbBlockTableRecord
  2
*D41
340
0
  0
BLOCK_RECORD
  5
1803
330
33
100
AcDbSymbolTableRecord
100
AcDbBlockTableRecord
  2
*D42
340
0
  0
BLOCK_RECORD
  5
3AFB
330
33
100
AcDbSymbolTableRecord
100
AcDbBlockTableRecord
  2
*D44
340
0
  0
BLOCK_RECORD
  5
3B08
330
33
100
AcDbSymbolTableRecord
100
AcDbBlockTableRecord
  2
*D45
340
0
  0
BLOCK_RECORD
  5
3B15
330
33
100
AcDbSymbolTableRecord
100
AcDbBlockTableRecord
  2
*D46
340
0
  0
BLOCK_RECORD
  5
3B22
330
33
100
AcDbSymbolTableRecord
100
AcDbBlockTableRecord
  2
*D47
340
0
  0
BLOCK_RECORD
  5
3B2F
330
33
100
AcDbSymbolTableRecord
100
AcDbBlockTableRecord
  2
*D48
340
0
  0
BLOCK_RECORD
  5
3B3C
330
33
100
AcDbSymbolTableRecord
100
AcDbBlockTableRecord
  2
*D49
340
0
  0
BLOCK_RECORD
  5
3B49
330
33
100
AcDbSymbolTableRecord
100
AcDbBlockTableRecord
  2
*D50
340
0
  0
BLOCK_RECORD
  5
3B57
330
33
100
AcDbSymbolTableRecord
100
AcDbBlockTableRecord
  2
*D51
340
0
  0
BLOCK_RECORD
  5
3B64
330
33
100
AcDbSymbolTableRecord
100
AcDbBlockTableRecord
  2
*D52
340
0
  0
BLOCK_RECORD
  5
3B72
330
33
100
AcDbSymbolTableRecord
100
AcDbBlockTableRecord
  2
*D53
340
0
  0
BLOCK_RECORD
  5
3B7F
330
33
100
AcDbSymbolTableRecord
100
AcDbBlockTableRecord
  2
*D54
340
0
  0
BLOCK_RECORD
  5
3B8C
330
33
100
AcDbSymbolTableRecord
100
AcDbBlockTableRecord
  2
*D55
340
0
  0
BLOCK_RECORD
  5
3B99
330
33
100
AcDbSymbolTableRecord
100
AcDbBlockTableRecord
  2
*D56
340
0
  0
BLOCK_RECORD
  5
3C35
330
33
100
AcDbSymbolTableRecord
100
AcDbBlockTableRecord
  2
*D57
340
0
  0
ENDTAB
  0
ENDSEC
  0
SECTION
  2
BLOCKS
  0
BLOCK
  5
34
330
31
100
AcDbEntity
  8
0
100
AcDbBlockBegin
  2
*MODEL_SPACE
 70
     0
 10
0.0
 20
0.0
 30
0.0
  3
*MODEL_SPACE
  1

  0
ENDBLK
  5
35
330
31
100
AcDbEntity
  8
0
100
AcDbBlockEnd
  0
BLOCK
  5
36
330
32
100
AcDbEntity
 67
     1
  8
0
100
AcDbBlockBegin
  2
*PAPER_SPACE
 70
     0
 10
0.0
 20
0.0
 30
0.0
  3
*PAPER_SPACE
  1

  0
ENDBLK
  5
37
330
32
100
AcDbEntity
 67
     1
  8
0
100
AcDbBlockEnd
  0
BLOCK
  5
929
330
21
100
AcDbEntity
  8
0
 62
     2
100
AcDbBlockBegin
  2
*D0
 70
     1
 10
0.0
 20
0.0
 30
0.0
  3
*D0
  1

  0
LINE
  5
F6A
330
21
100
AcDbEntity
  8
7_DIM
  6
Continuous
 62
     0
370
    -2
100
AcDbLine
 10
281.4117009187469
 20
-182.0948818774177
 30
0.0
 11
281.411700918747
 21
-200.4434809259838
 31
0.0
  0
LINE
  5
F6B
330
21
100
AcDbEntity
  8
7_DIM
  6
Continuous
 62
     0
370
    -2
100
AcDbLine
 10
190.4122018287419
 20
-182.0948818774177
 30
0.0
 11
190.412201828742
 21
-200.4434809259844
 31
0.0
  0
LINE
  5
F6C
330
21
100
AcDbEntity
  8
7_DIM
  6
Continuous
 62
     0
370
    -2
100
AcDbLine
 10
278.171700918747
 20
-197.2034809259838
 30
0.0
 11
240.5319513737445
 21
-197.2034809259841
 31
0.0
  0
LINE
  5
F6D
330
21
100
AcDbEntity
  8
7_DIM
  6
Continuous
 62
     0
370
    -2
100
AcDbLine
 10
193.652201828742
 20
-197.2034809259844
 30
0.0
 11
231.2919513737444
 21
-197.2034809259841
 31
0.0
  0
SOLID
  5
F6E
330
21
100
AcDbEntity
  8
7_DIM
  6
Continuous
 62
     0
100
AcDbTrace
 10
278.171700918747
 20
-196.6634809259839
 30
0.0
 11
278.171700918747
 21
-197.7434809259839
 31
0.0
 12
281.411700918747
 22
-197.2034809259838
 32
0.0
 13
281.411700918747
 23
-197.2034809259838
 33
0.0
  0
SOLID
  5
F6F
330
21
100
AcDbEntity
  8
7_DIM
  6
Continuous
 62
     0
100
AcDbTrace
 10
193.652201828742
 20
-196.6634809259844
 30
0.0
 11
193.652201828742
 21
-197.7434809259844
 31
0.0
 12
190.412201828742
 22
-197.2034809259844
 32
0.0
 13
190.412201828742
 23
-197.2034809259844
 33
0.0
  0
MTEXT
  5
F70
330
21
100
AcDbEntity
  8
7_DIM
  6
Continuous
 62
     0
100
AcDbMText
 10
235.9119513737445
 20
-197.2034809259841
 30
0.0
 40
1.8
 41
0.0
 71
     5
 72
     1
  1
\A1;91.00
 73
     1
 44
1.0
1001
ACAD
1000
MTEXTBEGIN
1070
    73
1070
     1
1070
    44
1040
1.0
1070
    74
1070
     0
1000
MTEXTEND
  0
POINT
  5
F71
330
21
100
AcDbEntity
  8
Defpoints
  6
Continuous
 62
     0
100
AcDbPoint
 10
281.4117009187469
 20
-180.9698818774178
 30
0.0
  0
POINT
  5
F72
330
21
100
AcDbEntity
  8
Defpoints
  6
Continuous
 62
     0
100
AcDbPoint
 10
190.4122018287419
 20
-180.9698818774178
 30
0.0
  0
POINT
  5
F73
330
21
100
AcDbEntity
  8
Defpoints
  6
Continuous
 62
     0
100
AcDbPoint
 10
190.412201828742
 20
-197.2034809259844
 30
0.0
  0
ENDBLK
  5
93C
330
21
100
AcDbEntity
  8
0
100
AcDbBlockEnd
  0
BLOCK
  5
93D
330
22
100
AcDbEntity
  8
0
 62
     2
100
AcDbBlockBegin
  2
*D1
 70
     1
 10
0.0
 20
0.0
 30
0.0
  3
*D1
  1

  0
LINE
  5
F7E
330
22
100
AcDbEntity
  8
7_DIM
  6
Continuous
 62
     0
370
    -2
100
AcDbLine
 10
275.9097009737669
 20
-178.5798819089314
 30
0.0
 11
275.909700973767
 21
-190.2172095370167
 31
0.0
  0
LINE
  5
F7F
330
22
100
AcDbEntity
  8
7_DIM
  6
Continuous
 62
     0
370
    -2
100
AcDbLine
 10
195.9097017737669
 20
-178.5798819089314
 30
0.0
 11
195.909701773767
 21
-190.2172095370172
 31
0.0
  0
LINE
  5
F80
330
22
100
AcDbEntity
  8
7_DIM
  6
Continuous
 62
     0
370
    -2
100
AcDbLine
 10
272.6697009737669
 20
-186.9772095370167
 30
0.0
 11
240.679701373767
 21
-186.9772095370169
 31
0.0
  0
LINE
  5
F81
330
22
100
AcDbEntity
  8
7_DIM
  6
Continuous
 62
     0
370
    -2
100
AcDbLine
 10
199.1497017737669
 20
-186.9772095370171
 30
0.0
 11
231.139701373767
 21
-186.977209537017
 31
0.0
  0
SOLID
  5
F82
330
22
100
AcDbEntity
  8
7_DIM
  6
Continuous
 62
     0
100
AcDbTrace
 10
272.6697009737669
 20
-186.4372095370167
 30
0.0
 11
272.6697009737669
 21
-187.5172095370166
 31
0.0
 12
275.9097009737669
 22
-186.9772095370167
 32
0.0
 13
275.9097009737669
 23
-186.9772095370167
 33
0.0
  0
SOLID
  5
F83
330
22
100
AcDbEntity
  8
7_DIM
  6
Continuous
 62
     0
100
AcDbTrace
 10
199.1497017737669
 20
-186.4372095370171
 30
0.0
 11
199.1497017737669
 21
-187.5172095370172
 31
0.0
 12
195.9097017737669
 22
-186.9772095370171
 32
0.0
 13
195.9097017737669
 23
-186.9772095370171
 33
0.0
  0
MTEXT
  5
F84
330
22
100
AcDbEntity
  8
7_DIM
  6
Continuous
 62
     0
100
AcDbMText
 10
235.9097013737669
 20
-186.977209537017
 30
0.0
 40
1.8
 41
0.0
 71
     5
 72
     1
  1
\A1;80.00
 73
     1
 44
1.0
1001
ACAD
1000
MTEXTBEGIN
1070
    73
1070
     1
1070
    44
1040
1.0
1070
    74
1070
     0
1000
MTEXTEND
  0
POINT
  5
F85
330
22
100
AcDbEntity
  8
Defpoints
  6
Continuous
 62
     0
100
AcDbPoint
 10
275.9097009737669
 20
-177.4548819089314
 30
0.0
  0
POINT
  5
F86
330
22
100
AcDbEntity
  8
Defpoints
  6
Continuous
 62
     0
100
AcDbPoint
 10
195.9097017737669
 20
-177.4548819089314
 30
0.0
  0
POINT
  5
F87
330
22
100
AcDbEntity
  8
Defpoints
  6
Continuous
 62
     0
100
AcDbPoint
 10
195.9097017737669
 20
-186.9772095370171
 30
0.0
  0
ENDBLK
  5
950
330
22
100
AcDbEntity
  8
0
100
AcDbBlockEnd
  0
BLOCK
  5
951
330
23
100
AcDbEntity
  8
0
 62
     2
100
AcDbBlockBegin
  2
*D2
 70
     1
 10
0.0
 20
0.0
 30
0.0
  3
*D2
  1

  0
LINE
  5
F74
330
23
100
AcDbEntity
  8
7_DIM
  6
Continuous
 62
     0
370
    -2
100
AcDbLine
 10
280.6597009262669
 20
-180.6698818880314
 30
0.0
 11
280.659700926267
 21
-195.26016050428
 31
0.0
  0
LINE
  5
F75
330
23
100
AcDbEntity
  8
7_DIM
  6
Continuous
 62
     0
370
    -2
100
AcDbLine
 10
191.1597018212669
 20
-180.6698818880314
 30
0.0
 11
191.159701821267
 21
-195.2601605042805
 31
0.0
  0
LINE
  5
F76
330
23
100
AcDbEntity
  8
7_DIM
  6
Continuous
 62
     0
370
    -2
100
AcDbLine
 10
277.419700926267
 20
-192.0201605042798
 30
0.0
 11
240.9797013737669
 21
-192.0201605042802
 31
0.0
  0
LINE
  5
F77
330
23
100
AcDbEntity
  8
7_DIM
  6
Continuous
 62
     0
370
    -2
100
AcDbLine
 10
194.399701821267
 20
-192.0201605042804
 30
0.0
 11
230.8397013737669
 21
-192.0201605042803
 31
0.0
  0
SOLID
  5
F78
330
23
100
AcDbEntity
  8
7_DIM
  6
Continuous
 62
     0
100
AcDbTrace
 10
277.419700926267
 20
-191.48016050428
 30
0.0
 11
277.419700926267
 21
-192.56016050428
 31
0.0
 12
280.659700926267
 22
-192.0201605042798
 32
0.0
 13
280.659700926267
 23
-192.0201605042798
 33
0.0
  0
SOLID
  5
F79
330
23
100
AcDbEntity
  8
7_DIM
  6
Continuous
 62
     0
100
AcDbTrace
 10
194.399701821267
 20
-191.4801605042805
 30
0.0
 11
194.399701821267
 21
-192.5601605042805
 31
0.0
 12
191.1597018212669
 22
-192.0201605042805
 32
0.0
 13
191.1597018212669
 23
-192.0201605042805
 33
0.0
  0
MTEXT
  5
F7A
330
23
100
AcDbEntity
  8
7_DIM
  6
Continuous
 62
     0
100
AcDbMText
 10
235.9097013737669
 20
-192.0201605042802
 30
0.0
 40
1.8
 41
0.0
 71
     5
 72
     1
  1
\A1;89.50
 73
     1
 44
1.0
1001
ACAD
1000
MTEXTBEGIN
1070
    73
1070
     1
1070
    44
1040
1.0
1070
    74
1070
     0
1000
MTEXTEND
  0
POINT
  5
F7B
330
23
100
AcDbEntity
  8
Defpoints
  6
Continuous
 62
     0
100
AcDbPoint
 10
280.6597009262669
 20
-179.5448818880314
 30
0.0
  0
POINT
  5
F7C
330
23
100
AcDbEntity
  8
Defpoints
  6
Continuous
 62
     0
100
AcDbPoint
 10
191.1597018212669
 20
-179.5448818880314
 30
0.0
  0
POINT
  5
F7D
330
23
100
AcDbEntity
  8
Defpoints
  6
Continuous
 62
     0
100
AcDbPoint
 10
191.1597018212669
 20
-192.0201605042805
 30
0.0
  0
ENDBLK
  5
964
330
23
100
AcDbEntity
  8
0
100
AcDbBlockEnd
  0
BLOCK
  5
965
330
24
100
AcDbEntity
  8
0
 62
     2
100
AcDbBlockBegin
  2
*D3
 70
     1
 10
0.0
 20
0.0
 30
0.0
  3
*D3
  1

  0
LINE
  5
EDC
330
24
100
AcDbEntity
  8
7_DIM
  6
Continuous
 62
     0
370
    -2
100
AcDbLine
 10
278.1710645987669
 20
-116.3185188839314
 30
0.0
 11
294.0867282880331
 21
-116.3185188839314
 31
0.0
  0
LINE
  5
EDD
330
24
100
AcDbEntity
  8
7_DIM
  6
Continuous
 62
     0
370
    -2
100
AcDbLine
 10
278.1710645987669
 20
-176.3185182839314
 30
0.0
 11
294.086728288033
 21
-176.3185182839314
 31
0.0
  0
LINE
  5
EDE
330
24
100
AcDbEntity
  8
7_DIM
  6
Continuous
 62
     0
370
    -2
100
AcDbLine
 10
290.846728288033
 20
-119.5585188839314
 30
0.0
 11
290.846728288033
 21
-143.7985185839314
 31
0.0
  0
LINE
  5
EDF
330
24
100
AcDbEntity
  8
7_DIM
  6
Continuous
 62
     0
370
    -2
100
AcDbLine
 10
290.846728288033
 20
-173.0785182839314
 30
0.0
 11
290.846728288033
 21
-148.8385185839314
 31
0.0
  0
SOLID
  5
EE0
330
24
100
AcDbEntity
  8
7_DIM
  6
Continuous
 62
     0
100
AcDbTrace
 10
290.306728288033
 20
-119.5585188839314
 30
0.0
 11
291.386728288033
 21
-119.5585188839314
 31
0.0
 12
290.846728288033
 22
-116.3185188839314
 32
0.0
 13
290.846728288033
 23
-116.3185188839314
 33
0.0
  0
SOLID
  5
EE1
330
24
100
AcDbEntity
  8
7_DIM
  6
Continuous
 62
     0
100
AcDbTrace
 10
290.3067282880329
 20
-173.0785182839314
 30
0.0
 11
291.386728288033
 21
-173.0785182839314
 31
0.0
 12
290.846728288033
 22
-176.3185182839314
 32
0.0
 13
290.846728288033
 23
-176.3185182839314
 33
0.0
  0
MTEXT
  5
EE2
330
24
100
AcDbEntity
  8
7_DIM
  6
Continuous
 62
     0
100
AcDbMText
 10
290.846728288033
 20
-146.3185185839313
 30
0.0
 40
1.8
 41
0.0
 71
     5
 72
     1
  1
\A1;60.00
 73
     1
 44
1.0
1001
ACAD
1000
MTEXTBEGIN
1070
    73
1070
     1
1070
    44
1040
1.0
1070
    74
1070
     0
1000
MTEXTEND
  0
POINT
  5
EE3
330
24
100
AcDbEntity
  8
Defpoints
  6
Continuous
 62
     0
100
AcDbPoint
 10
277.0460645987669
 20
-116.3185188839314
 30
0.0
  0
POINT
  5
EE4
330
24
100
AcDbEntity
  8
Defpoints
  6
Continuous
 62
     0
100
AcDbPoint
 10
277.0460645987669
 20
-176.3185182839314
 30
0.0
  0
POINT
  5
EE5
330
24
100
AcDbEntity
  8
Defpoints
  6
Continuous
 62
     0
100
AcDbPoint
 10
290.846728288033
 20
-176.3185182839314
 30
0.0
  0
ENDBLK
  5
978
330
24
100
AcDbEntity
  8
0
100
AcDbBlockEnd
  0
BLOCK
  5
979
330
25
100
AcDbEntity
  8
0
 62
     2
100
AcDbBlockBegin
  2
*D4
 70
     1
 10
0.0
 20
0.0
 30
0.0
  3
*D4
  1

  0
LINE
  5
ED1
330
25
100
AcDbEntity
  8
7_DIM
  6
Continuous
 62
     0
370
    -2
100
AcDbLine
 10
283.0460645500169
 20
-178.3185182639314
 30
0.0
 11
294.086728288033
 21
-178.3185182639314
 31
0.0
  0
LINE
  5
ED2
330
25
100
AcDbEntity
  8
7_DIM
  6
Continuous
 62
     0
370
    -2
100
AcDbLine
 10
278.1710645987669
 20
-176.3185182839314
 30
0.0
 11
294.086728288033
 21
-176.3185182839314
 31
0.0
  0
LINE
  5
ED3
330
25
100
AcDbEntity
  8
7_DIM
  6
Continuous
 62
     0
370
    -2
100
AcDbLine
 10
290.846728288033
 20
-181.5585182639314
 30
0.0
 11
290.846728288033
 21
-184.7985182639314
 31
0.0
  0
LINE
  5
ED4
330
25
100
AcDbEntity
  8
7_DIM
  6
Continuous
 62
     0
370
    -2
100
AcDbLine
 10
290.846728288033
 20
-173.0785182839314
 30
0.0
 11
290.846728288033
 21
-169.8385182839314
 31
0.0
  0
LINE
  5
ED5
330
25
100
AcDbEntity
  8
7_DIM
  6
Continuous
 62
     0
370
    -2
100
AcDbLine
 10
290.846728288033
 20
-169.8385182839314
 30
0.0
 11
294.086728288033
 21
-169.8385182839314
 31
0.0
  0
SOLID
  5
ED6
330
25
100
AcDbEntity
  8
7_DIM
  6
Continuous
 62
     0
100
AcDbTrace
 10
290.3067282880329
 20
-181.5585182639314
 30
0.0
 11
291.386728288033
 21
-181.5585182639314
 31
0.0
 12
290.846728288033
 22
-178.3185182639314
 32
0.0
 13
290.846728288033
 23
-178.3185182639314
 33
0.0
  0
SOLID
  5
ED7
330
25
100
AcDbEntity
  8
7_DIM
  6
Continuous
 62
     0
100
AcDbTrace
 10
290.3067282880329
 20
-173.0785182839314
 30
0.0
 11
291.386728288033
 21
-173.0785182839314
 31
0.0
 12
290.846728288033
 22
-176.3185182839314
 32
0.0
 13
290.846728288033
 23
-176.3185182839314
 33
0.0
  0
MTEXT
  5
ED8
330
25
100
AcDbEntity
  8
7_DIM
  6
Continuous
 62
     0
100
AcDbMText
 10
298.106728288033
 20
-169.8385182839314
 30
0.0
 40
1.8
 41
0.0
 71
     5
 72
     1
  1
\A1;2.00
 73
     1
 44
1.0
1001
ACAD
1000
MTEXTBEGIN
1070
    73
1070
     1
1070
    44
1040
1.0
1070
    74
1070
     0
1000
MTEXTEND
  0
POINT
  5
ED9
330
25
100
AcDbEntity
  8
Defpoints
  6
Continuous
 62
     0
100
AcDbPoint
 10
281.9210645500169
 20
-178.3185182639314
 30
0.0
  0
POINT
  5
EDA
330
25
100
AcDbEntity
  8
Defpoints
  6
Continuous
 62
     0
100
AcDbPoint
 10
277.0460645987669
 20
-176.3185182839314
 30
0.0
  0
POINT
  5
EDB
330
25
100
AcDbEntity
  8
Defpoints
  6
Continuous
 62
     0
100
AcDbPoint
 10
290.846728288033
 20
-176.3185182839314
 30
0.0
  0
ENDBLK
  5
98D
330
25
100
AcDbEntity
  8
0
100
AcDbBlockEnd
  0
BLOCK
  5
98E
330
26
100
AcDbEntity
  8
0
 62
     2
100
AcDbBlockBegin
  2
*D5
 70
     1
 10
0.0
 20
0.0
 30
0.0
  3
*D5
  1

  0
LINE
  5
EC6
330
26
100
AcDbEntity
  8
7_DIM
  6
Continuous
 62
     0
370
    -2
100
AcDbLine
 10
283.0460645500169
 20
-178.3185182639314
 30
0.0
 11
309.2861709324022
 21
-178.3185182639314
 31
0.0
  0
LINE
  5
EC7
330
26
100
AcDbEntity
  8
7_DIM
  6
Continuous
 62
     0
370
    -2
100
AcDbLine
 10
283.0460645500169
 20
-179.8185182489314
 30
0.0
 11
309.2861709324022
 21
-179.8185182489314
 31
0.0
  0
LINE
  5
EC8
330
26
100
AcDbEntity
  8
7_DIM
  6
Continuous
 62
     0
370
    -2
100
AcDbLine
 10
306.0461709324022
 20
-175.0785182639314
 30
0.0
 11
306.0461709324022
 21
-171.8385182639313
 31
0.0
  0
LINE
  5
EC9
330
26
100
AcDbEntity
  8
7_DIM
  6
Continuous
 62
     0
370
    -2
100
AcDbLine
 10
306.0461709324022
 20
-183.0585182489314
 30
0.0
 11
306.0461709324022
 21
-186.2985182489314
 31
0.0
  0
LINE
  5
ECA
330
26
100
AcDbEntity
  8
7_DIM
  6
Continuous
 62
     0
370
    -2
100
AcDbLine
 10
306.0461709324022
 20
-186.2985182489314
 30
0.0
 11
302.8061709324022
 21
-186.2985182489314
 31
0.0
  0
SOLID
  5
ECB
330
26
100
AcDbEntity
  8
7_DIM
  6
Continuous
 62
     0
100
AcDbTrace
 10
305.5061709324022
 20
-175.0785182639314
 30
0.0
 11
306.5861709324023
 21
-175.0785182639314
 31
0.0
 12
306.0461709324022
 22
-178.3185182639314
 32
0.0
 13
306.0461709324022
 23
-178.3185182639314
 33
0.0
  0
SOLID
  5
ECC
330
26
100
AcDbEntity
  8
7_DIM
  6
Continuous
 62
     0
100
AcDbTrace
 10
305.5061709324022
 20
-183.0585182489314
 30
0.0
 11
306.5861709324023
 21
-183.0585182489314
 31
0.0
 12
306.0461709324022
 22
-179.8185182489314
 32
0.0
 13
306.0461709324022
 23
-179.8185182489314
 33
0.0
  0
MTEXT
  5
ECD
330
26
100
AcDbEntity
  8
7_DIM
  6
Continuous
 62
     0
100
AcDbMText
 10
298.9361709324023
 20
-186.2985182489314
 30
0.0
 40
1.8
 41
0.0
 71
     5
 72
     1
  1
\A1;1.50
 73
     1
 44
1.0
1001
ACAD
1000
MTEXTBEGIN
1070
    73
1070
     1
1070
    44
1040
1.0
1070
    74
1070
     0
1000
MTEXTEND
  0
POINT
  5
ECE
330
26
100
AcDbEntity
  8
Defpoints
  6
Continuous
 62
     0
100
AcDbPoint
 10
281.9210645500169
 20
-178.3185182639314
 30
0.0
  0
POINT
  5
ECF
330
26
100
AcDbEntity
  8
Defpoints
  6
Continuous
 62
     0
100
AcDbPoint
 10
281.9210645500169
 20
-179.8185182489314
 30
0.0
  0
POINT
  5
ED0
330
26
100
AcDbEntity
  8
Defpoints
  6
Continuous
 62
     0
100
AcDbPoint
 10
306.0461709324022
 20
-179.8185182489314
 30
0.0
  0
ENDBLK
  5
9A2
330
26
100
AcDbEntity
  8
0
100
AcDbBlockEnd
  0
BLOCK
  5
9A3
330
27
100
AcDbEntity
  8
0
 62
     2
100
AcDbBlockBegin
  2
*D6
 70
     1
 10
0.0
 20
0.0
 30
0.0
  3
*D6
  1

  0
LINE
  5
F88
330
27
100
AcDbEntity
  8
7_DIM
  6
Continuous
 62
     0
370
    -2
100
AcDbLine
 10
195.9097017737669
 20
-178.5798819089314
 30
0.0
 11
195.909701773767
 21
-190.2172095370172
 31
0.0
  0
LINE
  5
F89
330
27
100
AcDbEntity
  8
7_DIM
  6
Continuous
 62
     0
370
    -2
100
AcDbLine
 10
191.1597018212669
 20
-180.5798818889314
 30
0.0
 11
191.1597018212669
 21
-190.2172095370172
 31
0.0
  0
LINE
  5
F8A
330
27
100
AcDbEntity
  8
7_DIM
  6
Continuous
 62
     0
370
    -2
100
AcDbLine
 10
199.1497017737669
 20
-186.9772095370171
 30
0.0
 11
202.3897017737669
 21
-186.9772095370171
 31
0.0
  0
LINE
  5
F8B
330
27
100
AcDbEntity
  8
7_DIM
  6
Continuous
 62
     0
370
    -2
100
AcDbLine
 10
187.9197018212669
 20
-186.9772095370173
 30
0.0
 11
184.6797018212669
 21
-186.9772095370173
 31
0.0
  0
SOLID
  5
F8C
330
27
100
AcDbEntity
  8
7_DIM
  6
Continuous
 62
     0
100
AcDbTrace
 10
199.1497017737669
 20
-186.4372095370171
 30
0.0
 11
199.1497017737669
 21
-187.5172095370172
 31
0.0
 12
195.9097017737669
 22
-186.9772095370171
 32
0.0
 13
195.9097017737669
 23
-186.9772095370171
 33
0.0
  0
SOLID
  5
F8D
330
27
100
AcDbEntity
  8
7_DIM
  6
Continuous
 62
     0
100
AcDbTrace
 10
187.9197018212669
 20
-186.4372095370173
 30
0.0
 11
187.9197018212669
 21
-187.5172095370172
 31
0.0
 12
191.1597018212669
 22
-186.9772095370171
 32
0.0
 13
191.1597018212669
 23
-186.9772095370171
 33
0.0
  0
MTEXT
  5
F8E
330
27
100
AcDbEntity
  8
7_DIM
  6
Continuous
 62
     0
100
AcDbMText
 10
180.3597018212669
 20
-186.9772095370173
 30
0.0
 40
1.8
 41
0.0
 71
     5
 72
     1
  1
\A1;4.75
 73
     1
 44
1.0
1001
ACAD
1000
MTEXTBEGIN
1070
    73
1070
     1
1070
    44
1040
1.0
1070
    74
1070
     0
1000
MTEXTEND
  0
POINT
  5
F8F
330
27
100
AcDbEntity
  8
Defpoints
  6
Continuous
 62
     0
100
AcDbPoint
 10
195.9097017737669
 20
-177.4548819089314
 30
0.0
  0
POINT
  5
F90
330
27
100
AcDbEntity
  8
Defpoints
  6
Continuous
 62
     0
100
AcDbPoint
 10
191.1597018212669
 20
-179.4548818889314
 30
0.0
  0
POINT
  5
F91
330
27
100
AcDbEntity
  8
Defpoints
  6
Continuous
 62
     0
100
AcDbPoint
 10
191.1597018212669
 20
-186.9772095370171
 30
0.0
  0
ENDBLK
  5
9B7
330
27
100
AcDbEntity
  8
0
100
AcDbBlockEnd
  0
BLOCK
  5
9B8
330
28
100
AcDbEntity
  8
0
 62
     2
100
AcDbBlockBegin
  2
*D7
 70
     1
 10
0.0
 20
0.0
 30
0.0
  3
*D7
  1

  0
LINE
  5
F5F
330
28
100
AcDbEntity
  8
7_DIM
  6
Continuous
 62
     0
370
    -2
100
AcDbLine
 10
275.4645151050773
 20
-115.7249377146949
 30
0.0
 11
277.8537012286934
 21
-118.9105191718274
 31
0.0
  0
LINE
  5
F60
330
28
100
AcDbEntity
  8
7_DIM
  6
Continuous
 62
     0
370
    -2
100
AcDbLine
 10
195.4645159050772
 20
-175.7249371146949
 30
0.0
 11
197.8537023995651
 21
-178.910519066323
 31
0.0
  0
LINE
  5
F61
330
28
100
AcDbEntity
  8
7_DIM
  6
Continuous
 62
     0
370
    -2
100
AcDbLine
 10
273.317701224688
 20
-118.2625191998653
 30
0.0
 11
239.2697017548392
 21
-143.7985191310915
 31
0.0
  0
LINE
  5
F62
330
28
100
AcDbEntity
  8
7_DIM
  6
Continuous
 62
     0
370
    -2
100
AcDbLine
 10
198.5017023715272
 20
-174.3745190623176
 30
0.0
 11
232.5497018413759
 21
-148.8385191310915
 31
0.0
  0
SOLID
  5
F63
330
28
100
AcDbEntity
  8
7_DIM
  6
Continuous
 62
     0
100
AcDbTrace
 10
272.9937012220176
 20
-117.830519201868
 30
0.0
 11
273.6417012273582
 21
-118.6945191978626
 31
0.0
 12
275.9097012126717
 22
-116.3185191838436
 32
0.0
 13
275.9097012126717
 23
-116.3185191838436
 33
0.0
  0
SOLID
  5
F64
330
28
100
AcDbEntity
  8
7_DIM
  6
Continuous
 62
     0
100
AcDbTrace
 10
198.1777023688569
 20
-173.9425190643203
 30
0.0
 11
198.8257023741974
 21
-174.8065190603149
 31
0.0
 12
195.9097023835434
 22
-176.3185190783393
 32
0.0
 13
195.9097023835434
 23
-176.3185190783393
 33
0.0
  0
MTEXT
  5
F65
330
28
100
AcDbEntity
  8
7_DIM
  6
Continuous
 62
     0
100
AcDbMText
 10
235.9097017981075
 20
-146.3185191310915
 30
0.0
 40
1.8
 41
0.0
 71
     5
 72
     1
  1
\A1;100.00
 73
     1
 44
1.0
1001
ACAD
1000
MTEXTBEGIN
1070
    73
1070
     1
1070
    44
1040
1.0
1070
    74
1070
     0
1000
MTEXTEND
  0
POINT
  5
F66
330
28
100
AcDbEntity
  8
Defpoints
  6
Continuous
 62
     0
100
AcDbPoint
 10
274.7895150995142
 20
-114.8249377188672
 30
0.0
  0
POINT
  5
F67
330
28
100
AcDbEntity
  8
Defpoints
  6
Continuous
 62
     0
100
AcDbPoint
 10
194.7895158995142
 20
-174.8249371188672
 30
0.0
  0
POINT
  5
F68
330
28
100
AcDbEntity
  8
Defpoints
  6
Continuous
 62
     0
100
AcDbPoint
 10
195.9097023835434
 20
-176.3185190783393
 30
0.0
  0
ENDBLK
  5
9CB
330
28
100
AcDbEntity
  8
0
100
AcDbBlockEnd
  0
BLOCK
  5
9CC
330
29
100
AcDbEntity
  8
0
 62
     2
100
AcDbBlockBegin
  2
*D8
 70
     1
 10
0.0
 20
0.0
 30
0.0
  3
*D8
  1

  0
LINE
  5
D49
330
29
100
AcDbEntity
  8
7_DIM
  6
Continuous
 62
     0
370
    -2
100
AcDbLine
 10
137.9055981901715
 20
-94.40551193698192
 30
0.0
 11
137.9055981901715
 21
-86.99229740812091
 31
0.0
  0
LINE
  5
D4A
330
29
100
AcDbEntity
  8
7_DIM
  6
Continuous
 62
     0
370
    -2
100
AcDbLine
 10
165.1783251901715
 20
-93.86308770058798
 30
0.0
 11
165.1783251901715
 21
-86.99229740812091
 31
0.0
  0
LINE
  5
D4B
330
29
100
AcDbEntity
  8
7_DIM
  6
Continuous
 62
     0
370
    -2
100
AcDbLine
 10
138.0855981901715
 20
-87.1722974081209
 30
0.0
 11
151.1186283568382
 21
-87.1722974081209
 31
0.0
  0
LINE
  5
D4C
330
29
100
AcDbEntity
  8
7_DIM
  6
Continuous
 62
     0
370
    -2
100
AcDbLine
 10
164.9983251901715
 20
-87.1722974081209
 30
0.0
 11
151.9652950235049
 21
-87.1722974081209
 31
0.0
  0
SOLID
  5
D4D
330
29
100
AcDbEntity
  8
7_DIM
  6
Continuous
 62
     0
100
AcDbTrace
 10
138.0855981901715
 20
-87.1422974081209
 30
0.0
 11
138.0855981901715
 21
-87.2022974081209
 31
0.0
 12
137.9055981901715
 22
-87.1722974081209
 32
0.0
 13
137.9055981901715
 23
-87.1722974081209
 33
0.0
  0
SOLID
  5
D4E
330
29
100
AcDbEntity
  8
7_DIM
  6
Continuous
 62
     0
100
AcDbTrace
 10
164.9983251901715
 20
-87.1422974081209
 30
0.0
 11
164.9983251901715
 21
-87.2022974081209
 31
0.0
 12
165.1783251901715
 22
-87.1722974081209
 32
0.0
 13
165.1783251901715
 23
-87.1722974081209
 33
0.0
  0
MTEXT
  5
D4F
330
29
100
AcDbEntity
  8
7_DIM
  6
Continuous
 62
     0
100
AcDbMText
 10
151.5419616901715
 20
-87.1722974081209
 30
0.0
 40
0.1
 41
0.0
 71
     5
 72
     1
  1
\A1;163.6364
 73
     1
 44
1.0
1001
ACAD
1000
MTEXTBEGIN
1070
    73
1070
     1
1070
    44
1040
1.0
1070
    74
1070
     0
1000
MTEXTEND
  0
POINT
  5
D50
330
29
100
AcDbEntity
  8
Defpoints
  6
Continuous
 62
     0
100
AcDbPoint
 10
137.9055981901715
 20
-94.46801193698192
 30
0.0
  0
POINT
  5
D51
330
29
100
AcDbEntity
  8
Defpoints
  6
Continuous
 62
     0
100
AcDbPoint
 10
165.1783251901715
 20
-93.92558770058798
 30
0.0
  0
POINT
  5
D52
330
29
100
AcDbEntity
  8
Defpoints
  6
Continuous
 62
     0
100
AcDbPoint
 10
165.1783251901715
 20
-87.1722974081209
 30
0.0
  0
ENDBLK
  5
9DE
330
29
100
AcDbEntity
  8
0
100
AcDbBlockEnd
  0
BLOCK
  5
9DF
330
2A
100
AcDbEntity
  8
0
 62
     2
100
AcDbBlockBegin
  2
*D9
 70
     1
 10
0.0
 20
0.0
 30
0.0
  3
*D9
  1

  0
LINE
  5
D53
330
2A
100
AcDbEntity
  8
7_DIM
  6
Continuous
 62
     0
370
    -2
100
AcDbLine
 10
142.3571132965655
 20
-94.58733011698194
 30
0.0
 11
142.3571132965655
 21
-91.21022536048704
 31
0.0
  0
LINE
  5
D54
330
2A
100
AcDbEntity
  8
7_DIM
  6
Continuous
 62
     0
370
    -2
100
AcDbLine
 10
160.7268100819594
 20
-94.58733011698194
 30
0.0
 11
160.7268100819594
 21
-91.21022536048704
 31
0.0
  0
LINE
  5
D55
330
2A
100
AcDbEntity
  8
7_DIM
  6
Continuous
 62
     0
370
    -2
100
AcDbLine
 10
142.5371132965655
 20
-91.39022536048706
 30
0.0
 11
151.1602950225958
 21
-91.39022536048706
 31
0.0
  0
LINE
  5
D56
330
2A
100
AcDbEntity
  8
7_DIM
  6
Continuous
 62
     0
370
    -2
100
AcDbLine
 10
160.5468100819594
 20
-91.39022536048706
 30
0.0
 11
151.9236283559291
 21
-91.39022536048706
 31
0.0
  0
SOLID
  5
D57
330
2A
100
AcDbEntity
  8
7_DIM
  6
Continuous
 62
     0
100
AcDbTrace
 10
142.5371132965655
 20
-91.36022536048706
 30
0.0
 11
142.5371132965655
 21
-91.42022536048706
 31
0.0
 12
142.3571132965655
 22
-91.39022536048706
 32
0.0
 13
142.3571132965655
 23
-91.39022536048706
 33
0.0
  0
SOLID
  5
D58
330
2A
100
AcDbEntity
  8
7_DIM
  6
Continuous
 62
     0
100
AcDbTrace
 10
160.5468100819594
 20
-91.36022536048706
 30
0.0
 11
160.5468100819594
 21
-91.42022536048706
 31
0.0
 12
160.7268100819594
 22
-91.39022536048706
 32
0.0
 13
160.7268100819594
 23
-91.39022536048706
 33
0.0
  0
MTEXT
  5
D59
330
2A
100
AcDbEntity
  8
7_DIM
  6
Continuous
 62
     0
100
AcDbMText
 10
151.5419616892625
 20
-91.39022536048706
 30
0.0
 40
0.1
 41
0.0
 71
     5
 72
     1
  1
\A1;110.2182
 73
     1
 44
1.0
1001
ACAD
1000
MTEXTBEGIN
1070
    73
1070
     1
1070
    44
1040
1.0
1070
    74
1070
     0
1000
MTEXTEND
  0
POINT
  5
D5A
330
2A
100
AcDbEntity
  8
Defpoints
  6
Continuous
 62
     0
100
AcDbPoint
 10
142.3571132965655
 20
-94.64983011698194
 30
0.0
  0
POINT
  5
D5B
330
2A
100
AcDbEntity
  8
Defpoints
  6
Continuous
 62
     0
100
AcDbPoint
 10
160.7268100819594
 20
-94.64983011698194
 30
0.0
  0
POINT
  5
D5C
330
2A
100
AcDbEntity
  8
Defpoints
  6
Continuous
 62
     0
100
AcDbPoint
 10
160.7268100819594
 20
-91.39022536048706
 30
0.0
  0
ENDBLK
  5
9F1
330
2A
100
AcDbEntity
  8
0
100
AcDbBlockEnd
  0
BLOCK
  5
9F2
330
2B
100
AcDbEntity
  8
0
 62
     2
100
AcDbBlockBegin
  2
*D10
 70
     1
 10
0.0
 20
0.0
 30
0.0
  3
*D10
  1

  0
LINE
  5
D5D
330
2B
100
AcDbEntity
  8
7_DIM
  6
Continuous
 62
     0
370
    -2
100
AcDbLine
 10
163.2843858145655
 20
-116.2002086893759
 30
0.0
 11
163.2843858145655
 21
-121.9565226457148
 31
0.0
  0
LINE
  5
D5E
330
2B
100
AcDbEntity
  8
7_DIM
  6
Continuous
 62
     0
370
    -2
100
AcDbLine
 10
139.7874163531716
 20
-116.2441480834819
 30
0.0
 11
139.7874163531716
 21
-121.956522645715
 31
0.0
  0
LINE
  5
D5F
330
2B
100
AcDbEntity
  8
7_DIM
  6
Continuous
 62
     0
370
    -2
100
AcDbLine
 10
163.1043858145655
 20
-121.7765226457148
 30
0.0
 11
151.9342344172019
 21
-121.7765226457149
 31
0.0
  0
LINE
  5
D60
330
2B
100
AcDbEntity
  8
7_DIM
  6
Continuous
 62
     0
370
    -2
100
AcDbLine
 10
139.9674163531716
 20
-121.776522645715
 30
0.0
 11
151.1375677505351
 21
-121.7765226457149
 31
0.0
  0
SOLID
  5
D61
330
2B
100
AcDbEntity
  8
7_DIM
  6
Continuous
 62
     0
100
AcDbTrace
 10
163.1043858145655
 20
-121.7465226457148
 30
0.0
 11
163.1043858145655
 21
-121.8065226457148
 31
0.0
 12
163.2843858145655
 22
-121.7765226457148
 32
0.0
 13
163.2843858145655
 23
-121.7765226457148
 33
0.0
  0
SOLID
  5
D62
330
2B
100
AcDbEntity
  8
7_DIM
  6
Continuous
 62
     0
100
AcDbTrace
 10
139.9674163531716
 20
-121.746522645715
 30
0.0
 11
139.9674163531716
 21
-121.806522645715
 31
0.0
 12
139.7874163531716
 22
-121.776522645715
 32
0.0
 13
139.7874163531716
 23
-121.776522645715
 33
0.0
  0
MTEXT
  5
D63
330
2B
100
AcDbEntity
  8
7_DIM
  6
Continuous
 62
     0
100
AcDbMText
 10
151.5359010838686
 20
-121.7765226457149
 30
0.0
 40
0.1
 41
0.0
 71
     5
 72
     1
  1
\A1;140.9818
 73
     1
 44
1.0
1001
ACAD
1000
MTEXTBEGIN
1070
    73
1070
     1
1070
    44
1040
1.0
1070
    74
1070
     0
1000
MTEXTEND
  0
POINT
  5
D64
330
2B
100
AcDbEntity
  8
Defpoints
  6
Continuous
 62
     0
100
AcDbPoint
 10
163.2843858145655
 20
-116.1377086893758
 30
0.0
  0
POINT
  5
D65
330
2B
100
AcDbEntity
  8
Defpoints
  6
Continuous
 62
     0
100
AcDbPoint
 10
139.7874163531716
 20
-116.1816480834819
 30
0.0
  0
POINT
  5
D66
330
2B
100
AcDbEntity
  8
Defpoints
  6
Continuous
 62
     0
100
AcDbPoint
 10
139.7874163531716
 20
-121.776522645715
 30
0.0
  0
ENDBLK
  5
A04
330
2B
100
AcDbEntity
  8
0
100
AcDbBlockEnd
  0
BLOCK
  5
A05
330
2C
100
AcDbEntity
  8
0
 62
     2
100
AcDbBlockBegin
  2
*D11
 70
     1
 10
0.0
 20
0.0
 30
0.0
  3
*D11
  1

  0
LINE
  5
1615
330
2C
100
AcDbEntity
  8
6
 62
     0
370
    -2
100
AcDbLine
 10
191.1507048939341
 20
-97.17801873317732
 30
0.0
 11
191.1507048939341
 21
-88.54532891599246
 31
0.0
  0
LINE
  5
1616
330
2C
100
AcDbEntity
  8
6
 62
     0
370
    -2
100
AcDbLine
 10
292.6537019664768
 20
-97.17801873317732
 30
0.0
 11
292.6537019664768
 21
-88.54532891599246
 31
0.0
  0
LINE
  5
1617
330
2C
100
AcDbEntity
  8
6
 62
     0
370
    -2
100
AcDbLine
 10
194.3907048939341
 20
-91.78532891599244
 30
0.0
 11
215.6822034302055
 21
-91.78532891599244
 31
0.0
  0
LINE
  5
1618
330
2C
100
AcDbEntity
  8
6
 62
     0
370
    -2
100
AcDbLine
 10
289.4137019664768
 20
-91.78532891599244
 30
0.0
 11
268.1222034302055
 21
-91.78532891599244
 31
0.0
  0
SOLID
  5
1619
330
2C
100
AcDbEntity
  8
6
 62
     0
100
AcDbTrace
 10
194.3907048939341
 20
-91.24532891599242
 30
0.0
 11
194.3907048939341
 21
-92.32532891599246
 31
0.0
 12
191.1507048939341
 22
-91.78532891599244
 32
0.0
 13
191.1507048939341
 23
-91.78532891599244
 33
0.0
  0
SOLID
  5
161A
330
2C
100
AcDbEntity
  8
6
 62
     0
100
AcDbTrace
 10
289.4137019664768
 20
-91.24532891599242
 30
0.0
 11
289.4137019664768
 21
-92.32532891599246
 31
0.0
 12
292.6537019664768
 22
-91.78532891599244
 32
0.0
 13
292.6537019664768
 23
-91.78532891599244
 33
0.0
  0
MTEXT
  5
161B
330
2C
100
AcDbEntity
  8
6
 62
     0
100
AcDbMText
 10
241.9022034302055
 20
-91.78532891599244
 30
0.0
 40
1.8
 41
0.0
 71
     5
 72
     1
  1
\A1;101.50 OVERALL LENGTH OF CASE
 73
     1
 44
1.0
1001
ACAD
1000
MTEXTBEGIN
1070
    73
1070
     1
1070
    44
1040
1.0
1070
    74
1070
     0
1000
MTEXTEND
  0
POINT
  5
161C
330
2C
100
AcDbEntity
  8
Defpoints
 62
     0
100
AcDbPoint
 10
191.1507048939341
 20
-98.30301873317733
 30
0.0
  0
POINT
  5
161D
330
2C
100
AcDbEntity
  8
Defpoints
 62
     0
100
AcDbPoint
 10
292.6537019664768
 20
-98.30301873317733
 30
0.0
  0
POINT
  5
161E
330
2C
100
AcDbEntity
  8
Defpoints
 62
     0
100
AcDbPoint
 10
292.6537019664768
 20
-91.78532891599244
 30
0.0
  0
ENDBLK
  5
A18
330
2C
100
AcDbEntity
  8
0
100
AcDbBlockEnd
  0
BLOCK
  5
A19
330
2D
100
AcDbEntity
  8
0
 62
     2
100
AcDbBlockBegin
  2
*D12
 70
     1
 10
0.0
 20
0.0
 30
0.0
  3
*D12
  1

  0
LINE
  5
1629
330
2D
100
AcDbEntity
  8
6
 62
     0
370
    -2
100
AcDbLine
 10
293.5347008775168
 20
-102.0416553790864
 30
0.0
 11
293.5347008775167
 21
-82.80315667067691
 31
0.0
  0
LINE
  5
162A
330
2D
100
AcDbEntity
  8
6
 62
     0
370
    -2
100
AcDbLine
 10
190.2847018700169
 20
-101.9226553802764
 30
0.0
 11
190.2847018700166
 21
-82.80315667067773
 31
0.0
  0
LINE
  5
162B
330
2D
100
AcDbEntity
  8
6
 62
     0
370
    -2
100
AcDbLine
 10
290.2947008775167
 20
-86.04315667067693
 30
0.0
 11
272.1797013737667
 21
-86.04315667067707
 31
0.0
  0
LINE
  5
162C
330
2D
100
AcDbEntity
  8
6
 62
     0
370
    -2
100
AcDbLine
 10
193.5247018700168
 20
-86.04315667067771
 30
0.0
 11
211.6397013737667
 21
-86.04315667067757
 31
0.0
  0
SOLID
  5
162D
330
2D
100
AcDbEntity
  8
6
 62
     0
100
AcDbTrace
 10
290.2947008775167
 20
-85.50315667067691
 30
0.0
 11
290.2947008775167
 21
-86.58315667067695
 31
0.0
 12
293.5347008775167
 22
-86.04315667067689
 32
0.0
 13
293.5347008775167
 23
-86.04315667067689
 33
0.0
  0
SOLID
  5
162E
330
2D
100
AcDbEntity
  8
6
 62
     0
100
AcDbTrace
 10
193.5247018700168
 20
-85.50315667067769
 30
0.0
 11
193.5247018700168
 21
-86.58315667067768
 31
0.0
 12
190.2847018700166
 22
-86.04315667067773
 32
0.0
 13
190.2847018700166
 23
-86.04315667067773
 33
0.0
  0
MTEXT
  5
162F
330
2D
100
AcDbEntity
  8
6
 62
     0
100
AcDbMText
 10
241.9097013737667
 20
-86.04315667067732
 30
0.0
 40
1.8
 41
0.0
 71
     5
 72
     1
  1
\A1;103.25 OVERALL LENGTH WITH FLANGE
 73
     1
 44
1.0
1001
ACAD
1000
MTEXTBEGIN
1070
    73
1070
     1
1070
    44
1040
1.0
1070
    74
1070
     0
1000
MTEXTEND
  0
POINT
  5
1630
330
2D
100
AcDbEntity
  8
Defpoints
 62
     0
100
AcDbPoint
 10
293.5347008775169
 20
-103.1666553790864
 30
0.0
  0
POINT
  5
1631
330
2D
100
AcDbEntity
  8
Defpoints
 62
     0
100
AcDbPoint
 10
190.2847018700169
 20
-103.0476553802764
 30
0.0
  0
POINT
  5
1632
330
2D
100
AcDbEntity
  8
Defpoints
 62
     0
100
AcDbPoint
 10
190.2847018700166
 20
-86.04315667067773
 30
0.0
  0
ENDBLK
  5
A2C
330
2D
100
AcDbEntity
  8
0
100
AcDbBlockEnd
  0
BLOCK
  5
A2D
330
2E
100
AcDbEntity
  8
0
 62
     2
100
AcDbBlockBegin
  2
*D13
 70
     1
 10
0.0
 20
0.0
 30
0.0
  3
*D13
  1

  0
LINE
  5
150B
330
2E
100
AcDbEntity
  8
6
 62
     0
370
    -2
100
AcDbLine
 10
290.5347009075169
 20
-98.69338513438734
 30
0.0
 11
290.5347009075168
 21
-88.73383950919565
 31
0.0
  0
LINE
  5
150C
330
2E
100
AcDbEntity
  8
6
 62
     0
370
    -2
100
AcDbLine
 10
193.2847018400169
 20
-98.69338513438734
 30
0.0
 11
193.2847018400168
 21
-88.73383950919643
 31
0.0
  0
LINE
  5
150D
330
2E
100
AcDbEntity
  8
6
 62
     0
370
    -2
100
AcDbLine
 10
287.2947009075168
 20
-91.97383950919569
 30
0.0
 11
247.1297013737668
 21
-91.97383950919599
 31
0.0
  0
LINE
  5
150E
330
2E
100
AcDbEntity
  8
6
 62
     0
370
    -2
100
AcDbLine
 10
196.5247018400168
 20
-91.97383950919642
 30
0.0
 11
236.6897013737669
 21
-91.97383950919606
 31
0.0
  0
SOLID
  5
150F
330
2E
100
AcDbEntity
  8
6
 62
     0
100
AcDbTrace
 10
287.2947009075168
 20
-91.43383950919568
 30
0.0
 11
287.2947009075168
 21
-92.51383950919569
 31
0.0
 12
290.5347009075168
 22
-91.97383950919563
 32
0.0
 13
290.5347009075168
 23
-91.97383950919563
 33
0.0
  0
SOLID
  5
1510
330
2E
100
AcDbEntity
  8
6
 62
     0
100
AcDbTrace
 10
196.5247018400168
 20
-91.43383950919641
 30
0.0
 11
196.5247018400168
 21
-92.51383950919642
 31
0.0
 12
193.2847018400168
 22
-91.97383950919642
 32
0.0
 13
193.2847018400168
 23
-91.97383950919642
 33
0.0
  0
MTEXT
  5
1511
330
2E
100
AcDbEntity
  8
6
 62
     0
100
AcDbMText
 10
241.9097013737669
 20
-91.97383950919606
 30
0.0
 40
1.8
 41
0.0
 71
     5
 72
     1
  1
\A1;97.25
 73
     1
 44
1.0
1001
ACAD
1000
MTEXTBEGIN
1070
    73
1070
     1
1070
    44
1040
1.0
1070
    74
1070
     0
1000
MTEXTEND
  0
POINT
  5
1512
330
2E
100
AcDbEntity
  8
Defpoints
 62
     0
100
AcDbPoint
 10
290.5347009075169
 20
-99.81838513438733
 30
0.0
  0
POINT
  5
1513
330
2E
100
AcDbEntity
  8
Defpoints
 62
     0
100
AcDbPoint
 10
193.2847018400169
 20
-99.81838513438733
 30
0.0
  0
POINT
  5
1514
330
2E
100
AcDbEntity
  8
Defpoints
 62
     0
100
AcDbPoint
 10
193.2847018400168
 20
-91.97383950919642
 30
0.0
  0
ENDBLK
  5
A40
330
2E
100
AcDbEntity
  8
0
100
AcDbBlockEnd
  0
BLOCK
  5
A41
330
2F
100
AcDbEntity
  8
0
 62
     2
100
AcDbBlockBegin
  2
*D14
 70
     1
 10
0.0
 20
0.0
 30
0.0
  3
*D14
  1

  0
LINE
  5
F4B
330
2F
100
AcDbEntity
  8
7_DIM
  6
Continuous
 62
     0
370
    -2
100
AcDbLine
 10
286.7960645125169
 20
-104.3185190039314
 30
0.0
 11
294.0867282880331
 21
-104.3185190039314
 31
0.0
  0
LINE
  5
F4C
330
2F
100
AcDbEntity
  8
7_DIM
  6
Continuous
 62
     0
370
    -2
100
AcDbLine
 10
278.1710645987669
 20
-116.3185188839314
 30
0.0
 11
294.0867282880331
 21
-116.3185188839314
 31
0.0
  0
LINE
  5
F4D
330
2F
100
AcDbEntity
  8
7_DIM
  6
Continuous
 62
     0
370
    -2
100
AcDbLine
 10
290.846728288033
 20
-107.5585190039314
 30
0.0
 11
290.846728288033
 21
-107.8834965553939
 31
0.0
  0
LINE
  5
F4E
330
2F
100
AcDbEntity
  8
7_DIM
  6
Continuous
 62
     0
370
    -2
100
AcDbLine
 10
290.846728288033
 20
-113.0785188839314
 30
0.0
 11
290.846728288033
 21
-112.9234965553939
 31
0.0
  0
SOLID
  5
F4F
330
2F
100
AcDbEntity
  8
7_DIM
  6
Continuous
 62
     0
100
AcDbTrace
 10
290.306728288033
 20
-107.5585190039314
 30
0.0
 11
291.386728288033
 21
-107.5585190039314
 31
0.0
 12
290.846728288033
 22
-104.3185190039314
 32
0.0
 13
290.846728288033
 23
-104.3185190039314
 33
0.0
  0
SOLID
  5
F50
330
2F
100
AcDbEntity
  8
7_DIM
  6
Continuous
 62
     0
100
AcDbTrace
 10
290.306728288033
 20
-113.0785188839314
 30
0.0
 11
291.386728288033
 21
-113.0785188839314
 31
0.0
 12
290.846728288033
 22
-116.3185188839314
 32
0.0
 13
290.846728288033
 23
-116.3185188839314
 33
0.0
  0
MTEXT
  5
F51
330
2F
100
AcDbEntity
  8
7_DIM
  6
Continuous
 62
     0
100
AcDbMText
 10
290.846728288033
 20
-110.4034965553939
 30
0.0
 40
1.8
 41
0.0
 71
     5
 72
     1
  1
\A1;12.00
 73
     1
 44
1.0
1001
ACAD
1000
MTEXTBEGIN
1070
    73
1070
     1
1070
    44
1040
1.0
1070
    74
1070
     0
1000
MTEXTEND
  0
POINT
  5
F52
330
2F
100
AcDbEntity
  8
Defpoints
  6
Continuous
 62
     0
100
AcDbPoint
 10
285.6710645125168
 20
-104.3185190039314
 30
0.0
  0
POINT
  5
F53
330
2F
100
AcDbEntity
  8
Defpoints
  6
Continuous
 62
     0
100
AcDbPoint
 10
277.0460645987669
 20
-116.3185188839314
 30
0.0
  0
POINT
  5
F54
330
2F
100
AcDbEntity
  8
Defpoints
  6
Continuous
 62
     0
100
AcDbPoint
 10
290.846728288033
 20
-116.3185188839314
 30
0.0
  0
ENDBLK
  5
A54
330
2F
100
AcDbEntity
  8
0
100
AcDbBlockEnd
  0
BLOCK
  5
A55
330
30
100
AcDbEntity
  8
0
 62
     2
100
AcDbBlockBegin
  2
*D15
 70
     1
 10
0.0
 20
0.0
 30
0.0
  3
*D15
  1

  0
LINE
  5
EBC
330
30
100
AcDbEntity
  8
7_DIM
  6
Continuous
 62
     0
370
    -2
100
AcDbLine
 10
286.7960645125169
 20
-104.3185190039314
 30
0.0
 11
313.6200597490634
 21
-104.3185190039314
 31
0.0
  0
LINE
  5
EBD
330
30
100
AcDbEntity
  8
7_DIM
  6
Continuous
 62
     0
370
    -2
100
AcDbLine
 10
283.0460645500169
 20
-179.8185182489314
 30
0.0
 11
313.6200597490633
 21
-179.8185182489314
 31
0.0
  0
LINE
  5
EBE
330
30
100
AcDbEntity
  8
7_DIM
  6
Continuous
 62
     0
370
    -2
100
AcDbLine
 10
310.3800597490634
 20
-107.5585190039314
 30
0.0
 11
310.3800597490633
 21
-139.5485186264314
 31
0.0
  0
LINE
  5
EBF
330
30
100
AcDbEntity
  8
7_DIM
  6
Continuous
 62
     0
370
    -2
100
AcDbLine
 10
310.3800597490633
 20
-176.5785182489314
 30
0.0
 11
310.3800597490633
 21
-144.5885186264314
 31
0.0
  0
SOLID
  5
EC0
330
30
100
AcDbEntity
  8
7_DIM
  6
Continuous
 62
     0
100
AcDbTrace
 10
309.8400597490634
 20
-107.5585190039314
 30
0.0
 11
310.9200597490634
 21
-107.5585190039314
 31
0.0
 12
310.3800597490634
 22
-104.3185190039314
 32
0.0
 13
310.3800597490634
 23
-104.3185190039314
 33
0.0
  0
SOLID
  5
EC1
330
30
100
AcDbEntity
  8
7_DIM
  6
Continuous
 62
     0
100
AcDbTrace
 10
309.8400597490633
 20
-176.5785182489314
 30
0.0
 11
310.9200597490633
 21
-176.5785182489314
 31
0.0
 12
310.3800597490633
 22
-179.8185182489314
 32
0.0
 13
310.3800597490633
 23
-179.8185182489314
 33
0.0
  0
MTEXT
  5
EC2
330
30
100
AcDbEntity
  8
7_DIM
  6
Continuous
 62
     0
100
AcDbMText
 10
310.3800597490634
 20
-142.0685186264313
 30
0.0
 40
1.8
 41
0.0
 71
     5
 72
     1
  1
\A1;75.50
 73
     1
 44
1.0
1001
ACAD
1000
MTEXTBEGIN
1070
    73
1070
     1
1070
    44
1040
1.0
1070
    74
1070
     0
1000
MTEXTEND
  0
POINT
  5
EC3
330
30
100
AcDbEntity
  8
Defpoints
  6
Continuous
 62
     0
100
AcDbPoint
 10
285.6710645125168
 20
-104.3185190039314
 30
0.0
  0
POINT
  5
EC4
330
30
100
AcDbEntity
  8
Defpoints
  6
Continuous
 62
     0
100
AcDbPoint
 10
281.9210645500169
 20
-179.8185182489314
 30
0.0
  0
POINT
  5
EC5
330
30
100
AcDbEntity
  8
Defpoints
  6
Continuous
 62
     0
100
AcDbPoint
 10
310.3800597490633
 20
-179.8185182489314
 30
0.0
  0
ENDBLK
  5
A67
330
30
100
AcDbEntity
  8
0
100
AcDbBlockEnd
  0
BLOCK
  5
1028
330
101C
100
AcDbEntity
  8
0
100
AcDbBlockBegin
  2
*D16
 70
     1
 10
0.0
 20
0.0
 30
0.0
  3
*D16
  1

  0
LINE
  5
15C4
330
101C
100
AcDbEntity
  8
6
 62
     0
370
    -2
100
AcDbLine
 10
291.0346985483124
 20
-106.3185216021131
 30
0.0
 11
311.4781321700647
 21
-106.3185216021131
 31
0.0
  0
LINE
  5
15C5
330
101C
100
AcDbEntity
  8
6
 62
     0
370
    -2
100
AcDbLine
 10
291.0346985483124
 20
-104.3185216021132
 30
0.0
 11
311.4781321700647
 21
-104.3185216021132
 31
0.0
  0
LINE
  5
15C6
330
101C
100
AcDbEntity
  8
6
 62
     0
370
    -2
100
AcDbLine
 10
308.2381321700647
 20
-109.5585216021131
 30
0.0
 11
308.2381321700647
 21
-112.7985216021131
 31
0.0
  0
LINE
  5
15C7
330
101C
100
AcDbEntity
  8
6
 62
     0
370
    -2
100
AcDbLine
 10
308.2381321700647
 20
-101.0785216021132
 30
0.0
 11
308.2381321700647
 21
-97.83852160211321
 31
0.0
  0
LINE
  5
15C8
330
101C
100
AcDbEntity
  8
6
 62
     0
370
    -2
100
AcDbLine
 10
308.2381321700647
 20
-97.83852160211321
 30
0.0
 11
311.4781321700647
 21
-97.83852160211321
 31
0.0
  0
SOLID
  5
15C9
330
101C
100
AcDbEntity
  8
6
 62
     0
100
AcDbTrace
 10
307.6981321700646
 20
-109.5585216021131
 30
0.0
 11
308.7781321700647
 21
-109.5585216021131
 31
0.0
 12
308.2381321700647
 22
-106.3185216021131
 32
0.0
 13
308.2381321700647
 23
-106.3185216021131
 33
0.0
  0
SOLID
  5
15CA
330
101C
100
AcDbEntity
  8
6
 62
     0
100
AcDbTrace
 10
307.6981321700646
 20
-101.0785216021132
 30
0.0
 11
308.7781321700647
 21
-101.0785216021132
 31
0.0
 12
308.2381321700647
 22
-104.3185216021132
 32
0.0
 13
308.2381321700647
 23
-104.3185216021132
 33
0.0
  0
MTEXT
  5
15CB
330
101C
100
AcDbEntity
  8
6
 62
     0
100
AcDbMText
 10
315.7981321700646
 20
-97.83852160211315
 30
0.0
 40
1.8
 41
0.0
 71
     5
 72
     1
  1
\A1;2.00\PBLK.
 73
     1
 44
1.0
1001
ACAD
1000
MTEXTBEGIN
1070
    73
1070
     1
1070
    44
1040
1.0
1070
    74
1070
     0
1000
MTEXTEND
  0
POINT
  5
15CC
330
101C
100
AcDbEntity
  8
Defpoints
 62
     0
100
AcDbPoint
 10
289.9096985483124
 20
-106.3185216021131
 30
0.0
  0
POINT
  5
15CD
330
101C
100
AcDbEntity
  8
Defpoints
 62
     0
100
AcDbPoint
 10
289.9096985483124
 20
-104.3185216021132
 30
0.0
  0
POINT
  5
15CE
330
101C
100
AcDbEntity
  8
Defpoints
 62
     0
100
AcDbPoint
 10
308.2381321700647
 20
-104.3185216021132
 30
0.0
  0
ENDBLK
  5
1029
330
101C
100
AcDbEntity
  8
0
100
AcDbBlockEnd
  0
BLOCK
  5
1036
330
102B
100
AcDbEntity
  8
0
100
AcDbBlockBegin
  2
*D17
 70
     1
 10
0.0
 20
0.0
 30
0.0
  3
*D17
  1

  0
LINE
  5
15BA
330
102B
100
AcDbEntity
  8
6
 62
     0
370
    -2
100
AcDbLine
 10
289.0346985483123
 20
-106.3185216021132
 30
0.0
 11
311.4781321700647
 21
-106.3185216021132
 31
0.0
  0
LINE
  5
15BB
330
102B
100
AcDbEntity
  8
6
 62
     0
370
    -2
100
AcDbLine
 10
289.0346985483124
 20
-158.3185216021132
 30
0.0
 11
311.4781321700646
 21
-158.3185216021132
 31
0.0
  0
LINE
  5
15BC
330
102B
100
AcDbEntity
  8
6
 62
     0
370
    -2
100
AcDbLine
 10
308.2381321700647
 20
-109.5585216021132
 30
0.0
 11
308.2381321700646
 21
-128.2985216021131
 31
0.0
  0
LINE
  5
15BD
330
102B
100
AcDbEntity
  8
6
 62
     0
370
    -2
100
AcDbLine
 10
308.2381321700646
 20
-155.0785216021131
 30
0.0
 11
308.2381321700646
 21
-136.3385216021132
 31
0.0
  0
SOLID
  5
15BE
330
102B
100
AcDbEntity
  8
6
 62
     0
100
AcDbTrace
 10
307.6981321700646
 20
-109.5585216021132
 30
0.0
 11
308.7781321700647
 21
-109.5585216021132
 31
0.0
 12
308.2381321700647
 22
-106.3185216021132
 32
0.0
 13
308.2381321700647
 23
-106.3185216021132
 33
0.0
  0
SOLID
  5
15BF
330
102B
100
AcDbEntity
  8
6
 62
     0
100
AcDbTrace
 10
307.6981321700646
 20
-155.0785216021131
 30
0.0
 11
308.7781321700646
 21
-155.0785216021131
 31
0.0
 12
308.2381321700646
 22
-158.3185216021132
 32
0.0
 13
308.2381321700646
 23
-158.3185216021132
 33
0.0
  0
MTEXT
  5
15C0
330
102B
100
AcDbEntity
  8
6
 62
     0
100
AcDbMText
 10
308.2381321700647
 20
-132.3185216021131
 30
0.0
 40
1.8
 41
0.0
 71
     5
 72
     1
  1
\A1;52.00\PV.A.
 73
     1
 44
1.0
1001
ACAD
1000
MTEXTBEGIN
1070
    73
1070
     1
1070
    44
1040
1.0
1070
    74
1070
     0
1000
MTEXTEND
  0
POINT
  5
15C1
330
102B
100
AcDbEntity
  8
Defpoints
 62
     0
100
AcDbPoint
 10
287.9096985483123
 20
-106.3185216021132
 30
0.0
  0
POINT
  5
15C2
330
102B
100
AcDbEntity
  8
Defpoints
 62
     0
100
AcDbPoint
 10
287.9096985483124
 20
-158.3185216021132
 30
0.0
  0
POINT
  5
15C3
330
102B
100
AcDbEntity
  8
Defpoints
 62
     0
100
AcDbPoint
 10
308.2381321700646
 20
-158.3185216021132
 30
0.0
  0
ENDBLK
  5
1037
330
102B
100
AcDbEntity
  8
0
100
AcDbBlockEnd
  0
BLOCK
  5
1045
330
1039
100
AcDbEntity
  8
0
100
AcDbBlockBegin
  2
*D18
 70
     1
 10
0.0
 20
0.0
 30
0.0
  3
*D18
  1

  0
LINE
  5
15AF
330
1039
100
AcDbEntity
  8
6
 62
     0
370
    -2
100
AcDbLine
 10
291.0346985483124
 20
-160.5685216021134
 30
0.0
 11
311.4781321700646
 21
-160.5685216021134
 31
0.0
  0
LINE
  5
15B0
330
1039
100
AcDbEntity
  8
6
 62
     0
370
    -2
100
AcDbLine
 10
291.0346985483124
 20
-158.3185216021131
 30
0.0
 11
311.4781321700646
 21
-158.3185216021131
 31
0.0
  0
LINE
  5
15B1
330
1039
100
AcDbEntity
  8
6
 62
     0
370
    -2
100
AcDbLine
 10
308.2381321700646
 20
-155.0785216021131
 30
0.0
 11
308.2381321700646
 21
-151.8385216021131
 31
0.0
  0
LINE
  5
15B2
330
1039
100
AcDbEntity
  8
6
 62
     0
370
    -2
100
AcDbLine
 10
308.2381321700646
 20
-163.8085216021134
 30
0.0
 11
308.2381321700646
 21
-167.0485216021134
 31
0.0
  0
LINE
  5
15B3
330
1039
100
AcDbEntity
  8
6
 62
     0
370
    -2
100
AcDbLine
 10
308.2381321700646
 20
-167.0485216021134
 30
0.0
 11
304.9981321700646
 21
-167.0485216021134
 31
0.0
  0
SOLID
  5
15B4
330
1039
100
AcDbEntity
  8
6
 62
     0
100
AcDbTrace
 10
307.6981321700646
 20
-155.0785216021131
 30
0.0
 11
308.7781321700646
 21
-155.0785216021131
 31
0.0
 12
308.2381321700646
 22
-158.3185216021131
 32
0.0
 13
308.2381321700646
 23
-158.3185216021131
 33
0.0
  0
SOLID
  5
15B5
330
1039
100
AcDbEntity
  8
6
 62
     0
100
AcDbTrace
 10
307.6981321700646
 20
-163.8085216021134
 30
0.0
 11
308.7781321700646
 21
-163.8085216021134
 31
0.0
 12
308.2381321700646
 22
-160.5685216021134
 32
0.0
 13
308.2381321700646
 23
-160.5685216021134
 33
0.0
  0
MTEXT
  5
15B6
330
1039
100
AcDbEntity
  8
6
 62
     0
100
AcDbMText
 10
298.2781321700647
 20
-167.0485216021134
 30
0.0
 40
1.8
 41
0.0
 71
     5
 72
     1
  1
\A1;2.25\PPOCKET
 73
     1
 44
1.0
1001
ACAD
1000
MTEXTBEGIN
1070
    73
1070
     1
1070
    44
1040
1.0
1070
    74
1070
     0
1000
MTEXTEND
  0
POINT
  5
15B7
330
1039
100
AcDbEntity
  8
Defpoints
 62
     0
100
AcDbPoint
 10
289.9096985483124
 20
-160.5685216021134
 30
0.0
  0
POINT
  5
15B8
330
1039
100
AcDbEntity
  8
Defpoints
 62
     0
100
AcDbPoint
 10
289.9096985483124
 20
-158.3185216021131
 30
0.0
  0
POINT
  5
15B9
330
1039
100
AcDbEntity
  8
Defpoints
 62
     0
100
AcDbPoint
 10
308.2381321700646
 20
-158.3185216021131
 30
0.0
  0
ENDBLK
  5
1046
330
1039
100
AcDbEntity
  8
0
100
AcDbBlockEnd
  0
BLOCK
  5
107E
330
1073
100
AcDbEntity
  8
0
100
AcDbBlockBegin
  2
*D19
 70
     1
 10
0.0
 20
0.0
 30
0.0
  3
*D19
  1

  0
LINE
  5
15D9
330
1073
100
AcDbEntity
  8
6
 62
     0
370
    -2
100
AcDbLine
 10
293.6596980620623
 20
-104.3185216021132
 30
0.0
 11
322.1635519237923
 21
-104.3185216021132
 31
0.0
  0
LINE
  5
15DA
330
1073
100
AcDbEntity
  8
6
 62
     0
370
    -2
100
AcDbLine
 10
291.0346985483124
 20
-160.5685216021134
 30
0.0
 11
322.1635519237923
 21
-160.5685216021134
 31
0.0
  0
LINE
  5
15DB
330
1073
100
AcDbEntity
  8
6
 62
     0
370
    -2
100
AcDbLine
 10
318.9235519237923
 20
-107.5585216021132
 30
0.0
 11
318.9235519237923
 21
-127.4035216021133
 31
0.0
  0
LINE
  5
15DC
330
1073
100
AcDbEntity
  8
6
 62
     0
370
    -2
100
AcDbLine
 10
318.9235519237923
 20
-157.3285216021134
 30
0.0
 11
318.9235519237923
 21
-132.4435216021133
 31
0.0
  0
SOLID
  5
15DD
330
1073
100
AcDbEntity
  8
6
 62
     0
100
AcDbTrace
 10
318.3835519237923
 20
-107.5585216021132
 30
0.0
 11
319.4635519237924
 21
-107.5585216021132
 31
0.0
 12
318.9235519237923
 22
-104.3185216021132
 32
0.0
 13
318.9235519237923
 23
-104.3185216021132
 33
0.0
  0
SOLID
  5
15DE
330
1073
100
AcDbEntity
  8
6
 62
     0
100
AcDbTrace
 10
318.3835519237923
 20
-157.3285216021134
 30
0.0
 11
319.4635519237923
 21
-157.3285216021134
 31
0.0
 12
318.9235519237923
 22
-160.5685216021134
 32
0.0
 13
318.9235519237923
 23
-160.5685216021134
 33
0.0
  0
MTEXT
  5
15DF
330
1073
100
AcDbEntity
  8
6
 62
     0
100
AcDbMText
 10
318.9235519237923
 20
-129.9235216021133
 30
0.0
 40
1.8
 41
0.0
 71
     5
 72
     1
  1
\A1;56.25
 73
     1
 44
1.0
1001
ACAD
1000
MTEXTBEGIN
1070
    73
1070
     1
1070
    44
1040
1.0
1070
    74
1070
     0
1000
MTEXTEND
  0
POINT
  5
15E0
330
1073
100
AcDbEntity
  8
Defpoints
 62
     0
100
AcDbPoint
 10
292.5346980620623
 20
-104.3185216021132
 30
0.0
  0
POINT
  5
15E1
330
1073
100
AcDbEntity
  8
Defpoints
 62
     0
100
AcDbPoint
 10
289.9096985483124
 20
-160.5685216021134
 30
0.0
  0
POINT
  5
15E2
330
1073
100
AcDbEntity
  8
Defpoints
 62
     0
100
AcDbPoint
 10
318.9235519237923
 20
-160.5685216021134
 30
0.0
  0
ENDBLK
  5
107F
330
1073
100
AcDbEntity
  8
0
100
AcDbBlockEnd
  0
BLOCK
  5
108C
330
1081
100
AcDbEntity
  8
0
100
AcDbBlockBegin
  2
*D20
 70
     1
 10
0.0
 20
0.0
 30
0.0
  3
*D20
  1

  0
LINE
  5
15F7
330
1081
100
AcDbEntity
  8
6
 62
     0
370
    -2
100
AcDbLine
 10
290.2846985483124
 20
-161.4323216021134
 30
0.0
 11
290.2846985483124
 21
-178.6837355665264
 31
0.0
  0
LINE
  5
15F8
330
1081
100
AcDbEntity
  8
6
 62
     0
370
    -2
100
AcDbLine
 10
193.5346985483123
 20
-161.4323216021135
 30
0.0
 11
193.5346985483123
 21
-178.6837355665264
 31
0.0
  0
LINE
  5
15F9
330
1081
100
AcDbEntity
  8
6
 62
     0
370
    -2
100
AcDbLine
 10
287.0446985483124
 20
-175.4437355665264
 30
0.0
 11
268.1296985483125
 21
-175.4437355665264
 31
0.0
  0
LINE
  5
15FA
330
1081
100
AcDbEntity
  8
6
 62
     0
370
    -2
100
AcDbLine
 10
196.7746985483123
 20
-175.4437355665264
 30
0.0
 11
215.6896985483124
 21
-175.4437355665264
 31
0.0
  0
SOLID
  5
15FB
330
1081
100
AcDbEntity
  8
6
 62
     0
100
AcDbTrace
 10
287.0446985483124
 20
-174.9037355665264
 30
0.0
 11
287.0446985483124
 21
-175.9837355665264
 31
0.0
 12
290.2846985483124
 22
-175.4437355665264
 32
0.0
 13
290.2846985483124
 23
-175.4437355665264
 33
0.0
  0
SOLID
  5
15FC
330
1081
100
AcDbEntity
  8
6
 62
     0
100
AcDbTrace
 10
196.7746985483123
 20
-174.9037355665264
 30
0.0
 11
196.7746985483123
 21
-175.9837355665264
 31
0.0
 12
193.5346985483123
 22
-175.4437355665264
 32
0.0
 13
193.5346985483123
 23
-175.4437355665264
 33
0.0
  0
MTEXT
  5
15FD
330
1081
100
AcDbEntity
  8
6
 62
     0
100
AcDbMText
 10
241.9096985483124
 20
-175.4437355665264
 30
0.0
 40
1.8
 41
0.0
 71
     5
 72
     1
  1
\A1;96.75 OVERALL LENGTH OF SLAT
 73
     1
 44
1.0
1001
ACAD
1000
MTEXTBEGIN
1070
    73
1070
     1
1070
    44
1040
1.0
1070
    74
1070
     0
1000
MTEXTEND
  0
POINT
  5
15FE
330
1081
100
AcDbEntity
  8
Defpoints
 62
     0
100
AcDbPoint
 10
290.2846985483124
 20
-160.3073216021134
 30
0.0
  0
POINT
  5
15FF
330
1081
100
AcDbEntity
  8
Defpoints
 62
     0
100
AcDbPoint
 10
193.5346985483123
 20
-160.3073216021135
 30
0.0
  0
POINT
  5
1600
330
1081
100
AcDbEntity
  8
Defpoints
 62
     0
100
AcDbPoint
 10
193.5346985483123
 20
-175.4437355665264
 30
0.0
  0
ENDBLK
  5
108D
330
1081
100
AcDbEntity
  8
0
100
AcDbBlockEnd
  0
BLOCK
  5
109A
330
108F
100
AcDbEntity
  8
0
100
AcDbBlockBegin
  2
*D21
 70
     1
 10
0.0
 20
0.0
 30
0.0
  3
*D21
  1

  0
LINE
  5
15ED
330
108F
100
AcDbEntity
  8
6
 62
     0
370
    -2
100
AcDbLine
 10
289.9096985483124
 20
-161.6935216021134
 30
0.0
 11
289.9096985483124
 21
-173.8135392851224
 31
0.0
  0
LINE
  5
15EE
330
108F
100
AcDbEntity
  8
6
 62
     0
370
    -2
100
AcDbLine
 10
193.9096985483123
 20
-161.6935216021135
 30
0.0
 11
193.9096985483123
 21
-173.8135392851224
 31
0.0
  0
LINE
  5
15EF
330
108F
100
AcDbEntity
  8
6
 62
     0
370
    -2
100
AcDbLine
 10
286.6696985483124
 20
-170.5735392851224
 30
0.0
 11
258.2296985483123
 21
-170.5735392851224
 31
0.0
  0
LINE
  5
15F0
330
108F
100
AcDbEntity
  8
6
 62
     0
370
    -2
100
AcDbLine
 10
197.1496985483123
 20
-170.5735392851224
 30
0.0
 11
225.5896985483123
 21
-170.5735392851224
 31
0.0
  0
SOLID
  5
15F1
330
108F
100
AcDbEntity
  8
6
 62
     0
100
AcDbTrace
 10
286.6696985483124
 20
-170.0335392851224
 30
0.0
 11
286.6696985483124
 21
-171.1135392851224
 31
0.0
 12
289.9096985483124
 22
-170.5735392851224
 32
0.0
 13
289.9096985483124
 23
-170.5735392851224
 33
0.0
  0
SOLID
  5
15F2
330
108F
100
AcDbEntity
  8
6
 62
     0
100
AcDbTrace
 10
197.1496985483123
 20
-170.0335392851224
 30
0.0
 11
197.1496985483123
 21
-171.1135392851224
 31
0.0
 12
193.9096985483123
 22
-170.5735392851224
 32
0.0
 13
193.9096985483123
 23
-170.5735392851224
 33
0.0
  0
MTEXT
  5
15F3
330
108F
100
AcDbEntity
  8
6
 62
     0
100
AcDbMText
 10
241.9096985483124
 20
-170.5735392851224
 30
0.0
 40
1.8
 41
0.0
 71
     5
 72
     1
  1
\A1;96.00 FABRIC WIDTH
 73
     1
 44
1.0
1001
ACAD
1000
MTEXTBEGIN
1070
    73
1070
     1
1070
    44
1040
1.0
1070
    74
1070
     0
1000
MTEXTEND
  0
POINT
  5
15F4
330
108F
100
AcDbEntity
  8
Defpoints
 62
     0
100
AcDbPoint
 10
289.9096985483124
 20
-160.5685216021134
 30
0.0
  0
POINT
  5
15F5
330
108F
100
AcDbEntity
  8
Defpoints
 62
     0
100
AcDbPoint
 10
193.9096985483123
 20
-160.5685216021135
 30
0.0
  0
POINT
  5
15F6
330
108F
100
AcDbEntity
  8
Defpoints
 62
     0
100
AcDbPoint
 10
193.9096985483123
 20
-170.5735392851224
 30
0.0
  0
ENDBLK
  5
109B
330
108F
100
AcDbEntity
  8
0
100
AcDbBlockEnd
  0
BLOCK
  5
10A8
330
109D
100
AcDbEntity
  8
0
100
AcDbBlockBegin
  2
*D22
 70
     1
 10
0.0
 20
0.0
 30
0.0
  3
*D22
  1

  0
LINE
  5
15E3
330
109D
100
AcDbEntity
  8
6
 62
     0
370
    -2
100
AcDbLine
 10
287.9096985483124
 20
-159.4435216021132
 30
0.0
 11
287.9096985483124
 21
-168.7097573333484
 31
0.0
  0
LINE
  5
15E4
330
109D
100
AcDbEntity
  8
6
 62
     0
370
    -2
100
AcDbLine
 10
195.9096985483123
 20
-159.4435216021132
 30
0.0
 11
195.9096985483123
 21
-168.7097573333484
 31
0.0
  0
LINE
  5
15E5
330
109D
100
AcDbEntity
  8
6
 62
     0
370
    -2
100
AcDbLine
 10
284.6696985483124
 20
-165.4697573333484
 30
0.0
 11
250.4296985483124
 21
-165.4697573333484
 31
0.0
  0
LINE
  5
15E6
330
109D
100
AcDbEntity
  8
6
 62
     0
370
    -2
100
AcDbLine
 10
199.1496985483123
 20
-165.4697573333484
 30
0.0
 11
233.3896985483123
 21
-165.4697573333484
 31
0.0
  0
SOLID
  5
15E7
330
109D
100
AcDbEntity
  8
6
 62
     0
100
AcDbTrace
 10
284.6696985483124
 20
-164.9297573333484
 30
0.0
 11
284.6696985483124
 21
-166.0097573333484
 31
0.0
 12
287.9096985483124
 22
-165.4697573333484
 32
0.0
 13
287.9096985483124
 23
-165.4697573333484
 33
0.0
  0
SOLID
  5
15E8
330
109D
100
AcDbEntity
  8
6
 62
     0
100
AcDbTrace
 10
199.1496985483123
 20
-164.9297573333484
 30
0.0
 11
199.1496985483123
 21
-166.0097573333484
 31
0.0
 12
195.9096985483123
 22
-165.4697573333484
 32
0.0
 13
195.9096985483123
 23
-165.4697573333484
 33
0.0
  0
MTEXT
  5
15E9
330
109D
100
AcDbEntity
  8
6
 62
     0
100
AcDbMText
 10
241.9096985483124
 20
-165.4697573333484
 30
0.0
 40
1.8
 41
0.0
 71
     5
 72
     1
  1
\A1;92.00 V.A.
 73
     1
 44
1.0
1001
ACAD
1000
MTEXTBEGIN
1070
    73
1070
     1
1070
    44
1040
1.0
1070
    74
1070
     0
1000
MTEXTEND
  0
POINT
  5
15EA
330
109D
100
AcDbEntity
  8
Defpoints
 62
     0
100
AcDbPoint
 10
287.9096985483124
 20
-158.3185216021132
 30
0.0
  0
POINT
  5
15EB
330
109D
100
AcDbEntity
  8
Defpoints
 62
     0
100
AcDbPoint
 10
195.9096985483123
 20
-158.3185216021132
 30
0.0
  0
POINT
  5
15EC
330
109D
100
AcDbEntity
  8
Defpoints
 62
     0
100
AcDbPoint
 10
195.9096985483123
 20
-165.4697573333484
 30
0.0
  0
ENDBLK
  5
10A9
330
109D
100
AcDbEntity
  8
0
100
AcDbBlockEnd
  0
BLOCK
  5
10C0
330
10B5
100
AcDbEntity
  8
0
100
AcDbBlockBegin
  2
*D23
 70
     1
 10
0.0
 20
0.0
 30
0.0
  3
*D23
  1

  0
LINE
  5
16D3
330
10B5
100
AcDbEntity
  8
6
 62
     0
370
    -2
100
AcDbLine
 10
195.9096985483123
 20
-159.4435216021132
 30
0.0
 11
195.9096985483123
 21
-168.7097573333484
 31
0.0
  0
LINE
  5
16D4
330
10B5
100
AcDbEntity
  8
6
 62
     0
370
    -2
100
AcDbLine
 10
193.9096985483123
 20
-161.6935216021135
 30
0.0
 11
193.9096985483123
 21
-168.7097573333484
 31
0.0
  0
LINE
  5
16D5
330
10B5
100
AcDbEntity
  8
6
 62
     0
370
    -2
100
AcDbLine
 10
199.1496985483123
 20
-165.4697573333484
 30
0.0
 11
202.3896985483123
 21
-165.4697573333484
 31
0.0
  0
LINE
  5
16D6
330
10B5
100
AcDbEntity
  8
6
 62
     0
370
    -2
100
AcDbLine
 10
190.6696985483123
 20
-165.4697573333484
 30
0.0
 11
187.4296985483123
 21
-165.4697573333484
 31
0.0
  0
SOLID
  5
16D7
330
10B5
100
AcDbEntity
  8
6
 62
     0
100
AcDbTrace
 10
199.1496985483123
 20
-164.9297573333484
 30
0.0
 11
199.1496985483123
 21
-166.0097573333484
 31
0.0
 12
195.9096985483123
 22
-165.4697573333484
 32
0.0
 13
195.9096985483123
 23
-165.4697573333484
 33
0.0
  0
SOLID
  5
16D8
330
10B5
100
AcDbEntity
  8
6
 62
     0
100
AcDbTrace
 10
190.6696985483123
 20
-164.9297573333484
 30
0.0
 11
190.6696985483123
 21
-166.0097573333484
 31
0.0
 12
193.9096985483123
 22
-165.4697573333484
 32
0.0
 13
193.9096985483123
 23
-165.4697573333484
 33
0.0
  0
MTEXT
  5
16D9
330
10B5
100
AcDbEntity
  8
6
 62
     0
100
AcDbMText
 10
179.8096985483123
 20
-165.4697573333484
 30
0.0
 40
1.8
 41
0.0
 71
     5
 72
     1
  1
\A1;2.00\PBORDERS
 73
     1
 44
1.0
1001
ACAD
1000
MTEXTBEGIN
1070
    73
1070
     1
1070
    44
1040
1.0
1070
    74
1070
     0
1000
MTEXTEND
  0
POINT
  5
16DA
330
10B5
100
AcDbEntity
  8
Defpoints
 62
     0
100
AcDbPoint
 10
195.9096985483123
 20
-158.3185216021132
 30
0.0
  0
POINT
  5
16DB
330
10B5
100
AcDbEntity
  8
Defpoints
 62
     0
100
AcDbPoint
 10
193.9096985483123
 20
-160.5685216021135
 30
0.0
  0
POINT
  5
16DC
330
10B5
100
AcDbEntity
  8
Defpoints
 62
     0
100
AcDbPoint
 10
193.9096985483123
 20
-165.4697573333484
 30
0.0
  0
ENDBLK
  5
10C1
330
10B5
100
AcDbEntity
  8
0
100
AcDbBlockEnd
  0
BLOCK
  5
1173
330
1168
100
AcDbEntity
  8
0
100
AcDbBlockBegin
  2
*D24
 70
     1
 10
0.0
 20
0.0
 30
0.0
  3
*D24
  1

  0
LINE
  5
16E8
330
1168
100
AcDbEntity
  8
6
 62
     0
370
    -2
100
AcDbLine
 10
288.4632629620636
 20
-107.2979047956733
 30
0.0
 11
289.5039640599163
 21
-109.1391451995665
 31
0.0
  0
LINE
  5
16E9
330
1168
100
AcDbEntity
  8
6
 62
     0
370
    -2
100
AcDbLine
 10
195.3561341345609
 20
-157.339138408553
 30
0.0
 11
194.3154330367083
 21
-155.4978980046599
 31
0.0
  0
LINE
  5
16EA
330
1168
100
AcDbEntity
  8
6
 62
     0
370
    -2
100
AcDbLine
 10
285.0890749508591
 20
-107.9127871137173
 30
0.0
 11
249.02200624062
 21
-128.2985216021132
 31
0.0
  0
LINE
  5
16EB
330
1168
100
AcDbEntity
  8
6
 62
     0
370
    -2
100
AcDbLine
 10
198.7303221457655
 20
-156.7242560905092
 30
0.0
 11
234.7973908560046
 21
-136.3385216021132
 31
0.0
  0
SOLID
  5
16EC
330
1168
100
AcDbEntity
  8
6
 62
     0
100
AcDbTrace
 10
284.8233640322584
 20
-107.4426831808084
 30
0.0
 11
285.3547858694597
 21
-108.3828910466261
 31
0.0
 12
287.9096985483123
 22
-106.3185216021132
 32
0.0
 13
287.9096985483123
 23
-106.3185216021132
 33
0.0
  0
SOLID
  5
16ED
330
1168
100
AcDbEntity
  8
6
 62
     0
100
AcDbTrace
 10
198.4646112271648
 20
-156.2541521576003
 30
0.0
 11
198.9960330643662
 21
-157.194360023418
 31
0.0
 12
195.9096985483123
 22
-158.3185216021132
 32
0.0
 13
195.9096985483123
 23
-158.3185216021132
 33
0.0
  0
MTEXT
  5
16EE
330
1168
100
AcDbEntity
  8
6
 62
     0
100
AcDbMText
 10
241.9096985483123
 20
-132.3185216021132
 30
0.0
 40
1.8
 41
0.0
 71
     5
 72
     1
  1
\A1;106" DIAG.\PACTUAL 105.68
 73
     1
 44
1.0
1001
ACAD
1000
MTEXTBEGIN
1070
    73
1070
     1
1070
    44
1040
1.0
1070
    74
1070
     0
1000
MTEXTEND
  0
POINT
  5
16EF
330
1168
100
AcDbEntity
  8
Defpoints
 62
     0
100
AcDbPoint
 10
287.9096985483123
 20
-106.3185216021132
 30
0.0
  0
POINT
  5
16F0
330
1168
100
AcDbEntity
  8
Defpoints
 62
     0
100
AcDbPoint
 10
195.9096985483123
 20
-158.3185216021132
 30
0.0
  0
POINT
  5
16F1
330
1168
100
AcDbEntity
  8
Defpoints
 62
     0
100
AcDbPoint
 10
195.9096985483123
 20
-158.3185216021132
 30
0.0
  0
ENDBLK
  5
1174
330
1168
100
AcDbEntity
  8
0
100
AcDbBlockEnd
  0
BLOCK
  5
163F
330
1634
100
AcDbEntity
  8
0
100
AcDbBlockBegin
  2
*D25
 70
     1
 10
0.0
 20
0.0
 30
0.0
  3
*D25
  1

  0
LINE
  5
1635
330
1634
100
AcDbEntity
  8
0
 62
     0
370
    -2
100
AcDbLine
 10
169.1263603071545
 20
-96.58351907003142
 30
0.0
 11
169.1263603071545
 21
-90.55636933607578
 31
0.0
  0
LINE
  5
1636
330
1634
100
AcDbEntity
  8
0
 62
     0
370
    -2
100
AcDbLine
 10
178.1263602171545
 20
-96.58351907003142
 30
0.0
 11
178.1263602171545
 21
-90.55636933607578
 31
0.0
  0
LINE
  5
1637
330
1634
100
AcDbEntity
  8
0
 62
     0
370
    -2
100
AcDbLine
 10
165.8863603071545
 20
-93.79636933607576
 30
0.0
 11
162.6463603071546
 21
-93.79636933607576
 31
0.0
  0
LINE
  5
1638
330
1634
100
AcDbEntity
  8
0
 62
     0
370
    -2
100
AcDbLine
 10
181.3663602171545
 20
-93.79636933607576
 30
0.0
 11
184.6063602171545
 21
-93.79636933607576
 31
0.0
  0
SOLID
  5
1639
330
1634
100
AcDbEntity
  8
0
 62
     0
100
AcDbTrace
 10
165.8863603071545
 20
-93.25636933607576
 30
0.0
 11
165.8863603071545
 21
-94.33636933607578
 31
0.0
 12
169.1263603071545
 22
-93.79636933607576
 32
0.0
 13
169.1263603071545
 23
-93.79636933607576
 33
0.0
  0
SOLID
  5
163A
330
1634
100
AcDbEntity
  8
0
 62
     0
100
AcDbTrace
 10
181.3663602171545
 20
-93.25636933607576
 30
0.0
 11
181.3663602171545
 21
-94.33636933607578
 31
0.0
 12
178.1263602171545
 22
-93.79636933607576
 32
0.0
 13
178.1263602171545
 23
-93.79636933607576
 33
0.0
  0
MTEXT
  5
163B
330
1634
100
AcDbEntity
  8
0
 62
     0
100
AcDbMText
 10
188.6263602171545
 20
-93.79636933607576
 30
0.0
 40
1.8
 41
0.0
 71
     5
 72
     1
  1
\A1;9.00
 73
     1
 44
1.0
1001
ACAD
1000
MTEXTBEGIN
1070
    73
1070
     1
1070
    44
1040
1.0
1070
    74
1070
     0
1000
MTEXTEND
  0
POINT
  5
163C
330
1634
100
AcDbEntity
  8
Defpoints
 62
     0
100
AcDbPoint
 10
169.1263603071545
 20
-97.70851907003141
 30
0.0
  0
POINT
  5
163D
330
1634
100
AcDbEntity
  8
Defpoints
 62
     0
100
AcDbPoint
 10
178.1263602171545
 20
-97.70851907003141
 30
0.0
  0
POINT
  5
163E
330
1634
100
AcDbEntity
  8
Defpoints
 62
     0
100
AcDbPoint
 10
178.1263602171545
 20
-93.79636933607576
 30
0.0
  0
ENDBLK
  5
1640
330
1634
100
AcDbEntity
  8
0
100
AcDbBlockEnd
  0
BLOCK
  5
164D
330
1642
100
AcDbEntity
  8
0
100
AcDbBlockBegin
  2
*D26
 70
     1
 10
0.0
 20
0.0
 30
0.0
  3
*D26
  1

  0
LINE
  5
1732
330
1642
100
AcDbEntity
  8
6
 62
     0
370
    -2
100
AcDbLine
 10
170.5953602924645
 20
-96.82251906764141
 30
0.0
 11
170.5953602924645
 21
-89.70346218516819
 31
0.0
  0
LINE
  5
1733
330
1642
100
AcDbEntity
  8
6
 62
     0
370
    -2
100
AcDbLine
 10
176.6573602318445
 20
-96.82251906764141
 30
0.0
 11
176.6573602318445
 21
-89.70346218516819
 31
0.0
  0
LINE
  5
1734
330
1642
100
AcDbEntity
  8
6
 62
     0
370
    -2
100
AcDbLine
 10
167.3553602924645
 20
-92.94346218516821
 30
0.0
 11
164.1153602924645
 21
-92.94346218516821
 31
0.0
  0
LINE
  5
1735
330
1642
100
AcDbEntity
  8
6
 62
     0
370
    -2
100
AcDbLine
 10
179.8973602318445
 20
-92.94346218516821
 30
0.0
 11
183.1373602318445
 21
-92.94346218516821
 31
0.0
  0
SOLID
  5
1736
330
1642
100
AcDbEntity
  8
6
 62
     0
100
AcDbTrace
 10
167.3553602924645
 20
-92.40346218516815
 30
0.0
 11
167.3553602924645
 21
-93.48346218516821
 31
0.0
 12
170.5953602924645
 22
-92.94346218516821
 32
0.0
 13
170.5953602924645
 23
-92.94346218516821
 33
0.0
  0
SOLID
  5
1737
330
1642
100
AcDbEntity
  8
6
 62
     0
100
AcDbTrace
 10
179.8973602318445
 20
-92.40346218516815
 30
0.0
 11
179.8973602318445
 21
-93.48346218516821
 31
0.0
 12
176.6573602318445
 22
-92.94346218516821
 32
0.0
 13
176.6573602318445
 23
-92.94346218516821
 33
0.0
  0
MTEXT
  5
1738
330
1642
100
AcDbEntity
  8
6
 62
     0
100
AcDbMText
 10
173.6263602621545
 20
-92.94346218516821
 30
0.0
 40
1.8
 41
0.0
 71
     5
 72
     1
  1
\A1;6.06
 73
     1
 44
1.0
1001
ACAD
1000
MTEXTBEGIN
1070
    73
1070
     1
1070
    44
1040
1.0
1070
    74
1070
     0
1000
MTEXTEND
  0
POINT
  5
1739
330
1642
100
AcDbEntity
  8
Defpoints
 62
     0
100
AcDbPoint
 10
170.5953602924645
 20
-97.9475190676414
 30
0.0
  0
POINT
  5
173A
330
1642
100
AcDbEntity
  8
Defpoints
 62
     0
100
AcDbPoint
 10
176.6573602318445
 20
-97.9475190676414
 30
0.0
  0
POINT
  5
173B
330
1642
100
AcDbEntity
  8
Defpoints
 62
     0
100
AcDbPoint
 10
176.6573602318445
 20
-92.94346218516821
 30
0.0
  0
ENDBLK
  5
164E
330
1642
100
AcDbEntity
  8
0
100
AcDbBlockEnd
  0
BLOCK
  5
1679
330
166E
100
AcDbEntity
  8
0
100
AcDbBlockBegin
  2
*D27
 70
     1
 10
0.0
 20
0.0
 30
0.0
  3
*D27
  1

  0
LINE
  5
166F
330
166E
100
AcDbEntity
  8
6
 62
     0
370
    -2
100
AcDbLine
 10
169.7473603009445
 20
-105.4280190040864
 30
0.0
 11
169.7473603009445
 21
-110.5370764066807
 31
0.0
  0
LINE
  5
1670
330
166E
100
AcDbEntity
  8
6
 62
     0
370
    -2
100
AcDbLine
 10
177.5023602233945
 20
-105.4280190040864
 30
0.0
 11
177.5023602233945
 21
-110.5370764066807
 31
0.0
  0
LINE
  5
1671
330
166E
100
AcDbEntity
  8
6
 62
     0
370
    -2
100
AcDbLine
 10
166.5073603009445
 20
-107.2970764066807
 30
0.0
 11
163.2673603009445
 21
-107.2970764066807
 31
0.0
  0
LINE
  5
1672
330
166E
100
AcDbEntity
  8
6
 62
     0
370
    -2
100
AcDbLine
 10
180.7423602233945
 20
-107.2970764066807
 30
0.0
 11
183.9823602233945
 21
-107.2970764066807
 31
0.0
  0
SOLID
  5
1673
330
166E
100
AcDbEntity
  8
6
 62
     0
100
AcDbTrace
 10
166.5073603009445
 20
-106.7570764066807
 30
0.0
 11
166.5073603009445
 21
-107.8370764066807
 31
0.0
 12
169.7473603009445
 22
-107.2970764066807
 32
0.0
 13
169.7473603009445
 23
-107.2970764066807
 33
0.0
  0
SOLID
  5
1674
330
166E
100
AcDbEntity
  8
6
 62
     0
100
AcDbTrace
 10
180.7423602233945
 20
-106.7570764066807
 30
0.0
 11
180.7423602233945
 21
-107.8370764066807
 31
0.0
 12
177.5023602233945
 22
-107.2970764066807
 32
0.0
 13
177.5023602233945
 23
-107.2970764066807
 33
0.0
  0
MTEXT
  5
1675
330
166E
100
AcDbEntity
  8
6
 62
     0
100
AcDbMText
 10
188.3023602233945
 20
-107.2970764066807
 30
0.0
 40
1.8
 41
0.0
 71
     5
 72
     1
  1
\A1;7.75
 73
     1
 44
1.0
1001
ACAD
1000
MTEXTBEGIN
1070
    73
1070
     1
1070
    44
1040
1.0
1070
    74
1070
     0
1000
MTEXTEND
  0
POINT
  5
1676
330
166E
100
AcDbEntity
  8
Defpoints
 62
     0
100
AcDbPoint
 10
169.7473603009445
 20
-104.3030190040864
 30
0.0
  0
POINT
  5
1677
330
166E
100
AcDbEntity
  8
Defpoints
 62
     0
100
AcDbPoint
 10
177.5023602233945
 20
-104.3030190040864
 30
0.0
  0
POINT
  5
1678
330
166E
100
AcDbEntity
  8
Defpoints
 62
     0
100
AcDbPoint
 10
177.5023602233945
 20
-107.2970764066807
 30
0.0
  0
ENDBLK
  5
167A
330
166E
100
AcDbEntity
  8
0
100
AcDbBlockEnd
  0
BLOCK
  5
1688
330
167C
100
AcDbEntity
  8
0
100
AcDbBlockBegin
  2
*D28
 70
     1
 10
0.0
 20
0.0
 30
0.0
  3
*D28
  1

  0
LINE
  5
1717
330
167C
100
AcDbEntity
  8
6
 62
     0
370
    -2
100
AcDbLine
 10
169.5303602918645
 20
-97.8875190682414
 30
0.0
 11
153.8264886515868
 21
-97.88751906824137
 31
0.0
  0
LINE
  5
1718
330
167C
100
AcDbEntity
  8
6
 62
     0
370
    -2
100
AcDbLine
 10
168.6223603009445
 20
-104.3030190040864
 30
0.0
 11
153.8264886515868
 21
-104.3030190040864
 31
0.0
  0
LINE
  5
1719
330
167C
100
AcDbEntity
  8
6
 62
     0
370
    -2
100
AcDbLine
 10
157.0664886515868
 20
-94.6475190682414
 30
0.0
 11
157.0664886515868
 21
-91.4075190682414
 31
0.0
  0
LINE
  5
171A
330
167C
100
AcDbEntity
  8
6
 62
     0
370
    -2
100
AcDbLine
 10
157.0664886515868
 20
-107.5430190040864
 30
0.0
 11
157.0664886515868
 21
-110.7830190040864
 31
0.0
  0
SOLID
  5
171B
330
167C
100
AcDbEntity
  8
6
 62
     0
100
AcDbTrace
 10
156.5264886515868
 20
-94.6475190682414
 30
0.0
 11
157.6064886515868
 21
-94.6475190682414
 31
0.0
 12
157.0664886515868
 22
-97.88751906824137
 32
0.0
 13
157.0664886515868
 23
-97.88751906824137
 33
0.0
  0
SOLID
  5
171C
330
167C
100
AcDbEntity
  8
6
 62
     0
100
AcDbTrace
 10
156.5264886515868
 20
-107.5430190040864
 30
0.0
 11
157.6064886515868
 21
-107.5430190040864
 31
0.0
 12
157.0664886515868
 22
-104.3030190040864
 32
0.0
 13
157.0664886515868
 23
-104.3030190040864
 33
0.0
  0
MTEXT
  5
171D
330
167C
100
AcDbEntity
  8
6
 62
     0
100
AcDbMText
 10
157.0664886515869
 20
-101.0952690361639
 30
0.0
 40
1.8
 41
0.0
 71
     5
 72
     1
  1
\A1;6.42
 73
     1
 44
1.0
1001
ACAD
1000
MTEXTBEGIN
1070
    73
1070
     1
1070
    44
1040
1.0
1070
    74
1070
     0
1000
MTEXTEND
  0
POINT
  5
171E
330
167C
100
AcDbEntity
  8
Defpoints
 62
     0
100
AcDbPoint
 10
170.6553602918645
 20
-97.8875190682414
 30
0.0
  0
POINT
  5
171F
330
167C
100
AcDbEntity
  8
Defpoints
 62
     0
100
AcDbPoint
 10
169.7473603009445
 20
-104.3030190040864
 30
0.0
  0
POINT
  5
1720
330
167C
100
AcDbEntity
  8
Defpoints
 62
     0
100
AcDbPoint
 10
157.0664886515868
 20
-104.3030190040864
 30
0.0
  0
ENDBLK
  5
1689
330
167C
100
AcDbEntity
  8
0
100
AcDbBlockEnd
  0
BLOCK
  5
1748
330
173D
100
AcDbEntity
  8
0
100
AcDbBlockBegin
  2
*D29
 70
     1
 10
0.0
 20
0.0
 30
0.0
  3
*D29
  1

  0
LINE
  5
1754
330
173D
100
AcDbEntity
  8
6
 62
     0
370
    -2
100
AcDbLine
 10
169.1263603071545
 20
-96.58351907003142
 30
0.0
 11
169.1263603071545
 21
-83.87283445859273
 31
0.0
  0
LINE
  5
1755
330
173D
100
AcDbEntity
  8
6
 62
     0
370
    -2
100
AcDbLine
 10
178.1263602171545
 20
-96.58351907003142
 30
0.0
 11
178.1263602171545
 21
-83.87283445859273
 31
0.0
  0
LINE
  5
1756
330
173D
100
AcDbEntity
  8
6
 62
     0
370
    -2
100
AcDbLine
 10
165.8863603071545
 20
-87.11283445859271
 30
0.0
 11
162.6463603071545
 21
-87.11283445859271
 31
0.0
  0
LINE
  5
1757
330
173D
100
AcDbEntity
  8
6
 62
     0
370
    -2
100
AcDbLine
 10
181.3663602171545
 20
-87.11283445859271
 30
0.0
 11
184.6063602171545
 21
-87.11283445859271
 31
0.0
  0
SOLID
  5
1758
330
173D
100
AcDbEntity
  8
6
 62
     0
100
AcDbTrace
 10
165.8863603071545
 20
-86.57283445859269
 30
0.0
 11
165.8863603071545
 21
-87.65283445859273
 31
0.0
 12
169.1263603071545
 22
-87.11283445859271
 32
0.0
 13
169.1263603071545
 23
-87.11283445859271
 33
0.0
  0
SOLID
  5
1759
330
173D
100
AcDbEntity
  8
6
 62
     0
100
AcDbTrace
 10
181.3663602171545
 20
-86.57283445859269
 30
0.0
 11
181.3663602171545
 21
-87.65283445859273
 31
0.0
 12
178.1263602171545
 22
-87.11283445859271
 32
0.0
 13
178.1263602171545
 23
-87.11283445859271
 33
0.0
  0
MTEXT
  5
175A
330
173D
100
AcDbEntity
  8
6
 62
     0
100
AcDbMText
 10
173.6263602621545
 20
-87.11283445859271
 30
0.0
 40
1.8
 41
0.0
 71
     5
 72
     1
  1
\A1;9.00
 73
     1
 44
1.0
1001
ACAD
1000
MTEXTBEGIN
1070
    73
1070
     1
1070
    44
1040
1.0
1070
    74
1070
     0
1000
MTEXTEND
  0
POINT
  5
175B
330
173D
100
AcDbEntity
  8
Defpoints
 62
     0
100
AcDbPoint
 10
169.1263603071545
 20
-97.70851907003141
 30
0.0
  0
POINT
  5
175C
330
173D
100
AcDbEntity
  8
Defpoints
 62
     0
100
AcDbPoint
 10
178.1263602171545
 20
-97.70851907003141
 30
0.0
  0
POINT
  5
175D
330
173D
100
AcDbEntity
  8
Defpoints
 62
     0
100
AcDbPoint
 10
178.1263602171545
 20
-87.11283445859271
 30
0.0
  0
ENDBLK
  5
1749
330
173D
100
AcDbEntity
  8
0
100
AcDbBlockEnd
  0
BLOCK
  5
1766
330
1765
100
AcDbEntity
  8
0
100
AcDbBlockBegin
  2
*D30
 70
     1
 10
0.0
 20
0.0
 30
0.0
  3
*D30
  1

  0
LINE
  5
1767
330
1765
100
AcDbEntity
  8
AM_REFDIM
370
    -2
100
AcDbLine
 10
-49.93252684788259
 20
-21.46291830487849
 30
0.0
 11
-49.93252684788259
 21
-35.22745129126505
 31
0.0
  0
LINE
  5
1768
330
1765
100
AcDbEntity
  8
AM_REFDIM
370
    -2
100
AcDbLine
 10
47.94247315211737
 20
-21.46291830487857
 30
0.0
 11
47.94247315211737
 21
-35.22745129126505
 31
0.0
  0
LINE
  5
1769
330
1765
100
AcDbEntity
  8
AM_REFDIM
370
    -2
100
AcDbLine
 10
-48.4925268478826
 20
-33.78745129126505
 30
0.0
 11
-25.31880619789742
 21
-33.78745129126505
 31
0.0
  0
LINE
  5
176A
330
1765
100
AcDbEntity
  8
AM_REFDIM
370
    -2
100
AcDbLine
 10
46.50247315211736
 20
-33.78745129126505
 30
0.0
 11
26.69262237353114
 21
-33.78745129126505
 31
0.0
  0
MTEXT
  5
176B
330
1765
100
AcDbEntity
  8
AM_REFDIM
100
AcDbMText
 10
0.6869080878168603
 20
-33.78745129126505
 30
0.0
 40
1.8
 41
0.0
 71
     5
 72
     1
  1
\A1;97.87" (OVERALL LENGTH OF SLAT)
  7
ROMANS
 73
     1
 44
1.0
1001
ACAD
1000
MTEXTBEGIN
1070
    73
1070
     1
1070
    44
1040
1.0
1070
    74
1070
     0
1000
MTEXTEND
  0
SOLID
  5
176C
330
1765
100
AcDbEntity
  8
AM_REFDIM
100
AcDbTrace
 10
-48.4925268478826
 20
-33.54745129126505
 30
0.0
 11
-48.4925268478826
 21
-34.02745129126505
 31
0.0
 12
-49.93252684788259
 22
-33.78745129126505
 32
0.0
 13
-49.93252684788259
 23
-33.78745129126505
 33
0.0
  0
SOLID
  5
176D
330
1765
100
AcDbEntity
  8
AM_REFDIM
100
AcDbTrace
 10
46.50247315211736
 20
-33.54745129126505
 30
0.0
 11
46.50247315211736
 21
-34.02745129126505
 31
0.0
 12
47.94247315211737
 22
-33.78745129126505
 32
0.0
 13
47.94247315211737
 23
-33.78745129126505
 33
0.0
  0
POINT
  5
176E
330
1765
100
AcDbEntity
  8
Defpoints
 62
     0
100
AcDbPoint
 10
-49.93252684788259
 20
-20.33791830487849
 30
0.0
  0
POINT
  5
176F
330
1765
100
AcDbEntity
  8
Defpoints
 62
     0
100
AcDbPoint
 10
47.94247315211737
 20
-20.33791830487857
 30
0.0
  0
POINT
  5
1770
330
1765
100
AcDbEntity
  8
Defpoints
 62
     0
100
AcDbPoint
 10
47.94247315211737
 20
-33.78745129126505
 30
0.0
  0
ENDBLK
  5
1771
330
1765
100
AcDbEntity
  8
0
100
AcDbBlockEnd
  0
BLOCK
  5
1773
330
1772
100
AcDbEntity
  8
0
100
AcDbBlockBegin
  2
*D31
 70
     1
 10
0.0
 20
0.0
 30
0.0
  3
*D31
  1

  0
LINE
  5
1774
330
1772
100
AcDbEntity
  8
AM_REFDIM
370
    -2
100
AcDbLine
 10
48.12997315211736
 20
33.97458169512147
 30
0.0
 11
55.43940808781682
 21
33.97458169512147
 31
0.0
  0
LINE
  5
1775
330
1772
100
AcDbEntity
  8
AM_REFDIM
370
    -2
100
AcDbLine
 10
49.56747315211739
 20
35.97442360537533
 30
0.0
 11
55.43940808781682
 21
35.97442360537533
 31
0.0
  0
LINE
  5
1776
330
1772
100
AcDbEntity
  8
AM_REFDIM
370
    -2
100
AcDbLine
 10
53.99940808781682
 20
32.53458169512147
 30
0.0
 11
53.99940808781682
 21
31.09458169512147
 31
0.0
  0
LINE
  5
1777
330
1772
100
AcDbEntity
  8
AM_REFDIM
370
    -2
100
AcDbLine
 10
53.99940808781682
 20
37.41442360537533
 30
0.0
 11
53.99940808781682
 21
40.69928733014563
 31
0.0
  0
LINE
  5
1778
330
1772
100
AcDbEntity
  8
AM_REFDIM
370
    -2
100
AcDbLine
 10
53.99940808781682
 20
40.69928733014563
 30
0.0
 11
55.43940808781682
 21
40.69928733014563
 31
0.0
  0
SOLID
  5
1779
330
1772
100
AcDbEntity
  8
AM_REFDIM
100
AcDbTrace
 10
53.75940808781682
 20
32.53458169512147
 30
0.0
 11
54.23940808781683
 21
32.53458169512147
 31
0.0
 12
53.99940808781682
 22
33.97458169512147
 32
0.0
 13
53.99940808781682
 23
33.97458169512147
 33
0.0
  0
SOLID
  5
177A
330
1772
100
AcDbEntity
  8
AM_REFDIM
100
AcDbTrace
 10
53.75940808781682
 20
37.41442360537533
 30
0.0
 11
54.23940808781683
 21
37.41442360537533
 31
0.0
 12
53.99940808781682
 22
35.97442360537533
 32
0.0
 13
53.99940808781682
 23
35.97442360537533
 33
0.0
  0
MTEXT
  5
177B
330
1772
100
AcDbEntity
  8
AM_REFDIM
100
AcDbMText
 10
59.80226523067396
 20
40.69928733014565
 30
0.0
 40
1.8
 41
0.0
 71
     5
 72
     1
  1
\A1;2.00\PBLK
  7
ROMANS
 73
     1
 44
1.0
1001
ACAD
1000
MTEXTBEGIN
1070
    73
1070
     1
1070
    44
1040
1.0
1070
    74
1070
     0
1000
MTEXTEND
  0
POINT
  5
177C
330
1772
100
AcDbEntity
  8
Defpoints
 62
     0
100
AcDbPoint
 10
47.00497315211736
 20
33.97458169512147
 30
0.0
  0
POINT
  5
177D
330
1772
100
AcDbEntity
  8
Defpoints
 62
     0
100
AcDbPoint
 10
48.44247315211738
 20
35.97442360537533
 30
0.0
  0
POINT
  5
177E
330
1772
100
AcDbEntity
  8
Defpoints
 62
     0
100
AcDbPoint
 10
53.99940808781682
 20
35.97442360537533
 30
0.0
  0
ENDBLK
  5
177F
330
1772
100
AcDbEntity
  8
0
100
AcDbBlockEnd
  0
BLOCK
  5
1781
330
1780
100
AcDbEntity
  8
0
100
AcDbBlockBegin
  2
*D32
 70
     1
 10
0.0
 20
0.0
 30
0.0
  3
*D32
  1

  0
LINE
  5
1782
330
1780
100
AcDbEntity
  8
AM_REFDIM
370
    -2
100
AcDbLine
 10
-46.99502684788256
 20
-19.15041830487853
 30
0.0
 11
-46.99502684788256
 21
-26.02864176584799
 31
0.0
  0
LINE
  5
1783
330
1780
100
AcDbEntity
  8
AM_REFDIM
370
    -2
100
AcDbLine
 10
-48.99502684788259
 20
-21.13851355904956
 30
0.0
 11
-48.99502684788259
 21
-26.02864176584799
 31
0.0
  0
LINE
  5
1784
330
1780
100
AcDbEntity
  8
AM_REFDIM
370
    -2
100
AcDbLine
 10
-45.55502684788256
 20
-24.58864176584799
 30
0.0
 11
-44.11502684788256
 21
-24.58864176584799
 31
0.0
  0
LINE
  5
1785
330
1780
100
AcDbEntity
  8
AM_REFDIM
370
    -2
100
AcDbLine
 10
-50.4350268478826
 20
-24.58864176584799
 30
0.0
 11
-51.8750268478826
 21
-24.58864176584799
 31
0.0
  0
SOLID
  5
1786
330
1780
100
AcDbEntity
  8
AM_REFDIM
100
AcDbTrace
 10
-45.55502684788256
 20
-24.34864176584799
 30
0.0
 11
-45.55502684788256
 21
-24.82864176584799
 31
0.0
 12
-46.99502684788256
 22
-24.58864176584799
 32
0.0
 13
-46.99502684788256
 23
-24.58864176584799
 33
0.0
  0
SOLID
  5
1787
330
1780
100
AcDbEntity
  8
AM_REFDIM
100
AcDbTrace
 10
-50.4350268478826
 20
-24.34864176584799
 30
0.0
 11
-50.4350268478826
 21
-24.82864176584799
 31
0.0
 12
-48.99502684788259
 22
-24.58864176584799
 32
0.0
 13
-48.99502684788259
 23
-24.58864176584799
 33
0.0
  0
MTEXT
  5
1788
330
1780
100
AcDbEntity
  8
AM_REFDIM
100
AcDbMText
 10
-59.40931256216831
 20
-24.58864176584799
 30
0.0
 40
1.8
 41
0.0
 71
     5
 72
     1
  1
\A1;2.00\PBORDERS\PTYP
  7
ROMANS
 73
     1
 44
1.0
1001
ACAD
1000
MTEXTBEGIN
1070
    73
1070
     1
1070
    44
1040
1.0
1070
    74
1070
     0
1000
MTEXTEND
  0
POINT
  5
1789
330
1780
100
AcDbEntity
  8
Defpoints
 62
     0
100
AcDbPoint
 10
-46.99502684788256
 20
-18.02541830487853
 30
0.0
  0
POINT
  5
178A
330
1780
100
AcDbEntity
  8
Defpoints
 62
     0
100
AcDbPoint
 10
-48.99502684788259
 20
-20.01351355904956
 30
0.0
  0
POINT
  5
178B
330
1780
100
AcDbEntity
  8
Defpoints
 62
     0
100
AcDbPoint
 10
-48.99502684788259
 20
-24.58864176584799
 30
0.0
  0
ENDBLK
  5
178C
330
1780
100
AcDbEntity
  8
0
100
AcDbBlockEnd
  0
BLOCK
  5
178E
330
178D
100
AcDbEntity
  8
0
100
AcDbBlockBegin
  2
*D33
 70
     1
 10
0.0
 20
0.0
 30
0.0
  3
*D33
  1

  0
LINE
  5
178F
330
178D
100
AcDbEntity
  8
AM_REFDIM
370
    -2
100
AcDbLine
 10
89.13197118783589
 20
41.73858169512146
 30
0.0
 11
96.79074472172494
 21
41.73858169512146
 31
0.0
  0
LINE
  5
1790
330
178D
100
AcDbEntity
  8
AM_REFDIM
370
    -2
100
AcDbLine
 10
88.7832810575037
 20
35.86358169512148
 30
0.0
 11
96.79074472172494
 21
35.86358169512148
 31
0.0
  0
LINE
  5
1791
330
178D
100
AcDbEntity
  8
AM_REFDIM
370
    -2
100
AcDbLine
 10
95.35074472172494
 20
43.17858169512147
 30
0.0
 11
95.35074472172494
 21
44.61858169512146
 31
0.0
  0
LINE
  5
1792
330
178D
100
AcDbEntity
  8
AM_REFDIM
370
    -2
100
AcDbLine
 10
95.35074472172494
 20
34.42358169512148
 30
0.0
 11
95.35074472172494
 21
32.98358169512147
 31
0.0
  0
SOLID
  5
1793
330
178D
100
AcDbEntity
  8
AM_REFDIM
100
AcDbTrace
 10
95.11074472172495
 20
43.17858169512147
 30
0.0
 11
95.59074472172495
 21
43.17858169512147
 31
0.0
 12
95.35074472172494
 22
41.73858169512146
 32
0.0
 13
95.35074472172494
 23
41.73858169512146
 33
0.0
  0
SOLID
  5
1794
330
178D
100
AcDbEntity
  8
AM_REFDIM
100
AcDbTrace
 10
95.11074472172495
 20
34.42358169512148
 30
0.0
 11
95.59074472172495
 21
34.42358169512148
 31
0.0
 12
95.35074472172494
 22
35.86358169512148
 32
0.0
 13
95.35074472172494
 23
35.86358169512148
 33
0.0
  0
MTEXT
  5
1795
330
178D
100
AcDbEntity
  8
AM_REFDIM
100
AcDbMText
 10
95.35074472172494
 20
38.8010816951215
 30
0.0
 40
1.8
 41
0.0
 71
     5
 72
     1
  1
\A1;5.88
  7
ROMANS
 73
     1
 44
1.0
1001
ACAD
1000
MTEXTBEGIN
1070
    73
1070
     1
1070
    44
1040
1.0
1070
    74
1070
     0
1000
MTEXTEND
  0
POINT
  5
1796
330
178D
100
AcDbEntity
  8
Defpoints
 62
     0
100
AcDbPoint
 10
88.00697118783588
 20
41.73858169512146
 30
0.0
  0
POINT
  5
1797
330
178D
100
AcDbEntity
  8
Defpoints
 62
     0
100
AcDbPoint
 10
87.65828105750371
 20
35.86358169512148
 30
0.0
  0
POINT
  5
1798
330
178D
100
AcDbEntity
  8
Defpoints
 62
     0
100
AcDbPoint
 10
95.35074472172494
 20
35.86358169512148
 30
0.0
  0
ENDBLK
  5
1799
330
178D
100
AcDbEntity
  8
0
100
AcDbBlockEnd
  0
BLOCK
  5
179B
330
179A
100
AcDbEntity
  8
0
100
AcDbBlockBegin
  2
*D34
 70
     1
 10
0.0
 20
0.0
 30
0.0
  3
*D34
  1

  0
LINE
  5
179C
330
179A
100
AcDbEntity
  8
AM_REFDIM
370
    -2
100
AcDbLine
 10
88.00710579060837
 20
40.74322562315367
 30
0.0
 11
88.00710579060837
 21
46.26819471523258
 31
0.0
  0
LINE
  5
179D
330
179A
100
AcDbEntity
  8
AM_REFDIM
370
    -2
100
AcDbLine
 10
83.37607119598157
 20
39.12158169512146
 30
0.0
 11
83.37607119598157
 21
46.26819471523258
 31
0.0
  0
LINE
  5
179E
330
179A
100
AcDbEntity
  8
AM_REFDIM
370
    -2
100
AcDbLine
 10
89.44710579060837
 20
44.82819471523259
 30
0.0
 11
90.88710579060837
 21
44.82819471523259
 31
0.0
  0
LINE
  5
179F
330
179A
100
AcDbEntity
  8
AM_REFDIM
370
    -2
100
AcDbLine
 10
81.93607119598155
 20
44.82819471523259
 30
0.0
 11
80.49607119598155
 21
44.82819471523259
 31
0.0
  0
SOLID
  5
17A0
330
179A
100
AcDbEntity
  8
AM_REFDIM
100
AcDbTrace
 10
89.44710579060837
 20
45.0681947152326
 30
0.0
 11
89.44710579060837
 21
44.58819471523258
 31
0.0
 12
88.00710579060837
 22
44.82819471523259
 32
0.0
 13
88.00710579060837
 23
44.82819471523259
 33
0.0
  0
SOLID
  5
17A1
330
179A
100
AcDbEntity
  8
AM_REFDIM
100
AcDbTrace
 10
81.93607119598155
 20
45.0681947152326
 30
0.0
 11
81.93607119598155
 21
44.58819471523258
 31
0.0
 12
83.37607119598157
 22
44.82819471523259
 32
0.0
 13
83.37607119598157
 23
44.82819471523259
 33
0.0
  0
MTEXT
  5
17A2
330
179A
100
AcDbEntity
  8
AM_REFDIM
100
AcDbMText
 10
76.13321405312442
 20
44.82819471523259
 30
0.0
 40
1.8
 41
0.0
 71
     5
 72
     1
  1
\A1;4.63
  7
ROMANS
 73
     1
 44
1.0
1001
ACAD
1000
MTEXTBEGIN
1070
    73
1070
     1
1070
    44
1040
1.0
1070
    74
1070
     0
1000
MTEXTEND
  0
POINT
  5
17A3
330
179A
100
AcDbEntity
  8
Defpoints
 62
     0
100
AcDbPoint
 10
88.00710579060837
 20
39.61822562315367
 30
0.0
  0
POINT
  5
17A4
330
179A
100
AcDbEntity
  8
Defpoints
 62
     0
100
AcDbPoint
 10
83.37607119598157
 20
37.99658169512146
 30
0.0
  0
POINT
  5
17A5
330
179A
100
AcDbEntity
  8
Defpoints
 62
     0
100
AcDbPoint
 10
83.37607119598157
 20
44.82819471523259
 30
0.0
  0
ENDBLK
  5
17A6
330
179A
100
AcDbEntity
  8
0
100
AcDbBlockEnd
  0
BLOCK
  5
17A8
330
17A7
100
AcDbEntity
  8
0
100
AcDbBlockBegin
  2
*D35
 70
     1
 10
0.0
 20
0.0
 30
0.0
  3
*D35
  1

  0
LINE
  5
17A9
330
17A7
100
AcDbEntity
  8
AM_REFDIM
370
    -2
100
AcDbLine
 10
48.12997315211736
 20
-18.02541830487853
 30
0.0
 11
62.31440808781688
 21
-18.02541830487853
 31
0.0
  0
LINE
  5
17AA
330
17A7
100
AcDbEntity
  8
AM_REFDIM
370
    -2
100
AcDbLine
 10
48.12997315211736
 20
-20.27541830487853
 30
0.0
 11
62.31440808781688
 21
-20.27541830487853
 31
0.0
  0
LINE
  5
17AB
330
17A7
100
AcDbEntity
  8
AM_REFDIM
370
    -2
100
AcDbLine
 10
60.87440808781689
 20
-16.58541830487853
 30
0.0
 11
60.87440808781689
 21
-15.14541830487853
 31
0.0
  0
LINE
  5
17AC
330
17A7
100
AcDbEntity
  8
AM_REFDIM
370
    -2
100
AcDbLine
 10
60.87440808781689
 20
-21.71541830487853
 30
0.0
 11
60.87440808781689
 21
-23.15541830487854
 31
0.0
  0
LINE
  5
17AD
330
17A7
100
AcDbEntity
  8
AM_REFDIM
370
    -2
100
AcDbLine
 10
60.87440808781689
 20
-23.15541830487854
 30
0.0
 11
59.43440808781688
 21
-23.15541830487854
 31
0.0
  0
SOLID
  5
17AE
330
17A7
100
AcDbEntity
  8
AM_REFDIM
100
AcDbTrace
 10
60.63440808781688
 20
-16.58541830487853
 30
0.0
 11
61.11440808781688
 21
-16.58541830487853
 31
0.0
 12
60.87440808781689
 22
-18.02541830487853
 32
0.0
 13
60.87440808781689
 23
-18.02541830487853
 33
0.0
  0
SOLID
  5
17AF
330
17A7
100
AcDbEntity
  8
AM_REFDIM
100
AcDbTrace
 10
60.63440808781688
 20
-21.71541830487853
 30
0.0
 11
61.11440808781688
 21
-21.71541830487853
 31
0.0
 12
60.87440808781689
 22
-20.27541830487853
 32
0.0
 13
60.87440808781689
 23
-20.27541830487853
 33
0.0
  0
MTEXT
  5
17B0
330
17A7
100
AcDbEntity
  8
AM_REFDIM
100
AcDbMText
 10
54.42869380210261
 20
-23.15541830487852
 30
0.0
 40
1.8
 41
0.0
 71
     5
 72
     1
  1
\A1;2.25"
  7
ROMANS
 73
     1
 44
1.0
1001
ACAD
1000
MTEXTBEGIN
1070
    73
1070
     1
1070
    44
1040
1.0
1070
    74
1070
     0
1000
MTEXTEND
  0
POINT
  5
17B1
330
17A7
100
AcDbEntity
  8
Defpoints
 62
     0
100
AcDbPoint
 10
47.00497315211736
 20
-18.02541830487853
 30
0.0
  0
POINT
  5
17B2
330
17A7
100
AcDbEntity
  8
Defpoints
 62
     0
100
AcDbPoint
 10
47.00497315211736
 20
-20.27541830487853
 30
0.0
  0
POINT
  5
17B3
330
17A7
100
AcDbEntity
  8
Defpoints
 62
     0
100
AcDbPoint
 10
60.87440808781689
 20
-20.27541830487853
 30
0.0
  0
ENDBLK
  5
17B4
330
17A7
100
AcDbEntity
  8
0
100
AcDbBlockEnd
  0
BLOCK
  5
17B6
330
17B5
100
AcDbEntity
  8
0
100
AcDbBlockBegin
  2
*D36
 70
     1
 10
0.0
 20
0.0
 30
0.0
  3
*D36
  1

  0
LINE
  5
17B7
330
17B5
100
AcDbEntity
  8
AM_REFDIM
370
    -2
100
AcDbLine
 10
48.12997315211736
 20
-20.27541830487853
 30
0.0
 11
69.44565808781685
 21
-20.27541830487853
 31
0.0
  0
LINE
  5
17B8
330
17B5
100
AcDbEntity
  8
AM_REFDIM
370
    -2
100
AcDbLine
 10
49.56747315211739
 20
35.97442360537533
 30
0.0
 11
69.44565808781688
 21
35.97442360537533
 31
0.0
  0
LINE
  5
17B9
330
17B5
100
AcDbEntity
  8
AM_REFDIM
370
    -2
100
AcDbLine
 10
68.00565808781687
 20
-18.83541830487853
 30
0.0
 11
68.00565808781687
 21
5.158074078819825
 31
0.0
  0
LINE
  5
17BA
330
17B5
100
AcDbEntity
  8
AM_REFDIM
370
    -2
100
AcDbLine
 10
68.00565808781688
 20
34.53442360537533
 30
0.0
 11
68.00565808781687
 21
10.54093122167697
 31
0.0
  0
SOLID
  5
17BB
330
17B5
100
AcDbEntity
  8
AM_REFDIM
100
AcDbTrace
 10
67.76565808781687
 20
-18.83541830487853
 30
0.0
 11
68.24565808781686
 21
-18.83541830487853
 31
0.0
 12
68.00565808781687
 22
-20.27541830487853
 32
0.0
 13
68.00565808781687
 23
-20.27541830487853
 33
0.0
  0
SOLID
  5
17BC
330
17B5
100
AcDbEntity
  8
AM_REFDIM
100
AcDbTrace
 10
67.76565808781689
 20
34.53442360537533
 30
0.0
 11
68.24565808781689
 21
34.53442360537533
 31
0.0
 12
68.00565808781688
 22
35.97442360537533
 32
0.0
 13
68.00565808781688
 23
35.97442360537533
 33
0.0
  0
MTEXT
  5
17BD
330
17B5
100
AcDbEntity
  8
AM_REFDIM
100
AcDbMText
 10
68.00565808781687
 20
7.849502650248407
 30
0.0
 40
1.8
 41
0.0
 71
     5
 72
     1
  1
\A1;56.25"
  7
ROMANS
 73
     1
 44
1.0
1001
ACAD
1000
MTEXTBEGIN
1070
    73
1070
     1
1070
    44
1040
1.0
1070
    74
1070
     0
1000
MTEXTEND
  0
POINT
  5
17BE
330
17B5
100
AcDbEntity
  8
Defpoints
 62
     0
100
AcDbPoint
 10
47.00497315211736
 20
-20.27541830487853
 30
0.0
  0
POINT
  5
17BF
330
17B5
100
AcDbEntity
  8
Defpoints
 62
     0
100
AcDbPoint
 10
48.44247315211738
 20
35.97442360537533
 30
0.0
  0
POINT
  5
17C0
330
17B5
100
AcDbEntity
  8
Defpoints
 62
     0
100
AcDbPoint
 10
68.00565808781688
 20
35.97442360537533
 30
0.0
  0
ENDBLK
  5
17C1
330
17B5
100
AcDbEntity
  8
0
100
AcDbBlockEnd
  0
BLOCK
  5
17C3
330
17C2
100
AcDbEntity
  8
0
100
AcDbBlockBegin
  2
*D37
 70
     1
 10
0.0
 20
0.0
 30
0.0
  3
*D37
  1

  0
LINE
  5
17C4
330
17C2
100
AcDbEntity
  8
AM_REFDIM
370
    -2
100
AcDbLine
 10
48.12997315211736
 20
-18.02541830487853
 30
0.0
 11
55.4394080878168
 21
-18.02541830487853
 31
0.0
  0
LINE
  5
17C5
330
17C2
100
AcDbEntity
  8
AM_REFDIM
370
    -2
100
AcDbLine
 10
48.12997315211736
 20
33.97458169512147
 30
0.0
 11
55.43940808781683
 21
33.97458169512147
 31
0.0
  0
LINE
  5
17C6
330
17C2
100
AcDbEntity
  8
AM_REFDIM
370
    -2
100
AcDbLine
 10
53.99940808781682
 20
-16.58541830487853
 30
0.0
 11
53.99940808781682
 21
3.783153123692896
 31
0.0
  0
LINE
  5
17C7
330
17C2
100
AcDbEntity
  8
AM_REFDIM
370
    -2
100
AcDbLine
 10
53.99940808781683
 20
32.53458169512147
 30
0.0
 11
53.99940808781682
 21
12.16601026655004
 31
0.0
  0
SOLID
  5
17C8
330
17C2
100
AcDbEntity
  8
AM_REFDIM
100
AcDbTrace
 10
53.75940808781681
 20
-16.58541830487853
 30
0.0
 11
54.23940808781682
 21
-16.58541830487853
 31
0.0
 12
53.99940808781682
 22
-18.02541830487853
 32
0.0
 13
53.99940808781682
 23
-18.02541830487853
 33
0.0
  0
SOLID
  5
17C9
330
17C2
100
AcDbEntity
  8
AM_REFDIM
100
AcDbTrace
 10
53.75940808781683
 20
32.53458169512147
 30
0.0
 11
54.23940808781683
 21
32.53458169512147
 31
0.0
 12
53.99940808781683
 22
33.97458169512147
 32
0.0
 13
53.99940808781683
 23
33.97458169512147
 33
0.0
  0
MTEXT
  5
17CA
330
17C2
100
AcDbEntity
  8
AM_REFDIM
100
AcDbMText
 10
53.99940808781682
 20
7.974581695121477
 30
0.0
 40
1.8
 41
0.0
 71
     5
 72
     1
  1
\A1;52.00"\PVAH
  7
ROMANS
 73
     1
 44
1.0
1001
ACAD
1000
MTEXTBEGIN
1070
    73
1070
     1
1070
    44
1040
1.0
1070
    74
1070
     0
1000
MTEXTEND
  0
POINT
  5
17CB
330
17C2
100
AcDbEntity
  8
Defpoints
 62
     0
100
AcDbPoint
 10
47.00497315211736
 20
-18.02541830487853
 30
0.0
  0
POINT
  5
17CC
330
17C2
100
AcDbEntity
  8
Defpoints
 62
     0
100
AcDbPoint
 10
47.00497315211736
 20
33.97458169512147
 30
0.0
  0
POINT
  5
17CD
330
17C2
100
AcDbEntity
  8
Defpoints
 62
     0
100
AcDbPoint
 10
53.99940808781683
 20
33.97458169512147
 30
0.0
  0
ENDBLK
  5
17CE
330
17C2
100
AcDbEntity
  8
0
100
AcDbBlockEnd
  0
BLOCK
  5
17D0
330
17CF
100
AcDbEntity
  8
0
100
AcDbBlockBegin
  2
*D38
 70
     1
 10
0.0
 20
0.0
 30
0.0
  3
*D38
  1

  0
LINE
  5
17D1
330
17CF
100
AcDbEntity
  8
AM_REFDIM
370
    -2
100
AcDbLine
 10
-48.99502684788259
 20
-21.13851355904956
 30
0.0
 11
-48.99502684788259
 21
-30.72745129126505
 31
0.0
  0
LINE
  5
17D2
330
17CF
100
AcDbEntity
  8
AM_REFDIM
370
    -2
100
AcDbLine
 10
47.00497315211736
 20
-21.13851355904956
 30
0.0
 11
47.00497315211736
 21
-30.72745129126505
 31
0.0
  0
LINE
  5
17D3
330
17CF
100
AcDbEntity
  8
AM_REFDIM
370
    -2
100
AcDbLine
 10
-47.5550268478826
 20
-29.28745129126505
 30
0.0
 11
-18.25788399073976
 21
-29.28745129126505
 31
0.0
  0
LINE
  5
17D4
330
17CF
100
AcDbEntity
  8
AM_REFDIM
370
    -2
100
AcDbLine
 10
45.56497315211736
 20
-29.28745129126505
 30
0.0
 11
16.26783029497452
 21
-29.28745129126505
 31
0.0
  0
SOLID
  5
17D5
330
17CF
100
AcDbEntity
  8
AM_REFDIM
100
AcDbTrace
 10
-47.5550268478826
 20
-29.04745129126505
 30
0.0
 11
-47.5550268478826
 21
-29.52745129126505
 31
0.0
 12
-48.99502684788259
 22
-29.28745129126505
 32
0.0
 13
-48.99502684788259
 23
-29.28745129126505
 33
0.0
  0
SOLID
  5
17D6
330
17CF
100
AcDbEntity
  8
AM_REFDIM
100
AcDbTrace
 10
45.56497315211736
 20
-29.04745129126505
 30
0.0
 11
45.56497315211736
 21
-29.52745129126505
 31
0.0
 12
47.00497315211736
 22
-29.28745129126505
 32
0.0
 13
47.00497315211736
 23
-29.28745129126505
 33
0.0
  0
MTEXT
  5
17D7
330
17CF
100
AcDbEntity
  8
AM_REFDIM
100
AcDbMText
 10
-0.9950268478826204
 20
-29.28745129126505
 30
0.0
 40
1.8
 41
0.0
 71
     5
 72
     1
  1
\A1;96.00" (FABRIC WIDTH)
  7
ROMANS
 73
     1
 44
1.0
1001
ACAD
1000
MTEXTBEGIN
1070
    73
1070
     1
1070
    44
1040
1.0
1070
    74
1070
     0
1000
MTEXTEND
  0
POINT
  5
17D8
330
17CF
100
AcDbEntity
  8
Defpoints
 62
     0
100
AcDbPoint
 10
-48.99502684788259
 20
-20.01351355904956
 30
0.0
  0
POINT
  5
17D9
330
17CF
100
AcDbEntity
  8
Defpoints
 62
     0
100
AcDbPoint
 10
47.00497315211736
 20
-20.01351355904956
 30
0.0
  0
POINT
  5
17DA
330
17CF
100
AcDbEntity
  8
Defpoints
 62
     0
100
AcDbPoint
 10
47.00497315211736
 20
-29.28745129126505
 30
0.0
  0
ENDBLK
  5
17DB
330
17CF
100
AcDbEntity
  8
0
100
AcDbBlockEnd
  0
BLOCK
  5
17DD
330
17DC
100
AcDbEntity
  8
0
100
AcDbBlockBegin
  2
*D39
 70
     1
 10
0.0
 20
0.0
 30
0.0
  3
*D39
  1

  0
LINE
  5
17DE
330
17DC
100
AcDbEntity
  8
AM_REFDIM
370
    -2
100
AcDbLine
 10
-46.99502684788256
 20
-19.15041830487853
 30
0.0
 11
-46.99502684788256
 21
-26.02864176584796
 31
0.0
  0
LINE
  5
17DF
330
17DC
100
AcDbEntity
  8
AM_REFDIM
370
    -2
100
AcDbLine
 10
45.00497315211741
 20
-19.15041830487849
 30
0.0
 11
45.00497315211741
 21
-26.02864176584796
 31
0.0
  0
LINE
  5
17E0
330
17DC
100
AcDbEntity
  8
AM_REFDIM
370
    -2
100
AcDbLine
 10
-45.55502684788256
 20
-24.58864176584796
 30
0.0
 11
-10.32931256216829
 21
-24.58864176584796
 31
0.0
  0
LINE
  5
17E1
330
17DC
100
AcDbEntity
  8
AM_REFDIM
370
    -2
100
AcDbLine
 10
43.5649731521174
 20
-24.58864176584796
 30
0.0
 11
8.339258866403133
 21
-24.58864176584796
 31
0.0
  0
SOLID
  5
17E2
330
17DC
100
AcDbEntity
  8
AM_REFDIM
100
AcDbTrace
 10
-45.55502684788256
 20
-24.34864176584796
 30
0.0
 11
-45.55502684788256
 21
-24.82864176584796
 31
0.0
 12
-46.99502684788256
 22
-24.58864176584796
 32
0.0
 13
-46.99502684788256
 23
-24.58864176584796
 33
0.0
  0
SOLID
  5
17E3
330
17DC
100
AcDbEntity
  8
AM_REFDIM
100
AcDbTrace
 10
43.5649731521174
 20
-24.34864176584796
 30
0.0
 11
43.5649731521174
 21
-24.82864176584796
 31
0.0
 12
45.00497315211741
 22
-24.58864176584796
 32
0.0
 13
45.00497315211741
 23
-24.58864176584796
 33
0.0
  0
MTEXT
  5
17E4
330
17DC
100
AcDbEntity
  8
AM_REFDIM
100
AcDbMText
 10
-0.9950268478825812
 20
-24.58864176584796
 30
0.0
 40
1.8
 41
0.0
 71
     5
 72
     1
  1
\A1;92.00" VAW
  7
ROMANS
 73
     1
 44
1.0
1001
ACAD
1000
MTEXTBEGIN
1070
    73
1070
     1
1070
    44
1040
1.0
1070
    74
1070
     0
1000
MTEXTEND
  0
POINT
  5
17E5
330
17DC
100
AcDbEntity
  8
Defpoints
 62
     0
100
AcDbPoint
 10
-46.99502684788256
 20
-18.02541830487853
 30
0.0
  0
POINT
  5
17E6
330
17DC
100
AcDbEntity
  8
Defpoints
 62
     0
100
AcDbPoint
 10
45.00497315211741
 20
-18.02541830487849
 30
0.0
  0
POINT
  5
17E7
330
17DC
100
AcDbEntity
  8
Defpoints
 62
     0
100
AcDbPoint
 10
45.00497315211741
 20
-24.58864176584796
 30
0.0
  0
ENDBLK
  5
17E8
330
17DC
100
AcDbEntity
  8
0
100
AcDbBlockEnd
  0
BLOCK
  5
17EA
330
17E9
100
AcDbEntity
  8
0
100
AcDbBlockBegin
  2
*D40
 70
     1
 10
0.0
 20
0.0
 30
0.0
  3
*D40
  1

  0
LINE
  5
17EB
330
17E9
100
AcDbEntity
  8
AM_REFDIM
370
    -2
100
AcDbLine
 10
-47.54859126163395
 20
-17.04603511131838
 30
0.0
 11
-47.70358929748438
 21
-16.77180781712148
 31
0.0
  0
LINE
  5
17EC
330
17E9
100
AcDbEntity
  8
AM_REFDIM
370
    -2
100
AcDbLine
 10
44.45140873836596
 20
34.95396488868163
 30
0.0
 11
44.29641070251554
 21
35.22819218287853
 31
0.0
  0
LINE
  5
17ED
330
17E9
100
AcDbEntity
  8
AM_REFDIM
370
    -2
100
AcDbLine
 10
-45.7414163601256
 20
-17.31685585527669
 30
0.0
 11
-8.713927946783734
 21
3.611724552264388
 31
0.0
  0
LINE
  5
17EE
330
17E9
100
AcDbEntity
  8
AM_REFDIM
370
    -2
100
AcDbLine
 10
43.75136266436033
 20
33.26601924551976
 30
0.0
 11
6.723874251018453
 21
12.33743883797868
 31
0.0
  0
SOLID
  5
17EF
330
17E9
100
AcDbEntity
  8
AM_REFDIM
100
AcDbTrace
 10
-45.8595101017259
 20
-17.10792077398386
 30
0.0
 11
-45.62332261852531
 21
-17.52579093656952
 31
0.0
 12
-46.99502684788259
 22
-18.02541830487847
 32
0.0
 13
-46.99502684788259
 23
-18.02541830487847
 33
0.0
  0
SOLID
  5
17F0
330
17E9
100
AcDbEntity
  8
AM_REFDIM
100
AcDbTrace
 10
43.63326892276004
 20
33.4749543268126
 30
0.0
 11
43.86945640596063
 21
33.05708416422692
 31
0.0
 12
45.00497315211731
 22
33.97458169512154
 32
0.0
 13
45.00497315211731
 23
33.97458169512154
 33
0.0
  0
MTEXT
  5
17F1
330
17E9
100
AcDbEntity
  8
AM_REFDIM
100
AcDbMText
 10
-0.9950268478826377
 20
7.974581695121532
 30
0.0
 40
1.8
 41
0.0
 71
     5
 72
     1
  1
\A1;106" DIAG\PACTUAL 105.68"
  7
ROMANS
 73
     1
 44
1.0
1001
ACAD
1000
MTEXTBEGIN
1070
    73
1070
     1
1070
    44
1040
1.0
1070
    74
1070
     0
1000
MTEXTEND
  0
POINT
  5
17F2
330
17E9
100
AcDbEntity
  8
Defpoints
 62
     0
100
AcDbPoint
 10
-46.99502684788256
 20
-18.02541830487853
 30
0.0
  0
POINT
  5
17F3
330
17E9
100
AcDbEntity
  8
Defpoints
 62
     0
100
AcDbPoint
 10
45.00497315211736
 20
33.97458169512147
 30
0.0
  0
POINT
  5
17F4
330
17E9
100
AcDbEntity
  8
Defpoints
 62
     0
100
AcDbPoint
 10
45.00497315211731
 20
33.97458169512154
 30
0.0
  0
ENDBLK
  5
17F5
330
17E9
100
AcDbEntity
  8
0
100
AcDbBlockEnd
  0
BLOCK
  5
17F7
330
17F6
100
AcDbEntity
  8
0
100
AcDbBlockBegin
  2
*D41
 70
     1
 10
0.0
 20
0.0
 30
0.0
  3
*D41
  1

  0
LINE
  5
17F8
330
17F6
100
AcDbEntity
  8
AM_REFDIM
370
    -2
100
AcDbLine
 10
-50.62002684788259
 20
42.44758169512147
 30
0.0
 11
-50.62002684788259
 21
52.086158234152
 31
0.0
  0
LINE
  5
17F9
330
17F6
100
AcDbEntity
  8
AM_REFDIM
370
    -2
100
AcDbLine
 10
48.62997315211739
 20
42.44758169512147
 30
0.0
 11
48.62997315211739
 21
52.086158234152
 31
0.0
  0
LINE
  5
17FA
330
17F6
100
AcDbEntity
  8
AM_REFDIM
370
    -2
100
AcDbLine
 10
-49.18002684788259
 20
50.64615823415201
 30
0.0
 11
-25.9813061978974
 21
50.64615823415201
 31
0.0
  0
LINE
  5
17FB
330
17F6
100
AcDbEntity
  8
AM_REFDIM
370
    -2
100
AcDbLine
 10
47.18997315211739
 20
50.64615823415201
 30
0.0
 11
26.63012237353115
 21
50.64615823415201
 31
0.0
  0
MTEXT
  5
17FC
330
17F6
100
AcDbEntity
  8
AM_REFDIM
100
AcDbMText
 10
0.3244080878168773
 20
50.64615823415201
 30
0.0
 40
1.8
 41
0.0
 71
     5
 72
     1
  1
\A1;99.25" (OVERALL LENGTH OF CASE)
  7
ROMANS
 73
     1
 44
1.0
1001
ACAD
1000
MTEXTBEGIN
1070
    73
1070
     1
1070
    44
1040
1.0
1070
    74
1070
     0
1000
MTEXTEND
  0
SOLID
  5
17FD
330
17F6
100
AcDbEntity
  8
AM_REFDIM
100
AcDbTrace
 10
-49.18002684788259
 20
50.88615823415201
 30
0.0
 11
-49.18002684788259
 21
50.40615823415201
 31
0.0
 12
-50.62002684788259
 22
50.64615823415201
 32
0.0
 13
-50.62002684788259
 23
50.64615823415201
 33
0.0
  0
SOLID
  5
17FE
330
17F6
100
AcDbEntity
  8
AM_REFDIM
100
AcDbTrace
 10
47.18997315211739
 20
50.88615823415201
 30
0.0
 11
47.18997315211739
 21
50.40615823415201
 31
0.0
 12
48.62997315211739
 22
50.64615823415201
 32
0.0
 13
48.62997315211739
 23
50.64615823415201
 33
0.0
  0
POINT
  5
17FF
330
17F6
100
AcDbEntity
  8
Defpoints
 62
     0
100
AcDbPoint
 10
-50.62002684788259
 20
41.32258169512147
 30
0.0
  0
POINT
  5
1800
330
17F6
100
AcDbEntity
  8
Defpoints
 62
     0
100
AcDbPoint
 10
48.62997315211739
 20
41.32258169512147
 30
0.0
  0
POINT
  5
1801
330
17F6
100
AcDbEntity
  8
Defpoints
 62
     0
100
AcDbPoint
 10
48.62997315211739
 20
50.64615823415201
 30
0.0
  0
ENDBLK
  5
1802
330
17F6
100
AcDbEntity
  8
0
100
AcDbBlockEnd
  0
BLOCK
  5
1804
330
1803
100
AcDbEntity
  8
0
100
AcDbBlockBegin
  2
*D42
 70
     1
 10
0.0
 20
0.0
 30
0.0
  3
*D42
  1

  0
LINE
  5
1805
330
1803
100
AcDbEntity
  8
AM_REFDIM
370
    -2
100
AcDbLine
 10
-49.87002684788259
 20
42.22858169512146
 30
0.0
 11
-49.87002684788259
 21
47.56425823415205
 31
0.0
  0
LINE
  5
1806
330
1803
100
AcDbEntity
  8
AM_REFDIM
370
    -2
100
AcDbLine
 10
47.87997315211739
 20
42.22858169512146
 30
0.0
 11
47.87997315211739
 21
47.56425823415205
 31
0.0
  0
LINE
  5
1807
330
1803
100
AcDbEntity
  8
AM_REFDIM
370
    -2
100
AcDbLine
 10
-48.4300268478826
 20
46.12425823415205
 30
0.0
 11
-23.80630619789737
 21
46.12425823415205
 31
0.0
  0
LINE
  5
1808
330
1803
100
AcDbEntity
  8
AM_REFDIM
370
    -2
100
AcDbLine
 10
46.43997315211739
 20
46.12425823415205
 30
0.0
 11
24.60512237353118
 21
46.12425823415205
 31
0.0
  0
MTEXT
  5
1809
330
1803
100
AcDbEntity
  8
AM_REFDIM
100
AcDbMText
 10
0.3994080878169086
 20
46.12425823415205
 30
0.0
 40
1.8
 41
0.0
 71
     5
 72
     1
  1
\A1;97.75" (BETWEEN HANGER EYES)
  7
ROMANS
 73
     1
 44
1.0
1001
ACAD
1000
MTEXTBEGIN
1070
    73
1070
     1
1070
    44
1040
1.0
1070
    74
1070
     0
1000
MTEXTEND
  0
SOLID
  5
180A
330
1803
100
AcDbEntity
  8
AM_REFDIM
100
AcDbTrace
 10
-48.4300268478826
 20
46.36425823415204
 30
0.0
 11
-48.4300268478826
 21
45.88425823415205
 31
0.0
 12
-49.87002684788259
 22
46.12425823415205
 32
0.0
 13
-49.87002684788259
 23
46.12425823415205
 33
0.0
  0
SOLID
  5
180B
330
1803
100
AcDbEntity
  8
AM_REFDIM
100
AcDbTrace
 10
46.43997315211739
 20
46.36425823415204
 30
0.0
 11
46.43997315211739
 21
45.88425823415205
 31
0.0
 12
47.87997315211739
 22
46.12425823415205
 32
0.0
 13
47.87997315211739
 23
46.12425823415205
 33
0.0
  0
POINT
  5
180C
330
1803
100
AcDbEntity
  8
Defpoints
 62
     0
100
AcDbPoint
 10
-49.87002684788259
 20
41.10358169512145
 30
0.0
  0
POINT
  5
180D
330
1803
100
AcDbEntity
  8
Defpoints
 62
     0
100
AcDbPoint
 10
47.87997315211739
 20
41.10358169512145
 30
0.0
  0
POINT
  5
180E
330
1803
100
AcDbEntity
  8
Defpoints
 62
     0
100
AcDbPoint
 10
47.87997315211739
 20
46.12425823415205
 30
0.0
  0
ENDBLK
  5
180F
330
1803
100
AcDbEntity
  8
0
100
AcDbBlockEnd
  0
BLOCK
  5
3B06
330
3AFB
100
AcDbEntity
  8
0
100
AcDbBlockBegin
  2
*D44
 70
     1
 10
0.0
 20
0.0
 30
0.0
  3
*D44
  1

  0
LINE
  5
3BA6
330
3AFB
100
AcDbEntity
  8
AM_REFDIM
 62
     0
370
    -2
100
AcDbLine
 10
504.1314249548638
 20
-55.95099146173635
 30
0.0
 11
513.5901984887529
 21
-55.95099146173635
 31
0.0
  0
LINE
  5
3BA7
330
3AFB
100
AcDbEntity
  8
AM_REFDIM
 62
     0
370
    -2
100
AcDbLine
 10
503.7827348245316
 20
-61.82599146173635
 30
0.0
 11
513.5901984887529
 21
-61.82599146173635
 31
0.0
  0
LINE
  5
3BA8
330
3AFB
100
AcDbEntity
  8
AM_REFDIM
 62
     0
370
    -2
100
AcDbLine
 10
510.3501984887528
 20
-52.71099146173635
 30
0.0
 11
510.3501984887528
 21
-49.47099146173635
 31
0.0
  0
LINE
  5
3BA9
330
3AFB
100
AcDbEntity
  8
AM_REFDIM
 62
     0
370
    -2
100
AcDbLine
 10
510.3501984887528
 20
-65.06599146173634
 30
0.0
 11
510.3501984887528
 21
-68.30599146173636
 31
0.0
  0
SOLID
  5
3BAA
330
3AFB
100
AcDbEntity
  8
AM_REFDIM
 62
     0
100
AcDbTrace
 10
509.8101984887528
 20
-52.71099146173635
 30
0.0
 11
510.8901984887529
 21
-52.71099146173635
 31
0.0
 12
510.3501984887528
 22
-55.95099146173635
 32
0.0
 13
510.3501984887528
 23
-55.95099146173635
 33
0.0
  0
SOLID
  5
3BAB
330
3AFB
100
AcDbEntity
  8
AM_REFDIM
 62
     0
100
AcDbTrace
 10
509.8101984887528
 20
-65.06599146173634
 30
0.0
 11
510.8901984887529
 21
-65.06599146173634
 31
0.0
 12
510.3501984887528
 22
-61.82599146173635
 32
0.0
 13
510.3501984887528
 23
-61.82599146173635
 33
0.0
  0
MTEXT
  5
3BAC
330
3AFB
100
AcDbEntity
  8
AM_REFDIM
 62
     0
100
AcDbMText
 10
510.3501984887528
 20
-58.88849146173626
 30
0.0
 40
1.8
 41
0.0
 71
     5
 72
     1
  1
\A1;5.88
 73
     1
 44
1.0
1001
ACAD
1000
MTEXTBEGIN
1070
    73
1070
     1
1070
    44
1040
1.0
1070
    74
1070
     0
1000
MTEXTEND
  0
POINT
  5
3BAD
330
3AFB
100
AcDbEntity
  8
Defpoints
 62
     0
100
AcDbPoint
 10
503.0064249548638
 20
-55.95099146173635
 30
0.0
  0
POINT
  5
3BAE
330
3AFB
100
AcDbEntity
  8
Defpoints
 62
     0
100
AcDbPoint
 10
502.6577348245316
 20
-61.82599146173635
 30
0.0
  0
POINT
  5
3BAF
330
3AFB
100
AcDbEntity
  8
Defpoints
 62
     0
100
AcDbPoint
 10
510.3501984887528
 20
-61.82599146173635
 30
0.0
  0
ENDBLK
  5
3B07
330
3AFB
100
AcDbEntity
  8
0
100
AcDbBlockEnd
  0
BLOCK
  5
3B13
330
3B08
100
AcDbEntity
  8
0
100
AcDbBlockBegin
  2
*D45
 70
     1
 10
0.0
 20
0.0
 30
0.0
  3
*D45
  1

  0
LINE
  5
3BB0
330
3B08
100
AcDbEntity
  8
AM_REFDIM
 62
     0
370
    -2
100
AcDbLine
 10
503.0065595576362
 20
-56.94634753370414
 30
0.0
 11
503.0065595576362
 21
-49.62137844162522
 31
0.0
  0
LINE
  5
3BB1
330
3B08
100
AcDbEntity
  8
AM_REFDIM
 62
     0
370
    -2
100
AcDbLine
 10
498.3755249630095
 20
-58.56799146173635
 30
0.0
 11
498.3755249630095
 21
-49.62137844162522
 31
0.0
  0
LINE
  5
3BB2
330
3B08
100
AcDbEntity
  8
AM_REFDIM
 62
     0
370
    -2
100
AcDbLine
 10
506.2465595576362
 20
-52.86137844162522
 30
0.0
 11
509.4865595576363
 21
-52.86137844162522
 31
0.0
  0
LINE
  5
3BB3
330
3B08
100
AcDbEntity
  8
AM_REFDIM
 62
     0
370
    -2
100
AcDbLine
 10
495.1355249630095
 20
-52.86137844162522
 30
0.0
 11
491.8955249630094
 21
-52.86137844162522
 31
0.0
  0
SOLID
  5
3BB4
330
3B08
100
AcDbEntity
  8
AM_REFDIM
 62
     0
100
AcDbTrace
 10
506.2465595576362
 20
-52.32137844162522
 30
0.0
 11
506.2465595576362
 21
-53.40137844162522
 31
0.0
 12
503.0065595576362
 22
-52.86137844162522
 32
0.0
 13
503.0065595576362
 23
-52.86137844162522
 33
0.0
  0
SOLID
  5
3BB5
330
3B08
100
AcDbEntity
  8
AM_REFDIM
 62
     0
100
AcDbTrace
 10
495.1355249630095
 20
-52.32137844162522
 30
0.0
 11
495.1355249630095
 21
-53.40137844162522
 31
0.0
 12
498.3755249630095
 22
-52.86137844162522
 32
0.0
 13
498.3755249630095
 23
-52.86137844162522
 33
0.0
  0
MTEXT
  5
3BB6
330
3B08
100
AcDbEntity
  8
AM_REFDIM
 62
     0
100
AcDbMText
 10
487.5755249630095
 20
-52.86137844162522
 30
0.0
 40
1.8
 41
0.0
 71
     5
 72
     1
  1
\A1;4.63
 73
     1
 44
1.0
1001
ACAD
1000
MTEXTBEGIN
1070
    73
1070
     1
1070
    44
1040
1.0
1070
    74
1070
     0
1000
MTEXTEND
  0
POINT
  5
3BB7
330
3B08
100
AcDbEntity
  8
Defpoints
 62
     0
100
AcDbPoint
 10
503.0065595576362
 20
-58.07134753370414
 30
0.0
  0
POINT
  5
3BB8
330
3B08
100
AcDbEntity
  8
Defpoints
 62
     0
100
AcDbPoint
 10
498.3755249630095
 20
-59.69299146173636
 30
0.0
  0
POINT
  5
3BB9
330
3B08
100
AcDbEntity
  8
Defpoints
 62
     0
100
AcDbPoint
 10
498.3755249630095
 20
-52.86137844162522
 30
0.0
  0
ENDBLK
  5
3B14
330
3B08
100
AcDbEntity
  8
0
100
AcDbBlockEnd
  0
BLOCK
  5
3B20
330
3B15
100
AcDbEntity
  8
0
100
AcDbBlockBegin
  2
*D46
 70
     1
 10
0.0
 20
0.0
 30
0.0
  3
*D46
  1

  0
LINE
  5
3BBA
330
3B15
100
AcDbEntity
  8
AM_REFDIM
 62
     0
370
    -2
100
AcDbLine
 10
368.0044269191454
 20
-116.8399914617363
 30
0.0
 11
368.0044269191454
 21
-125.5182149227058
 31
0.0
  0
LINE
  5
3BBB
330
3B15
100
AcDbEntity
  8
AM_REFDIM
 62
     0
370
    -2
100
AcDbLine
 10
366.0044269191454
 20
-118.8280867159074
 30
0.0
 11
366.0044269191454
 21
-125.5182149227058
 31
0.0
  0
LINE
  5
3BBC
330
3B15
100
AcDbEntity
  8
AM_REFDIM
 62
     0
370
    -2
100
AcDbLine
 10
371.2444269191454
 20
-122.2782149227058
 30
0.0
 11
374.4844269191454
 21
-122.2782149227058
 31
0.0
  0
LINE
  5
3BBD
330
3B15
100
AcDbEntity
  8
AM_REFDIM
 62
     0
370
    -2
100
AcDbLine
 10
362.7644269191454
 20
-122.2782149227058
 30
0.0
 11
359.5244269191454
 21
-122.2782149227058
 31
0.0
  0
SOLID
  5
3BBE
330
3B15
100
AcDbEntity
  8
AM_REFDIM
 62
     0
100
AcDbTrace
 10
371.2444269191454
 20
-121.7382149227058
 30
0.0
 11
371.2444269191454
 21
-122.8182149227058
 31
0.0
 12
368.0044269191454
 22
-122.2782149227058
 32
0.0
 13
368.0044269191454
 23
-122.2782149227058
 33
0.0
  0
SOLID
  5
3BBF
330
3B15
100
AcDbEntity
  8
AM_REFDIM
 62
     0
100
AcDbTrace
 10
362.7644269191454
 20
-121.7382149227058
 30
0.0
 11
362.7644269191454
 21
-122.8182149227058
 31
0.0
 12
366.0044269191454
 22
-122.2782149227058
 32
0.0
 13
366.0044269191454
 23
-122.2782149227058
 33
0.0
  0
MTEXT
  5
3BC0
330
3B15
100
AcDbEntity
  8
AM_REFDIM
 62
     0
100
AcDbMText
 10
351.9044269191454
 20
-122.2782149227058
 30
0.0
 40
1.8
 41
0.0
 71
     5
 72
     1
  1
\A1;2.00\PBORDERS\PTYP
 73
     1
 44
1.0
1001
ACAD
1000
MTEXTBEGIN
1070
    73
1070
     1
1070
    44
1040
1.0
1070
    74
1070
     0
1000
MTEXTEND
  0
POINT
  5
3BC1
330
3B15
100
AcDbEntity
  8
Defpoints
 62
     0
100
AcDbPoint
 10
368.0044269191454
 20
-115.7149914617363
 30
0.0
  0
POINT
  5
3BC2
330
3B15
100
AcDbEntity
  8
Defpoints
 62
     0
100
AcDbPoint
 10
366.0044269191454
 20
-117.7030867159073
 30
0.0
  0
POINT
  5
3BC3
330
3B15
100
AcDbEntity
  8
Defpoints
 62
     0
100
AcDbPoint
 10
366.0044269191454
 20
-122.2782149227058
 30
0.0
  0
ENDBLK
  5
3B21
330
3B15
100
AcDbEntity
  8
0
100
AcDbBlockEnd
  0
BLOCK
  5
3B2D
330
3B22
100
AcDbEntity
  8
0
100
AcDbBlockBegin
  2
*D47
 70
     1
 10
0.0
 20
0.0
 30
0.0
  3
*D47
  1

  0
LINE
  5
3BC4
330
3B22
100
AcDbEntity
  8
AM_REFDIM
 62
     0
370
    -2
100
AcDbLine
 10
368.0044269191454
 20
-116.8399914617363
 30
0.0
 11
368.0044269191454
 21
-125.5182149227058
 31
0.0
  0
LINE
  5
3BC5
330
3B22
100
AcDbEntity
  8
AM_REFDIM
 62
     0
370
    -2
100
AcDbLine
 10
460.0044269191453
 20
-116.8399914617363
 30
0.0
 11
460.0044269191453
 21
-125.5182149227058
 31
0.0
  0
LINE
  5
3BC6
330
3B22
100
AcDbEntity
  8
AM_REFDIM
 62
     0
370
    -2
100
AcDbLine
 10
371.2444269191454
 20
-122.2782149227058
 30
0.0
 11
404.2844269191453
 21
-122.2782149227058
 31
0.0
  0
LINE
  5
3BC7
330
3B22
100
AcDbEntity
  8
AM_REFDIM
 62
     0
370
    -2
100
AcDbLine
 10
456.7644269191453
 20
-122.2782149227058
 30
0.0
 11
423.7244269191452
 21
-122.2782149227058
 31
0.0
  0
SOLID
  5
3BC8
330
3B22
100
AcDbEntity
  8
AM_REFDIM
 62
     0
100
AcDbTrace
 10
371.2444269191454
 20
-121.7382149227058
 30
0.0
 11
371.2444269191454
 21
-122.8182149227058
 31
0.0
 12
368.0044269191454
 22
-122.2782149227058
 32
0.0
 13
368.0044269191454
 23
-122.2782149227058
 33
0.0
  0
SOLID
  5
3BC9
330
3B22
100
AcDbEntity
  8
AM_REFDIM
 62
     0
100
AcDbTrace
 10
456.7644269191453
 20
-121.7382149227058
 30
0.0
 11
456.7644269191453
 21
-122.8182149227058
 31
0.0
 12
460.0044269191453
 22
-122.2782149227058
 32
0.0
 13
460.0044269191453
 23
-122.2782149227058
 33
0.0
  0
MTEXT
  5
3BCA
330
3B22
100
AcDbEntity
  8
AM_REFDIM
 62
     0
100
AcDbMText
 10
414.0044269191453
 20
-122.2782149227058
 30
0.0
 40
1.8
 41
0.0
 71
     5
 72
     1
  1
\A1;92.00" VAW
 73
     1
 44
1.0
1001
ACAD
1000
MTEXTBEGIN
1070
    73
1070
     1
1070
    44
1040
1.0
1070
    74
1070
     0
1000
MTEXTEND
  0
POINT
  5
3BCB
330
3B22
100
AcDbEntity
  8
Defpoints
 62
     0
100
AcDbPoint
 10
368.0044269191454
 20
-115.7149914617363
 30
0.0
  0
POINT
  5
3BCC
330
3B22
100
AcDbEntity
  8
Defpoints
 62
     0
100
AcDbPoint
 10
460.0044269191453
 20
-115.7149914617363
 30
0.0
  0
POINT
  5
3BCD
330
3B22
100
AcDbEntity
  8
Defpoints
 62
     0
100
AcDbPoint
 10
460.0044269191453
 20
-122.2782149227058
 30
0.0
  0
ENDBLK
  5
3B2E
330
3B22
100
AcDbEntity
  8
0
100
AcDbBlockEnd
  0
BLOCK
  5
3B3A
330
3B2F
100
AcDbEntity
  8
0
100
AcDbBlockBegin
  2
*D48
 70
     1
 10
0.0
 20
0.0
 30
0.0
  3
*D48
  1

  0
LINE
  5
3BCE
330
3B2F
100
AcDbEntity
  8
AM_REFDIM
 62
     0
370
    -2
100
AcDbLine
 10
366.0044269191454
 20
-118.8280867159074
 30
0.0
 11
366.0044269191454
 21
-130.2170244481229
 31
0.0
  0
LINE
  5
3BCF
330
3B2F
100
AcDbEntity
  8
AM_REFDIM
 62
     0
370
    -2
100
AcDbLine
 10
462.0044269191453
 20
-118.8280867159074
 30
0.0
 11
462.0044269191453
 21
-130.2170244481229
 31
0.0
  0
LINE
  5
3BD0
330
3B2F
100
AcDbEntity
  8
AM_REFDIM
 62
     0
370
    -2
100
AcDbLine
 10
369.2444269191454
 20
-126.9770244481229
 30
0.0
 11
395.8844269191453
 21
-126.9770244481229
 31
0.0
  0
LINE
  5
3BD1
330
3B2F
100
AcDbEntity
  8
AM_REFDIM
 62
     0
370
    -2
100
AcDbLine
 10
458.7644269191453
 20
-126.9770244481229
 30
0.0
 11
432.1244269191453
 21
-126.9770244481229
 31
0.0
  0
SOLID
  5
3BD2
330
3B2F
100
AcDbEntity
  8
AM_REFDIM
 62
     0
100
AcDbTrace
 10
369.2444269191454
 20
-126.4370244481229
 30
0.0
 11
369.2444269191454
 21
-127.5170244481229
 31
0.0
 12
366.0044269191454
 22
-126.9770244481229
 32
0.0
 13
366.0044269191454
 23
-126.9770244481229
 33
0.0
  0
SOLID
  5
3BD3
330
3B2F
100
AcDbEntity
  8
AM_REFDIM
 62
     0
100
AcDbTrace
 10
458.7644269191453
 20
-126.4370244481229
 30
0.0
 11
458.7644269191453
 21
-127.5170244481229
 31
0.0
 12
462.0044269191453
 22
-126.9770244481229
 32
0.0
 13
462.0044269191453
 23
-126.9770244481229
 33
0.0
  0
MTEXT
  5
3BD4
330
3B2F
100
AcDbEntity
  8
AM_REFDIM
 62
     0
100
AcDbMText
 10
414.0044269191453
 20
-126.9770244481229
 30
0.0
 40
1.8
 41
0.0
 71
     5
 72
     1
  1
\A1;96.00" (FABRIC WIDTH)
 73
     1
 44
1.0
1001
ACAD
1000
MTEXTBEGIN
1070
    73
1070
     1
1070
    44
1040
1.0
1070
    74
1070
     0
1000
MTEXTEND
  0
POINT
  5
3BD5
330
3B2F
100
AcDbEntity
  8
Defpoints
 62
     0
100
AcDbPoint
 10
366.0044269191454
 20
-117.7030867159073
 30
0.0
  0
POINT
  5
3BD6
330
3B2F
100
AcDbEntity
  8
Defpoints
 62
     0
100
AcDbPoint
 10
462.0044269191453
 20
-117.7030867159073
 30
0.0
  0
POINT
  5
3BD7
330
3B2F
100
AcDbEntity
  8
Defpoints
 62
     0
100
AcDbPoint
 10
462.0044269191453
 20
-126.9770244481229
 30
0.0
  0
ENDBLK
  5
3B3B
330
3B2F
100
AcDbEntity
  8
0
100
AcDbBlockEnd
  0
BLOCK
  5
3B47
330
3B3C
100
AcDbEntity
  8
0
100
AcDbBlockBegin
  2
*D49
 70
     1
 10
0.0
 20
0.0
 30
0.0
  3
*D49
  1

  0
LINE
  5
3BD8
330
3B3C
100
AcDbEntity
  8
AM_REFDIM
 62
     0
370
    -2
100
AcDbLine
 10
463.1294269191453
 20
-115.7149914617363
 30
0.0
 11
472.2388618548448
 21
-115.7149914617363
 31
0.0
  0
LINE
  5
3BD9
330
3B3C
100
AcDbEntity
  8
AM_REFDIM
 62
     0
370
    -2
100
AcDbLine
 10
463.1294269191453
 20
-63.71499146173634
 30
0.0
 11
472.2388618548448
 21
-63.71499146173635
 31
0.0
  0
LINE
  5
3BDA
330
3B3C
100
AcDbEntity
  8
AM_REFDIM
 62
     0
370
    -2
100
AcDbLine
 10
468.9988618548447
 20
-112.4749914617363
 30
0.0
 11
468.9988618548447
 21
-93.73499146173633
 31
0.0
  0
LINE
  5
3BDB
330
3B3C
100
AcDbEntity
  8
AM_REFDIM
 62
     0
370
    -2
100
AcDbLine
 10
468.9988618548447
 20
-66.95499146173634
 30
0.0
 11
468.9988618548447
 21
-85.69499146173635
 31
0.0
  0
SOLID
  5
3BDC
330
3B3C
100
AcDbEntity
  8
AM_REFDIM
 62
     0
100
AcDbTrace
 10
468.4588618548447
 20
-112.4749914617363
 30
0.0
 11
469.5388618548448
 21
-112.4749914617363
 31
0.0
 12
468.9988618548447
 22
-115.7149914617363
 32
0.0
 13
468.9988618548447
 23
-115.7149914617363
 33
0.0
  0
SOLID
  5
3BDD
330
3B3C
100
AcDbEntity
  8
AM_REFDIM
 62
     0
100
AcDbTrace
 10
468.4588618548447
 20
-66.95499146173634
 30
0.0
 11
469.5388618548448
 21
-66.95499146173634
 31
0.0
 12
468.9988618548447
 22
-63.71499146173635
 32
0.0
 13
468.9988618548447
 23
-63.71499146173635
 33
0.0
  0
MTEXT
  5
3BDE
330
3B3C
100
AcDbEntity
  8
AM_REFDIM
 62
     0
100
AcDbMText
 10
468.9988618548447
 20
-89.71499146173627
 30
0.0
 40
1.8
 41
0.0
 71
     5
 72
     1
  1
\A1;52.00"\PVAH
 73
     1
 44
1.0
1001
ACAD
1000
MTEXTBEGIN
1070
    73
1070
     1
1070
    44
1040
1.0
1070
    74
1070
     0
1000
MTEXTEND
  0
POINT
  5
3BDF
330
3B3C
100
AcDbEntity
  8
Defpoints
 62
     0
100
AcDbPoint
 10
462.0044269191453
 20
-115.7149914617363
 30
0.0
  0
POINT
  5
3BE0
330
3B3C
100
AcDbEntity
  8
Defpoints
 62
     0
100
AcDbPoint
 10
462.0044269191453
 20
-63.71499146173634
 30
0.0
  0
POINT
  5
3BE1
330
3B3C
100
AcDbEntity
  8
Defpoints
 62
     0
100
AcDbPoint
 10
468.9988618548447
 20
-63.71499146173635
 30
0.0
  0
ENDBLK
  5
3B48
330
3B3C
100
AcDbEntity
  8
0
100
AcDbBlockEnd
  0
BLOCK
  5
3B55
330
3B49
100
AcDbEntity
  8
0
100
AcDbBlockBegin
  2
*D50
 70
     1
 10
0.0
 20
0.0
 30
0.0
  3
*D50
  1

  0
LINE
  5
3BE2
330
3B49
100
AcDbEntity
  8
AM_REFDIM
 62
     0
370
    -2
100
AcDbLine
 10
463.1294269191453
 20
-63.71499146173634
 30
0.0
 11
470.7817189977019
 21
-63.71499146173635
 31
0.0
  0
LINE
  5
3BE3
330
3B49
100
AcDbEntity
  8
AM_REFDIM
 62
     0
370
    -2
100
AcDbLine
 10
464.5669269191452
 20
-61.71514955148249
 30
0.0
 11
470.7817189977019
 21
-61.71514955148249
 31
0.0
  0
LINE
  5
3BE4
330
3B49
100
AcDbEntity
  8
AM_REFDIM
 62
     0
370
    -2
100
AcDbLine
 10
467.5417189977018
 20
-66.95499146173634
 30
0.0
 11
467.5417189977018
 21
-70.19499146173635
 31
0.0
  0
LINE
  5
3BE5
330
3B49
100
AcDbEntity
  8
AM_REFDIM
 62
     0
370
    -2
100
AcDbLine
 10
467.5417189977018
 20
-58.47514955148248
 30
0.0
 11
467.5417189977018
 21
-55.23514955148248
 31
0.0
  0
LINE
  5
3BE6
330
3B49
100
AcDbEntity
  8
AM_REFDIM
 62
     0
370
    -2
100
AcDbLine
 10
467.5417189977018
 20
-55.23514955148248
 30
0.0
 11
470.7817189977019
 21
-55.23514955148248
 31
0.0
  0
SOLID
  5
3BE7
330
3B49
100
AcDbEntity
  8
AM_REFDIM
 62
     0
100
AcDbTrace
 10
467.0017189977018
 20
-66.95499146173634
 30
0.0
 11
468.0817189977019
 21
-66.95499146173634
 31
0.0
 12
467.5417189977018
 22
-63.71499146173635
 32
0.0
 13
467.5417189977018
 23
-63.71499146173635
 33
0.0
  0
SOLID
  5
3BE8
330
3B49
100
AcDbEntity
  8
AM_REFDIM
 62
     0
100
AcDbTrace
 10
467.0017189977018
 20
-58.47514955148248
 30
0.0
 11
468.0817189977019
 21
-58.47514955148248
 31
0.0
 12
467.5417189977018
 22
-61.71514955148249
 32
0.0
 13
467.5417189977018
 23
-61.71514955148249
 33
0.0
  0
MTEXT
  5
3BE9
330
3B49
100
AcDbEntity
  8
AM_REFDIM
 62
     0
100
AcDbMText
 10
474.8017189977018
 20
-55.2351495514824
 30
0.0
 40
1.8
 41
0.0
 71
     5
 72
     1
  1
\A1;2.00\PBLK
 73
     1
 44
1.0
1001
ACAD
1000
MTEXTBEGIN
1070
    73
1070
     1
1070
    44
1040
1.0
1070
    74
1070
     0
1000
MTEXTEND
  0
POINT
  5
3BEA
330
3B49
100
AcDbEntity
  8
Defpoints
 62
     0
100
AcDbPoint
 10
462.0044269191453
 20
-63.71499146173634
 30
0.0
  0
POINT
  5
3BEB
330
3B49
100
AcDbEntity
  8
Defpoints
 62
     0
100
AcDbPoint
 10
463.4419269191453
 20
-61.71514955148248
 30
0.0
  0
POINT
  5
3BEC
330
3B49
100
AcDbEntity
  8
Defpoints
 62
     0
100
AcDbPoint
 10
467.5417189977018
 20
-61.71514955148249
 30
0.0
  0
ENDBLK
  5
3B56
330
3B49
100
AcDbEntity
  8
0
100
AcDbBlockEnd
  0
BLOCK
  5
3B62
330
3B57
100
AcDbEntity
  8
0
100
AcDbBlockBegin
  2
*D51
 70
     1
 10
0.0
 20
0.0
 30
0.0
  3
*D51
  1

  0
LINE
  5
3BED
330
3B57
100
AcDbEntity
  8
AM_REFDIM
 62
     0
370
    -2
100
AcDbLine
 10
463.1294269191453
 20
-117.9649914617363
 30
0.0
 11
486.2451118548448
 21
-117.9649914617363
 31
0.0
  0
LINE
  5
3BEE
330
3B57
100
AcDbEntity
  8
AM_REFDIM
 62
     0
370
    -2
100
AcDbLine
 10
464.5669269191452
 20
-61.71514955148249
 30
0.0
 11
486.2451118548448
 21
-61.71514955148249
 31
0.0
  0
LINE
  5
3BEF
330
3B57
100
AcDbEntity
  8
AM_REFDIM
 62
     0
370
    -2
100
AcDbLine
 10
483.0051118548448
 20
-114.7249914617363
 30
0.0
 11
483.0051118548448
 21
-92.36007050660942
 31
0.0
  0
LINE
  5
3BF0
330
3B57
100
AcDbEntity
  8
AM_REFDIM
 62
     0
370
    -2
100
AcDbLine
 10
483.0051118548448
 20
-64.95514955148249
 30
0.0
 11
483.0051118548448
 21
-87.32007050660945
 31
0.0
  0
SOLID
  5
3BF1
330
3B57
100
AcDbEntity
  8
AM_REFDIM
 62
     0
100
AcDbTrace
 10
482.4651118548447
 20
-114.7249914617363
 30
0.0
 11
483.5451118548448
 21
-114.7249914617363
 31
0.0
 12
483.0051118548448
 22
-117.9649914617363
 32
0.0
 13
483.0051118548448
 23
-117.9649914617363
 33
0.0
  0
SOLID
  5
3BF2
330
3B57
100
AcDbEntity
  8
AM_REFDIM
 62
     0
100
AcDbTrace
 10
482.4651118548447
 20
-64.95514955148249
 30
0.0
 11
483.5451118548448
 21
-64.95514955148249
 31
0.0
 12
483.0051118548448
 22
-61.71514955148249
 32
0.0
 13
483.0051118548448
 23
-61.71514955148249
 33
0.0
  0
MTEXT
  5
3BF3
330
3B57
100
AcDbEntity
  8
AM_REFDIM
 62
     0
100
AcDbMText
 10
483.0051118548448
 20
-89.84007050660935
 30
0.0
 40
1.8
 41
0.0
 71
     5
 72
     1
  1
\A1;56.25"
 73
     1
 44
1.0
1001
ACAD
1000
MTEXTBEGIN
1070
    73
1070
     1
1070
    44
1040
1.0
1070
    74
1070
     0
1000
MTEXTEND
  0
POINT
  5
3BF4
330
3B57
100
AcDbEntity
  8
Defpoints
 62
     0
100
AcDbPoint
 10
462.0044269191453
 20
-117.9649914617363
 30
0.0
  0
POINT
  5
3BF5
330
3B57
100
AcDbEntity
  8
Defpoints
 62
     0
100
AcDbPoint
 10
463.4419269191453
 20
-61.71514955148248
 30
0.0
  0
POINT
  5
3BF6
330
3B57
100
AcDbEntity
  8
Defpoints
 62
     0
100
AcDbPoint
 10
483.0051118548448
 20
-61.71514955148249
 30
0.0
  0
ENDBLK
  5
3B63
330
3B57
100
AcDbEntity
  8
0
100
AcDbBlockEnd
  0
BLOCK
  5
3B70
330
3B64
100
AcDbEntity
  8
0
100
AcDbBlockBegin
  2
*D52
 70
     1
 10
0.0
 20
0.0
 30
0.0
  3
*D52
  1

  0
LINE
  5
3BF7
330
3B64
100
AcDbEntity
  8
AM_REFDIM
 62
     0
370
    -2
100
AcDbLine
 10
463.1294269191453
 20
-115.7149914617363
 30
0.0
 11
479.1138618548449
 21
-115.7149914617363
 31
0.0
  0
LINE
  5
3BF8
330
3B64
100
AcDbEntity
  8
AM_REFDIM
 62
     0
370
    -2
100
AcDbLine
 10
463.1294269191453
 20
-117.9649914617363
 30
0.0
 11
479.1138618548449
 21
-117.9649914617363
 31
0.0
  0
LINE
  5
3BF9
330
3B64
100
AcDbEntity
  8
AM_REFDIM
 62
     0
370
    -2
100
AcDbLine
 10
475.8738618548448
 20
-112.4749914617363
 30
0.0
 11
475.8738618548448
 21
-109.2349914617363
 31
0.0
  0
LINE
  5
3BFA
330
3B64
100
AcDbEntity
  8
AM_REFDIM
 62
     0
370
    -2
100
AcDbLine
 10
475.8738618548448
 20
-121.2049914617363
 30
0.0
 11
475.8738618548448
 21
-124.4449914617363
 31
0.0
  0
LINE
  5
3BFB
330
3B64
100
AcDbEntity
  8
AM_REFDIM
 62
     0
370
    -2
100
AcDbLine
 10
475.8738618548448
 20
-124.4449914617363
 30
0.0
 11
472.6338618548448
 21
-124.4449914617363
 31
0.0
  0
SOLID
  5
3BFC
330
3B64
100
AcDbEntity
  8
AM_REFDIM
 62
     0
100
AcDbTrace
 10
475.3338618548448
 20
-112.4749914617363
 30
0.0
 11
476.4138618548448
 21
-112.4749914617363
 31
0.0
 12
475.8738618548448
 22
-115.7149914617363
 32
0.0
 13
475.8738618548448
 23
-115.7149914617363
 33
0.0
  0
SOLID
  5
3BFD
330
3B64
100
AcDbEntity
  8
AM_REFDIM
 62
     0
100
AcDbTrace
 10
475.3338618548448
 20
-121.2049914617363
 30
0.0
 11
476.4138618548448
 21
-121.2049914617363
 31
0.0
 12
475.8738618548448
 22
-117.9649914617363
 32
0.0
 13
475.8738618548448
 23
-117.9649914617363
 33
0.0
  0
MTEXT
  5
3BFE
330
3B64
100
AcDbEntity
  8
AM_REFDIM
 62
     0
100
AcDbMText
 10
467.7138618548448
 20
-124.4449914617363
 30
0.0
 40
1.8
 41
0.0
 71
     5
 72
     1
  1
\A1;2.25"
 73
     1
 44
1.0
1001
ACAD
1000
MTEXTBEGIN
1070
    73
1070
     1
1070
    44
1040
1.0
1070
    74
1070
     0
1000
MTEXTEND
  0
POINT
  5
3BFF
330
3B64
100
AcDbEntity
  8
Defpoints
 62
     0
100
AcDbPoint
 10
462.0044269191453
 20
-115.7149914617363
 30
0.0
  0
POINT
  5
3C00
330
3B64
100
AcDbEntity
  8
Defpoints
 62
     0
100
AcDbPoint
 10
462.0044269191453
 20
-117.9649914617363
 30
0.0
  0
POINT
  5
3C01
330
3B64
100
AcDbEntity
  8
Defpoints
 62
     0
100
AcDbPoint
 10
475.8738618548448
 20
-117.9649914617363
 30
0.0
  0
ENDBLK
  5
3B71
330
3B64
100
AcDbEntity
  8
0
100
AcDbBlockEnd
  0
BLOCK
  5
3B7D
330
3B72
100
AcDbEntity
  8
0
100
AcDbBlockBegin
  2
*D53
 70
     1
 10
0.0
 20
0.0
 30
0.0
  3
*D53
  1

  0
LINE
  5
3C02
330
3B72
100
AcDbEntity
  8
AM_REFDIM
 62
     0
370
    -2
100
AcDbLine
 10
365.0669269191454
 20
-119.1524914617363
 30
0.0
 11
365.0669269191454
 21
-134.7170244481229
 31
0.0
  0
LINE
  5
3C03
330
3B72
100
AcDbEntity
  8
AM_REFDIM
 62
     0
370
    -2
100
AcDbLine
 10
462.9419269191453
 20
-119.1524914617364
 30
0.0
 11
462.9419269191453
 21
-134.7170244481229
 31
0.0
  0
LINE
  5
3C04
330
3B72
100
AcDbEntity
  8
AM_REFDIM
 62
     0
370
    -2
100
AcDbLine
 10
368.3069269191454
 20
-131.4770244481229
 30
0.0
 11
387.6663618548448
 21
-131.4770244481229
 31
0.0
  0
LINE
  5
3C05
330
3B72
100
AcDbEntity
  8
AM_REFDIM
 62
     0
370
    -2
100
AcDbLine
 10
459.7019269191453
 20
-131.4770244481229
 30
0.0
 11
443.7063618548448
 21
-131.4770244481229
 31
0.0
  0
SOLID
  5
3C06
330
3B72
100
AcDbEntity
  8
AM_REFDIM
 62
     0
100
AcDbTrace
 10
368.3069269191454
 20
-130.9370244481229
 30
0.0
 11
368.3069269191454
 21
-132.0170244481228
 31
0.0
 12
365.0669269191454
 22
-131.4770244481229
 32
0.0
 13
365.0669269191454
 23
-131.4770244481229
 33
0.0
  0
SOLID
  5
3C07
330
3B72
100
AcDbEntity
  8
AM_REFDIM
 62
     0
100
AcDbTrace
 10
459.7019269191453
 20
-130.9370244481229
 30
0.0
 11
459.7019269191453
 21
-132.0170244481228
 31
0.0
 12
462.9419269191453
 22
-131.4770244481229
 32
0.0
 13
462.9419269191453
 23
-131.4770244481229
 33
0.0
  0
MTEXT
  5
3C08
330
3B72
100
AcDbEntity
  8
AM_REFDIM
 62
     0
100
AcDbMText
 10
415.6863618548447
 20
-131.4770244481229
 30
0.0
 40
1.8
 41
0.0
 71
     5
 72
     1
  1
\A1;97.87" (OVERALL LENGTH OF SLAT)
 73
     1
 44
1.0
1001
ACAD
1000
MTEXTBEGIN
1070
    73
1070
     1
1070
    44
1040
1.0
1070
    74
1070
     0
1000
MTEXTEND
  0
POINT
  5
3C09
330
3B72
100
AcDbEntity
  8
Defpoints
 62
     0
100
AcDbPoint
 10
365.0669269191454
 20
-118.0274914617363
 30
0.0
  0
POINT
  5
3C0A
330
3B72
100
AcDbEntity
  8
Defpoints
 62
     0
100
AcDbPoint
 10
462.9419269191453
 20
-118.0274914617364
 30
0.0
  0
POINT
  5
3C0B
330
3B72
100
AcDbEntity
  8
Defpoints
 62
     0
100
AcDbPoint
 10
462.9419269191453
 20
-131.4770244481229
 30
0.0
  0
ENDBLK
  5
3B7E
330
3B72
100
AcDbEntity
  8
0
100
AcDbBlockEnd
  0
BLOCK
  5
3B8A
330
3B7F
100
AcDbEntity
  8
0
100
AcDbBlockBegin
  2
*D54
 70
     1
 10
0.0
 20
0.0
 30
0.0
  3
*D54
  1

  0
LINE
  5
3C0C
330
3B7F
100
AcDbEntity
  8
AM_REFDIM
 62
     0
370
    -2
100
AcDbLine
 10
367.450862505394
 20
-114.7356082681762
 30
0.0
 11
366.4101614075413
 21
-112.894367864283
 31
0.0
  0
LINE
  5
3C0D
330
3B7F
100
AcDbEntity
  8
AM_REFDIM
 62
     0
370
    -2
100
AcDbLine
 10
459.4508625053939
 20
-62.73560826817621
 30
0.0
 11
458.4101614075413
 21
-60.894367864283
 31
0.0
  0
LINE
  5
3C0E
330
3B7F
100
AcDbEntity
  8
AM_REFDIM
 62
     0
370
    -2
100
AcDbLine
 10
370.8250505165986
 20
-114.1207259501323
 30
0.0
 11
406.8921192268376
 21
-93.73499146173626
 31
0.0
  0
LINE
  5
3C0F
330
3B7F
100
AcDbEntity
  8
AM_REFDIM
 62
     0
370
    -2
100
AcDbLine
 10
457.1838033216921
 20
-65.30925697334024
 30
0.0
 11
421.116734611453
 21
-85.69499146173626
 31
0.0
  0
SOLID
  5
3C10
330
3B7F
100
AcDbEntity
  8
AM_REFDIM
 62
     0
100
AcDbTrace
 10
370.5593395979979
 20
-113.6506220172234
 30
0.0
 11
371.0907614351992
 21
-114.5908298830412
 31
0.0
 12
368.0044269191453
 22
-115.7149914617362
 32
0.0
 13
368.0044269191453
 23
-115.7149914617362
 33
0.0
  0
SOLID
  5
3C11
330
3B7F
100
AcDbEntity
  8
AM_REFDIM
 62
     0
100
AcDbTrace
 10
456.9180924030914
 20
-64.83915304043136
 30
0.0
 11
457.4495142402927
 21
-65.77936090624914
 31
0.0
 12
460.0044269191453
 22
-63.71499146173625
 32
0.0
 13
460.0044269191453
 23
-63.71499146173625
 33
0.0
  0
MTEXT
  5
3C12
330
3B7F
100
AcDbEntity
  8
AM_REFDIM
 62
     0
100
AcDbMText
 10
414.0044269191453
 20
-89.71499146173631
 30
0.0
 40
1.8
 41
0.0
 71
     5
 72
     1
  1
\A1;106" DIAG\PACTUAL 105.68"
 73
     1
 44
1.0
1001
ACAD
1000
MTEXTBEGIN
1070
    73
1070
     1
1070
    44
1040
1.0
1070
    74
1070
     0
1000
MTEXTEND
  0
POINT
  5
3C13
330
3B7F
100
AcDbEntity
  8
Defpoints
 62
     0
100
AcDbPoint
 10
368.0044269191454
 20
-115.7149914617364
 30
0.0
  0
POINT
  5
3C14
330
3B7F
100
AcDbEntity
  8
Defpoints
 62
     0
100
AcDbPoint
 10
460.0044269191453
 20
-63.71499146173636
 30
0.0
  0
POINT
  5
3C15
330
3B7F
100
AcDbEntity
  8
Defpoints
 62
     0
100
AcDbPoint
 10
460.0044269191453
 20
-63.71499146173625
 30
0.0
  0
ENDBLK
  5
3B8B
330
3B7F
100
AcDbEntity
  8
0
100
AcDbBlockEnd
  0
BLOCK
  5
3B97
330
3B8C
100
AcDbEntity
  8
0
100
AcDbBlockBegin
  2
*D55
 70
     1
 10
0.0
 20
0.0
 30
0.0
  3
*D55
  1

  0
LINE
  5
3C16
330
3B8C
100
AcDbEntity
  8
AM_REFDIM
 62
     0
370
    -2
100
AcDbLine
 10
365.1294269191454
 20
-55.46099146173637
 30
0.0
 11
365.1294269191454
 21
-48.32531492270576
 31
0.0
  0
LINE
  5
3C17
330
3B8C
100
AcDbEntity
  8
AM_REFDIM
 62
     0
370
    -2
100
AcDbLine
 10
462.8794269191453
 20
-55.46099146173637
 30
0.0
 11
462.8794269191453
 21
-48.32531492270576
 31
0.0
  0
LINE
  5
3C18
330
3B8C
100
AcDbEntity
  8
AM_REFDIM
 62
     0
370
    -2
100
AcDbLine
 10
368.3694269191454
 20
-51.56531492270577
 30
0.0
 11
390.0788618548449
 21
-51.56531492270577
 31
0.0
  0
LINE
  5
3C19
330
3B8C
100
AcDbEntity
  8
AM_REFDIM
 62
     0
370
    -2
100
AcDbLine
 10
459.6394269191453
 20
-51.56531492270577
 30
0.0
 11
440.7188618548448
 21
-51.56531492270577
 31
0.0
  0
SOLID
  5
3C1A
330
3B8C
100
AcDbEntity
  8
AM_REFDIM
 62
     0
100
AcDbTrace
 10
368.3694269191454
 20
-51.02531492270577
 30
0.0
 11
368.3694269191454
 21
-52.10531492270576
 31
0.0
 12
365.1294269191454
 22
-51.56531492270577
 32
0.0
 13
365.1294269191454
 23
-51.56531492270577
 33
0.0
  0
SOLID
  5
3C1B
330
3B8C
100
AcDbEntity
  8
AM_REFDIM
 62
     0
100
AcDbTrace
 10
459.6394269191453
 20
-51.02531492270577
 30
0.0
 11
459.6394269191453
 21
-52.10531492270576
 31
0.0
 12
462.8794269191453
 22
-51.56531492270577
 32
0.0
 13
462.8794269191453
 23
-51.56531492270577
 33
0.0
  0
MTEXT
  5
3C1C
330
3B8C
100
AcDbEntity
  8
AM_REFDIM
 62
     0
100
AcDbMText
 10
415.3988618548448
 20
-51.56531492270577
 30
0.0
 40
1.8
 41
0.0
 71
     5
 72
     1
  1
\A1;97.75" (BETWEEN HANGER EYES)
 73
     1
 44
1.0
1001
ACAD
1000
MTEXTBEGIN
1070
    73
1070
     1
1070
    44
1040
1.0
1070
    74
1070
     0
1000
MTEXTEND
  0
POINT
  5
3C1D
330
3B8C
100
AcDbEntity
  8
Defpoints
 62
     0
100
AcDbPoint
 10
365.1294269191454
 20
-56.58599146173637
 30
0.0
  0
POINT
  5
3C1E
330
3B8C
100
AcDbEntity
  8
Defpoints
 62
     0
100
AcDbPoint
 10
462.8794269191453
 20
-56.58599146173637
 30
0.0
  0
POINT
  5
3C1F
330
3B8C
100
AcDbEntity
  8
Defpoints
 62
     0
100
AcDbPoint
 10
462.8794269191453
 20
-51.56531492270577
 30
0.0
  0
ENDBLK
  5
3B98
330
3B8C
100
AcDbEntity
  8
0
100
AcDbBlockEnd
  0
BLOCK
  5
3BA4
330
3B99
100
AcDbEntity
  8
0
100
AcDbBlockBegin
  2
*D56
 70
     1
 10
0.0
 20
0.0
 30
0.0
  3
*D56
  1

  0
LINE
  5
3C20
330
3B99
100
AcDbEntity
  8
AM_REFDIM
 62
     0
370
    -2
100
AcDbLine
 10
364.3794269191454
 20
-55.24199146173635
 30
0.0
 11
364.3794269191454
 21
-43.8034149227058
 31
0.0
  0
LINE
  5
3C21
330
3B99
100
AcDbEntity
  8
AM_REFDIM
 62
     0
370
    -2
100
AcDbLine
 10
463.6294269191453
 20
-55.24199146173635
 30
0.0
 11
463.6294269191453
 21
-43.8034149227058
 31
0.0
  0
LINE
  5
3C22
330
3B99
100
AcDbEntity
  8
AM_REFDIM
 62
     0
370
    -2
100
AcDbLine
 10
367.6194269191454
 20
-47.04341492270581
 30
0.0
 11
387.3038618548449
 21
-47.04341492270581
 31
0.0
  0
LINE
  5
3C23
330
3B99
100
AcDbEntity
  8
AM_REFDIM
 62
     0
370
    -2
100
AcDbLine
 10
460.3894269191453
 20
-47.04341492270581
 30
0.0
 11
443.3438618548448
 21
-47.04341492270581
 31
0.0
  0
SOLID
  5
3C24
330
3B99
100
AcDbEntity
  8
AM_REFDIM
 62
     0
100
AcDbTrace
 10
367.6194269191454
 20
-46.5034149227058
 30
0.0
 11
367.6194269191454
 21
-47.5834149227058
 31
0.0
 12
364.3794269191454
 22
-47.04341492270581
 32
0.0
 13
364.3794269191454
 23
-47.04341492270581
 33
0.0
  0
SOLID
  5
3C25
330
3B99
100
AcDbEntity
  8
AM_REFDIM
 62
     0
100
AcDbTrace
 10
460.3894269191453
 20
-46.5034149227058
 30
0.0
 11
460.3894269191453
 21
-47.5834149227058
 31
0.0
 12
463.6294269191453
 22
-47.04341492270581
 32
0.0
 13
463.6294269191453
 23
-47.04341492270581
 33
0.0
  0
MTEXT
  5
3C26
330
3B99
100
AcDbEntity
  8
AM_REFDIM
 62
     0
100
AcDbMText
 10
415.3238618548448
 20
-47.04341492270581
 30
0.0
 40
1.8
 41
0.0
 71
     5
 72
     1
  1
\A1;99.25" (OVERALL LENGTH OF CASE)
 73
     1
 44
1.0
1001
ACAD
1000
MTEXTBEGIN
1070
    73
1070
     1
1070
    44
1040
1.0
1070
    74
1070
     0
1000
MTEXTEND
  0
POINT
  5
3C27
330
3B99
100
AcDbEntity
  8
Defpoints
 62
     0
100
AcDbPoint
 10
364.3794269191454
 20
-56.36699146173635
 30
0.0
  0
POINT
  5
3C28
330
3B99
100
AcDbEntity
  8
Defpoints
 62
     0
100
AcDbPoint
 10
463.6294269191453
 20
-56.36699146173635
 30
0.0
  0
POINT
  5
3C29
330
3B99
100
AcDbEntity
  8
Defpoints
 62
     0
100
AcDbPoint
 10
463.6294269191453
 20
-47.04341492270581
 30
0.0
  0
ENDBLK
  5
3BA5
330
3B99
100
AcDbEntity
  8
0
100
AcDbBlockEnd
  0
BLOCK
  5
3C40
330
3C35
100
AcDbEntity
  8
0
100
AcDbBlockBegin
  2
*D57
 70
     1
 10
0.0
 20
0.0
 30
0.0
  3
*D57
  1

  0
LINE
  5
3C4C
330
3C35
100
AcDbEntity
  8
AM_REFDIM
 62
     0
370
    -2
100
AcDbLine
 10
192.9721985483124
 20
-161.7560216021134
 30
0.0
 11
192.9721985483124
 21
-179.5809632772893
 31
0.0
  0
LINE
  5
3C4D
330
3C35
100
AcDbEntity
  8
AM_REFDIM
 62
     0
370
    -2
100
AcDbLine
 10
290.8471985483124
 20
-161.7560216021135
 30
0.0
 11
290.8471985483124
 21
-179.5809632772893
 31
0.0
  0
LINE
  5
3C4E
330
3C35
100
AcDbEntity
  8
AM_REFDIM
 62
     0
370
    -2
100
AcDbLine
 10
196.2121985483124
 20
-176.3409632772893
 30
0.0
 11
215.5716334840118
 21
-176.3409632772893
 31
0.0
  0
LINE
  5
3C4F
330
3C35
100
AcDbEntity
  8
AM_REFDIM
 62
     0
370
    -2
100
AcDbLine
 10
287.6071985483124
 20
-176.3409632772893
 30
0.0
 11
271.6116334840118
 21
-176.3409632772893
 31
0.0
  0
SOLID
  5
3C50
330
3C35
100
AcDbEntity
  8
AM_REFDIM
 62
     0
100
AcDbTrace
 10
196.2121985483124
 20
-175.8009632772893
 30
0.0
 11
196.2121985483124
 21
-176.8809632772893
 31
0.0
 12
192.9721985483124
 22
-176.3409632772893
 32
0.0
 13
192.9721985483124
 23
-176.3409632772893
 33
0.0
  0
SOLID
  5
3C51
330
3C35
100
AcDbEntity
  8
AM_REFDIM
 62
     0
100
AcDbTrace
 10
287.6071985483124
 20
-175.8009632772893
 30
0.0
 11
287.6071985483124
 21
-176.8809632772893
 31
0.0
 12
290.8471985483124
 22
-176.3409632772893
 32
0.0
 13
290.8471985483124
 23
-176.3409632772893
 33
0.0
  0
MTEXT
  5
3C52
330
3C35
100
AcDbEntity
  8
AM_REFDIM
 62
     0
100
AcDbMText
 10
243.5916334840118
 20
-176.3409632772893
 30
0.0
 40
1.8
 41
0.0
 71
     5
 72
     1
  1
\A1;97.87" (OVERALL LENGTH OF SLAT)
 73
     1
 44
1.0
1001
ACAD
1000
MTEXTBEGIN
1070
    73
1070
     1
1070
    44
1040
1.0
1070
    74
1070
     0
1000
MTEXTEND
  0
POINT
  5
3C53
330
3C35
100
AcDbEntity
  8
Defpoints
 62
     0
100
AcDbPoint
 10
192.9721985483124
 20
-160.6310216021134
 30
0.0
  0
POINT
  5
3C54
330
3C35
100
AcDbEntity
  8
Defpoints
 62
     0
100
AcDbPoint
 10
290.8471985483124
 20
-160.6310216021135
 30
0.0
  0
POINT
  5
3C55
330
3C35
100
AcDbEntity
  8
Defpoints
 62
     0
100
AcDbPoint
 10
290.8471985483124
 20
-176.3409632772893
 30
0.0
  0
ENDBLK
  5
3C41
330
3C35
100
AcDbEntity
  8
0
100
AcDbBlockEnd
  0
ENDSEC
  0
SECTION
  2
ENTITIES
  0
DIMENSION
  5
46
330
31
100
AcDbEntity
  8
6
100
AcDbDimension
  2
*D11
 10
292.6537019664768
 20
-91.78532891599244
 30
0.0
 11
241.9022034302055
 21
-91.78532891599244
 31
0.0
 70
   160
  1
<> OVERALL LENGTH OF CASE
 71
     5
 42
101.5029970725427
  3
STANDARD
100
AcDbAlignedDimension
 13
191.1507048939341
 23
-98.30301873317733
 33
0.0
 14
292.6537019664768
 24
-98.30301873317733
 34
0.0
100
AcDbRotatedDimension
  0
DIMENSION
  5
47
330
31
100
AcDbEntity
  8
6
100
AcDbDimension
  2
*D12
 10
190.2847018700166
 20
-86.04315667067773
 30
0.0
 11
241.9097013737667
 21
-86.04315667067732
 31
0.0
 70
   160
  1
<> OVERALL LENGTH WITH FLANGE
 71
     5
 42
103.2499990074999
  3
STANDARD
100
AcDbAlignedDimension
 13
293.5347008775169
 23
-103.1666553790864
 33
0.0
 14
190.2847018700169
 24
-103.0476553802764
 34
0.0
 50
180.0000000000004
100
AcDbRotatedDimension
  0
TEXT
  5
6A
330
31
100
AcDbEntity
  8
0
  6
Continuous
 62
     2
100
AcDbText
 10
7.8499189711
 20
0.2762522449
 30
0.0
 40
0.125
  1
 
 41
0.6000000000000015
  7
TEXTSTYLE_0
 72
     5
 11
7.9249189711
 21
0.2762522449
 31
0.0
100
AcDbText
  0
LINE
  5
A9
330
31
100
AcDbEntity
  8
0
  6
Continuous
 62
     7
100
AcDbLine
 10
190.2846990445624
 20
-104.1840245343672
 30
0.0
 11
190.2846990445624
 21
-104.3030186731773
 31
0.0
  0
LINE
  5
AA
330
31
100
AcDbEntity
  8
0
  6
Continuous
 62
     7
100
AcDbLine
 10
190.4096990433123
 20
-104.1840245343672
 30
0.0
 11
190.4096990433123
 21
-104.3030186731773
 31
0.0
  0
LINE
  5
AB
330
31
100
AcDbEntity
  8
0
  6
Continuous
 62
     7
100
AcDbLine
 10
191.0147039190805
 20
-103.2158360676855
 30
0.0
 11
191.0147039190805
 21
-102.8902013054873
 31
0.0
  0
LINE
  5
AC
330
31
100
AcDbEntity
  8
0
  6
Continuous
 62
     7
100
AcDbLine
 10
191.0147039190805
 20
-99.46583610518551
 30
0.0
 11
191.0147039190805
 21
-99.14020134298731
 31
0.0
  0
LINE
  5
B1
330
31
100
AcDbEntity
  8
0
  6
Continuous
 62
     7
100
AcDbLine
 10
191.0947026982805
 20
-99.12289177225133
 30
0.0
 11
191.0947026982805
 21
-99.14020134298731
 31
0.0
  0
LINE
  5
B2
330
31
100
AcDbEntity
  8
0
  6
Continuous
 62
     7
100
AcDbLine
 10
191.0947026982805
 20
-102.8728917347513
 30
0.0
 11
191.0947026982805
 21
-102.8902013054873
 31
0.0
  0
LINE
  5
B3
330
31
100
AcDbEntity
  8
0
  6
Continuous
 62
     7
100
AcDbLine
 10
191.0947026982805
 20
-103.2331578438759
 30
0.0
 11
191.0947026982805
 21
-103.2158360676855
 31
0.0
  0
LINE
  5
B4
330
31
100
AcDbEntity
  8
0
  6
Continuous
 62
     7
100
AcDbLine
 10
191.0947026982805
 20
-99.48315788137591
 30
0.0
 11
191.0947026982805
 21
-99.46583610518551
 31
0.0
  0
LINE
  5
B7
330
31
100
AcDbEntity
  8
0
  6
Continuous
 62
     7
100
AcDbLine
 10
191.1346990360624
 20
-99.09602409615636
 30
0.0
 11
191.1346990360624
 21
-99.51001335019826
 31
0.0
  0
LINE
  5
B8
330
31
100
AcDbEntity
  8
0
  6
Continuous
 62
     7
100
AcDbLine
 10
191.1346990360624
 20
-102.8460240586563
 30
0.0
 11
191.1346990360624
 21
-103.2600133126982
 31
0.0
  0
LINE
  5
B9
330
31
100
AcDbEntity
  8
0
  6
Continuous
 62
     7
100
AcDbLine
 10
191.1657048939341
 20
-104.1540196510309
 30
0.0
 11
191.1657048939341
 21
-98.30301873317733
 31
0.0
  0
LINE
  5
BA
330
31
100
AcDbEntity
  8
0
  6
Continuous
 62
     7
100
AcDbLine
 10
191.2597018548123
 20
-104.3030190040864
 30
0.0
 11
191.2597018548123
 21
-104.1840190470946
 31
0.0
  0
LINE
  5
BB
330
31
100
AcDbEntity
  8
0
  6
Continuous
 62
     7
100
AcDbLine
 10
191.2846990345624
 20
-104.3185216021132
 30
0.0
 11
191.2846990345624
 21
-97.88751580824145
 31
0.0
  0
LINE
  5
15B
330
31
100
AcDbEntity
  8
0
  6
Continuous
 62
     7
100
AcDbLine
 10
211.3322024559055
 20
-97.36451776619869
 30
0.0
 11
211.3217593396463
 21
-97.37197626248772
 31
0.0
  0
LINE
  5
15C
330
31
100
AcDbEntity
  8
0
  6
Continuous
 62
     7
100
AcDbLine
 10
211.8726138268651
 20
-97.60708368195485
 30
0.0
 11
211.8622012287874
 21
-97.61451776369868
 31
0.0
  0
LWPOLYLINE
  5
15D
330
31
100
AcDbEntity
  8
0
  6
Continuous
 62
     7
100
AcDbPolyline
 90
       11
 70
     0
 43
0.0
 10
211.5971987914374
 20
-97.57722528407164
 10
211.5674136353716
 20
-97.58956659122091
 10
211.5394107047425
 20
-97.59902704203545
 10
211.51229888865
 20
-97.60589960014851
 10
211.4855838016445
 20
-97.61025750919586
 10
211.4589907837285
 20
-97.61203973645072
 10
211.4324099749034
 20
-97.61120965827721
 10
211.405762026079
 20
-97.60777948194789
 10
211.3788394172573
 20
-97.60182245109838
 10
211.3512515284423
 20
-97.59332635845606
 10
211.3221987941874
 20
-97.58207147493223
  0
LWPOLYLINE
  5
16A
330
31
100
AcDbEntity
  8
0
  6
Continuous
 62
     7
100
AcDbPolyline
 90
       11
 70
     0
 43
0.0
 10
211.8721987886874
 20
-97.57710321316375
 10
211.843011776252
 20
-97.58815057668964
 10
211.8152346765298
 20
-97.59661004933231
 10
211.7881533786187
 20
-97.60266473654452
 10
211.7613650497957
 20
-97.60633905287141
 10
211.7346682718809
 20
-97.60758416922257
 10
211.707971493966
 20
-97.60636346741662
 10
211.6811892687793
 20
-97.60271356381672
 10
211.6541201763227
 20
-97.59667108387716
 10
211.6263674911457
 20
-97.5882482330523
 10
211.5971987914374
 20
-97.57722528407164
  0
LINE
  5
17E
330
31
100
AcDbEntity
  8
0
  6
Continuous
 62
     7
100
AcDbLine
 10
210.9096987983124
 20
-97.70852411003136
 30
0.0
 11
210.9096987983124
 21
-97.88751580824145
 31
0.0
  0
LINE
  5
17F
330
31
100
AcDbEntity
  8
0
  6
Continuous
 62
     7
100
AcDbLine
 10
210.919000554583
 20
-97.70852411003136
 30
0.0
 11
210.919000554583
 21
-97.88751580824145
 31
0.0
  0
LINE
  5
180
330
31
100
AcDbEntity
  8
0
  6
Continuous
 62
     7
100
AcDbLine
 10
211.1596987958124
 20
-97.70852411003136
 30
0.0
 11
211.1596987958124
 21
-97.61451776369868
 31
0.0
  0
LINE
  5
181
330
31
100
AcDbEntity
  8
0
  6
Continuous
 62
     7
100
AcDbLine
 10
211.1604800448955
 20
-97.70852411003136
 30
0.0
 11
211.1604800448955
 21
-97.88751580824145
 31
0.0
  0
LINE
  5
182
330
31
100
AcDbEntity
  8
0
  6
Continuous
 62
     7
100
AcDbLine
 10
211.3222016141873
 20
-97.60737456922466
 30
0.0
 11
211.3222016141873
 21
-97.37166356976359
 31
0.0
  0
LINE
  5
183
330
31
100
AcDbEntity
  8
0
  6
Continuous
 62
     7
100
AcDbLine
 10
211.4412016148154
 20
-97.36451906438048
 30
0.0
 11
211.4412016148154
 21
-97.31751907394141
 31
0.0
  0
LINE
  5
184
330
31
100
AcDbEntity
  8
0
  6
Continuous
 62
     7
100
AcDbLine
 10
211.5971987914373
 20
-97.57722528407162
 30
0.0
 11
211.5971987914373
 21
-97.40181024582577
 31
0.0
  0
LINE
  5
185
330
31
100
AcDbEntity
  8
0
  6
Continuous
 62
     7
100
AcDbLine
 10
211.7532016189683
 20
-97.36451906438048
 30
0.0
 11
211.7532016189683
 21
-97.31751907394141
 31
0.0
  0
LINE
  5
186
330
31
100
AcDbEntity
  8
0
  6
Continuous
 62
     7
100
AcDbLine
 10
211.8722016195965
 20
-97.37166332976357
 30
0.0
 11
211.8722016195965
 21
-97.60737481831556
 31
0.0
  0
LINE
  5
187
330
31
100
AcDbEntity
  8
0
  6
Continuous
 62
     7
100
AcDbLine
 10
212.0339236397974
 20
-97.88751580824145
 30
0.0
 11
212.0339236397974
 21
-97.70852411003136
 31
0.0
  0
LINE
  5
188
330
31
100
AcDbEntity
  8
0
  6
Continuous
 62
     7
100
AcDbLine
 10
212.0346987870624
 20
-97.70852411003136
 30
0.0
 11
212.0346987870624
 21
-97.61451776369868
 31
0.0
  0
LINE
  5
1C7
330
31
100
AcDbEntity
  8
0
  6
Continuous
 62
     7
100
AcDbLine
 10
212.2754031301099
 20
-97.88751580824145
 30
0.0
 11
212.2754031301099
 21
-97.70852411003136
 31
0.0
  0
LINE
  5
1C8
330
31
100
AcDbEntity
  8
0
  6
Continuous
 62
     7
100
AcDbLine
 10
212.2846987845624
 20
-97.70852411003136
 30
0.0
 11
212.2846987845624
 21
-97.88751580824145
 31
0.0
  0
LWPOLYLINE
  5
1F8
330
31
100
AcDbEntity
  8
0
  6
Continuous
 62
     7
100
AcDbPolyline
 90
       11
 70
     0
 43
0.0
 10
272.2221983051874
 20
-97.57722528407164
 10
272.1924131491216
 20
-97.58956659122091
 10
272.1644102184926
 20
-97.59902704203545
 10
272.1372984024
 20
-97.60589960014851
 10
272.1105772117581
 20
-97.61025750919586
 10
272.0839902974784
 20
-97.61203973645072
 10
272.0574033850171
 20
-97.61120965827721
 10
272.0307554361927
 20
-97.60777948194789
 10
272.0038389310074
 20
-97.60182245109838
 10
271.9762510421923
 20
-97.59332635845606
 10
271.9471983079374
 20
-97.58207147493223
  0
LWPOLYLINE
  5
205
330
31
100
AcDbEntity
  8
0
  6
Continuous
 62
     7
100
AcDbPolyline
 90
       11
 70
     0
 43
0.0
 10
272.4971983024374
 20
-97.57710321316375
 10
272.468011290002
 20
-97.58815057668964
 10
272.440240293916
 20
-97.59661004933231
 10
272.4131528923687
 20
-97.60266473654452
 10
272.386370667182
 20
-97.60633905287141
 10
272.3596616819946
 20
-97.60758416922257
 10
272.3329649058979
 20
-97.60636346741662
 10
272.3061948861656
 20
-97.60271356381672
 10
272.2791196900727
 20
-97.59667108387716
 10
272.2513609012594
 20
-97.5882482330523
 10
272.2221983051874
 20
-97.57722528407164
  0
LINE
  5
25E
330
31
100
AcDbEntity
  8
0
  6
Continuous
 62
     7
100
AcDbLine
 10
271.9571958660192
 20
-97.36451776619869
 30
0.0
 11
271.9467588533963
 21
-97.37197626248772
 31
0.0
  0
LINE
  5
25F
330
31
100
AcDbEntity
  8
0
  6
Continuous
 62
     7
100
AcDbLine
 10
272.497613340615
 20
-97.60708368195485
 30
0.0
 11
272.4872007425373
 21
-97.61451776369868
 31
0.0
  0
LWPOLYLINE
  5
2D6
330
31
100
AcDbEntity
  8
0
  6
Continuous
 62
     7
100
AcDbPolyline
 90
       11
 70
     0
 43
0.0
 10
211.8721987886874
 20
-97.40193231673366
 10
211.8430178798883
 20
-97.39088495320777
 10
211.8152407801661
 20
-97.38242548056508
 10
211.7881533786187
 20
-97.37637079335287
 10
211.7613650497957
 20
-97.37269647702603
 10
211.7346682718809
 20
-97.37145136067482
 10
211.707971493966
 20
-97.37267206248079
 10
211.6811892687793
 20
-97.37633417153508
 10
211.6541201763227
 20
-97.38236444602025
 10
211.6263613875094
 20
-97.39078729684507
 10
211.5971987914374
 20
-97.40181024582577
  0
LWPOLYLINE
  5
2E3
330
31
100
AcDbEntity
  8
0
  6
Continuous
 62
     7
100
AcDbPolyline
 90
       12
 70
     0
 43
0.0
 10
211.5971987914374
 20
-97.40181024582577
 10
211.5700503535271
 20
-97.39046991503009
 10
211.5444338992377
 20
-97.3815465751193
 10
211.5196475213038
 20
-97.37475946609629
 10
211.4952761851839
 20
-97.37007196614314
 10
211.4710696417896
 20
-97.36748407525992
 10
211.4469058238494
 20
-97.36704462071889
 10
211.4227297986366
 20
-97.36877802070155
 10
211.3984500134248
 20
-97.37263544248115
 10
211.3738772591251
 20
-97.37858026605806
 10
211.3486697411954
 20
-97.3866246987049
 10
211.3221987941874
 20
-97.39696405496514
  0
LINE
  5
2F1
330
31
100
AcDbEntity
  8
0
  6
Continuous
 62
     7
100
AcDbLine
 10
211.8622012287874
 20
-97.36451776619869
 30
0.0
 11
211.8726138268651
 21
-97.37195184794252
 31
0.0
  0
LINE
  5
2F2
330
31
100
AcDbEntity
  8
0
  6
Continuous
 62
     7
100
AcDbLine
 10
211.3217593396463
 20
-97.60705926740966
 30
0.0
 11
211.3322024559055
 21
-97.61451776369868
 31
0.0
  0
LINE
  5
2F3
330
31
100
AcDbEntity
  8
0
  6
Continuous
 62
     7
100
AcDbLine
 10
271.5346983120624
 20
-97.70852411003136
 30
0.0
 11
271.5346983120624
 21
-97.88751580824145
 31
0.0
  0
LINE
  5
2F4
330
31
100
AcDbEntity
  8
0
  6
Continuous
 62
     7
100
AcDbLine
 10
271.544000068333
 20
-97.70852411003136
 30
0.0
 11
271.544000068333
 21
-97.88751580824145
 31
0.0
  0
LINE
  5
2F5
330
31
100
AcDbEntity
  8
0
  6
Continuous
 62
     7
100
AcDbLine
 10
271.7846983095625
 20
-97.70852411003136
 30
0.0
 11
271.7846983095625
 21
-97.61451776369868
 31
0.0
  0
LINE
  5
2F6
330
31
100
AcDbEntity
  8
0
  6
Continuous
 62
     7
100
AcDbLine
 10
271.7854795586454
 20
-97.70852411003136
 30
0.0
 11
271.7854795586454
 21
-97.88751580824145
 31
0.0
  0
LINE
  5
2F7
330
31
100
AcDbEntity
  8
0
  6
Continuous
 62
     7
100
AcDbLine
 10
271.9472011279373
 20
-97.60737456922466
 30
0.0
 11
271.9472011279373
 21
-97.37166356976359
 31
0.0
  0
LINE
  5
2F8
330
31
100
AcDbEntity
  8
0
  6
Continuous
 62
     7
100
AcDbLine
 10
272.0662011285654
 20
-97.36451906438048
 30
0.0
 11
272.0662011285654
 21
-97.31751907394141
 31
0.0
  0
LINE
  5
2F9
330
31
100
AcDbEntity
  8
0
  6
Continuous
 62
     7
100
AcDbLine
 10
272.2221983051874
 20
-97.57722528407162
 30
0.0
 11
272.2221983051874
 21
-97.40181024582577
 31
0.0
  0
LINE
  5
2FA
330
31
100
AcDbEntity
  8
0
  6
Continuous
 62
     7
100
AcDbLine
 10
272.3782011327183
 20
-97.36451906438048
 30
0.0
 11
272.3782011327183
 21
-97.31751907394141
 31
0.0
  0
LINE
  5
2FB
330
31
100
AcDbEntity
  8
0
  6
Continuous
 62
     7
100
AcDbLine
 10
272.4972011333464
 20
-97.37166332976357
 30
0.0
 11
272.4972011333464
 21
-97.60737481831556
 31
0.0
  0
LINE
  5
2FC
330
31
100
AcDbEntity
  8
0
  6
Continuous
 62
     7
100
AcDbLine
 10
272.658917049911
 20
-97.88751580824145
 30
0.0
 11
272.658917049911
 21
-97.70852411003136
 31
0.0
  0
LINE
  5
2FD
330
31
100
AcDbEntity
  8
0
  6
Continuous
 62
     7
100
AcDbLine
 10
272.6596983008123
 20
-97.70852411003136
 30
0.0
 11
272.6596983008123
 21
-97.61451776369868
 31
0.0
  0
LINE
  5
2FE
330
31
100
AcDbEntity
  8
0
  6
Continuous
 62
     7
100
AcDbLine
 10
272.9003965402235
 20
-97.88751580824145
 30
0.0
 11
272.9003965402235
 21
-97.70852411003136
 31
0.0
  0
LINE
  5
2FF
330
31
100
AcDbEntity
  8
0
  6
Continuous
 62
     7
100
AcDbLine
 10
272.9096982983123
 20
-97.70852411003136
 30
0.0
 11
272.9096982983123
 21
-97.88751580824145
 31
0.0
  0
LINE
  5
330
330
31
100
AcDbEntity
  8
0
  6
Continuous
 62
     7
100
AcDbLine
 10
191.2846990345624
 20
-104.3185216021132
 30
0.0
 11
292.5346980620623
 21
-104.3185216021132
 31
0.0
  0
LINE
  5
331
330
31
100
AcDbEntity
  8
0
  6
Continuous
 62
     7
100
AcDbLine
 10
293.5346980520623
 20
-104.3030186731773
 30
0.0
 11
292.5597008927214
 21
-104.3030190040864
 31
0.0
  0
LINE
  5
332
330
31
100
AcDbEntity
  8
0
  6
Continuous
 62
     7
100
AcDbLine
 10
191.2597018548123
 20
-104.3030190040864
 30
0.0
 11
190.2846990445624
 21
-104.3030186731773
 31
0.0
  0
LINE
  5
333
330
31
100
AcDbEntity
  8
0
  6
Continuous
 62
     7
100
AcDbLine
 10
191.2846990345624
 20
-104.288516720595
 30
0.0
 11
292.5346980620623
 21
-104.288516720595
 31
0.0
  0
LINE
  5
334
330
31
100
AcDbEntity
  8
0
  6
Continuous
 62
     7
100
AcDbLine
 10
292.5597008927214
 20
-104.1990189142173
 30
0.0
 11
293.5346980520623
 21
-104.1990147687628
 31
0.0
  0
LINE
  5
335
330
31
100
AcDbEntity
  8
0
  6
Continuous
 62
     7
100
AcDbLine
 10
191.2846990345624
 20
-104.1925206270095
 30
0.0
 11
292.5346980620623
 21
-104.1925206270095
 31
0.0
  0
LINE
  5
336
330
31
100
AcDbEntity
  8
0
  6
Continuous
 62
     7
100
AcDbLine
 10
190.2846990445624
 20
-104.1840245343672
 30
0.0
 11
191.2596990348124
 21
-104.1840245343672
 31
0.0
  0
LINE
  5
337
330
31
100
AcDbEntity
  8
0
  6
Continuous
 62
     7
100
AcDbLine
 10
191.2846990345624
 20
-104.1625157454914
 30
0.0
 11
292.5346980620623
 21
-104.1625157454914
 31
0.0
  0
LINE
  5
338
330
31
100
AcDbEntity
  8
0
  6
Continuous
 62
     7
100
AcDbLine
 10
292.5346980620623
 20
-104.1325230694277
 30
0.0
 11
191.2846990345624
 21
-104.1325230694277
 31
0.0
  0
LINE
  5
339
330
31
100
AcDbEntity
  8
0
  6
Continuous
 62
     7
100
AcDbLine
 10
292.6696956188942
 20
-103.2600133126982
 30
0.0
 11
292.6387019664769
 21
-103.2600133126982
 31
0.0
  0
LINE
  5
33A
330
31
100
AcDbEntity
  8
0
  6
Continuous
 62
     7
100
AcDbLine
 10
191.1346990360624
 20
-103.2600133126982
 30
0.0
 11
191.1657048939341
 21
-103.2600133126982
 31
0.0
  0
LINE
  5
33B
330
31
100
AcDbEntity
  8
0
  6
Continuous
 62
     7
100
AcDbLine
 10
292.7096980603124
 20
-103.2331578438759
 30
0.0
 11
292.6696956188942
 21
-103.2331578438759
 31
0.0
  0
LINE
  5
33C
330
31
100
AcDbEntity
  8
0
  6
Continuous
 62
     7
100
AcDbLine
 10
191.0947026982805
 20
-103.2331578438759
 30
0.0
 11
191.1346990360624
 21
-103.2331578438759
 31
0.0
  0
LINE
  5
33D
330
31
100
AcDbEntity
  8
0
  6
Continuous
 62
     7
100
AcDbLine
 10
292.7897029413305
 20
-103.2158360676855
 30
0.0
 11
292.7096980603124
 21
-103.2158360676855
 31
0.0
  0
LINE
  5
33E
330
31
100
AcDbEntity
  8
0
  6
Continuous
 62
     7
100
AcDbLine
 10
191.0147039190805
 20
-103.2158360676855
 30
0.0
 11
191.0947026982805
 21
-103.2158360676855
 31
0.0
  0
LINE
  5
33F
330
31
100
AcDbEntity
  8
0
  6
Continuous
 62
     7
100
AcDbLine
 10
292.7897029413305
 20
-103.1430821611402
 30
0.0
 11
292.6696956188942
 21
-103.1430821611402
 31
0.0
  0
LINE
  5
340
330
31
100
AcDbEntity
  8
0
  6
Continuous
 62
     7
100
AcDbLine
 10
191.0147039190805
 20
-103.1430821611402
 30
0.0
 11
191.1346990360624
 21
-103.1430821611402
 31
0.0
  0
LINE
  5
341
330
31
100
AcDbEntity
  8
0
  6
Continuous
 62
     7
100
AcDbLine
 10
292.7897029413305
 20
-102.9629552102143
 30
0.0
 11
292.6696956188942
 21
-102.9629552102143
 31
0.0
  0
LINE
  5
342
330
31
100
AcDbEntity
  8
0
  6
Continuous
 62
     7
100
AcDbLine
 10
191.0147039190805
 20
-102.9629552102143
 30
0.0
 11
191.1346990360624
 21
-102.9629552102143
 31
0.0
  0
LINE
  5
343
330
31
100
AcDbEntity
  8
0
  6
Continuous
 62
     7
100
AcDbLine
 10
292.7897029413305
 20
-102.8902013054873
 30
0.0
 11
292.7096980603124
 21
-102.8902013054873
 31
0.0
  0
LINE
  5
344
330
31
100
AcDbEntity
  8
0
  6
Continuous
 62
     7
100
AcDbLine
 10
191.0147039190805
 20
-102.8902013054873
 30
0.0
 11
191.0947026982805
 21
-102.8902013054873
 31
0.0
  0
LINE
  5
345
330
31
100
AcDbEntity
  8
0
  6
Continuous
 62
     7
100
AcDbLine
 10
292.7096980603124
 20
-102.8728917347513
 30
0.0
 11
292.6696956188942
 21
-102.8728917347513
 31
0.0
  0
LINE
  5
346
330
31
100
AcDbEntity
  8
0
  6
Continuous
 62
     7
100
AcDbLine
 10
191.0947026982805
 20
-102.8728917347513
 30
0.0
 11
191.1346990360624
 21
-102.8728917347513
 31
0.0
  0
LINE
  5
347
330
31
100
AcDbEntity
  8
0
  6
Continuous
 62
     7
100
AcDbLine
 10
292.6696956188942
 20
-102.8460240586563
 30
0.0
 11
292.6387019664769
 21
-102.8460240586563
 31
0.0
  0
LINE
  5
348
330
31
100
AcDbEntity
  8
0
  6
Continuous
 62
     7
100
AcDbLine
 10
191.1346990360624
 20
-102.8460240586563
 30
0.0
 11
191.1657048939341
 21
-102.8460240586563
 31
0.0
  0
LINE
  5
35C
330
31
100
AcDbEntity
  8
0
  6
Continuous
 62
     7
100
AcDbLine
 10
292.6696956188942
 20
-99.51001335019826
 30
0.0
 11
292.6387019664769
 21
-99.51001335019826
 31
0.0
  0
LINE
  5
35D
330
31
100
AcDbEntity
  8
0
  6
Continuous
 62
     7
100
AcDbLine
 10
191.1346990360624
 20
-99.51001335019826
 30
0.0
 11
191.1657048939341
 21
-99.51001335019826
 31
0.0
  0
LINE
  5
35E
330
31
100
AcDbEntity
  8
0
  6
Continuous
 62
     7
100
AcDbLine
 10
292.7096980603124
 20
-99.48315788137591
 30
0.0
 11
292.6696956188942
 21
-99.48315788137591
 31
0.0
  0
LINE
  5
35F
330
31
100
AcDbEntity
  8
0
  6
Continuous
 62
     7
100
AcDbLine
 10
191.0947026982805
 20
-99.48315788137591
 30
0.0
 11
191.1346990360624
 21
-99.48315788137591
 31
0.0
  0
LINE
  5
360
330
31
100
AcDbEntity
  8
0
  6
Continuous
 62
     7
100
AcDbLine
 10
292.7897029413305
 20
-99.46583610518551
 30
0.0
 11
292.7096980603124
 21
-99.46583610518551
 31
0.0
  0
LINE
  5
361
330
31
100
AcDbEntity
  8
0
  6
Continuous
 62
     7
100
AcDbLine
 10
191.0147039190805
 20
-99.46583610518551
 30
0.0
 11
191.0947026982805
 21
-99.46583610518551
 31
0.0
  0
LINE
  5
362
330
31
100
AcDbEntity
  8
0
  6
Continuous
 62
     7
100
AcDbLine
 10
292.7897029413305
 20
-99.39308219864031
 30
0.0
 11
292.6696956188942
 21
-99.39308219864031
 31
0.0
  0
LINE
  5
363
330
31
100
AcDbEntity
  8
0
  6
Continuous
 62
     7
100
AcDbLine
 10
191.0147039190805
 20
-99.39308219864031
 30
0.0
 11
191.1346990360624
 21
-99.39308219864031
 31
0.0
  0
LINE
  5
364
330
31
100
AcDbEntity
  8
0
  6
Continuous
 62
     7
100
AcDbLine
 10
292.7897029413305
 20
-99.2129552477143
 30
0.0
 11
292.6696956188942
 21
-99.2129552477143
 31
0.0
  0
LINE
  5
365
330
31
100
AcDbEntity
  8
0
  6
Continuous
 62
     7
100
AcDbLine
 10
191.0147039190805
 20
-99.2129552477143
 30
0.0
 11
191.1346990360624
 21
-99.2129552477143
 31
0.0
  0
LINE
  5
366
330
31
100
AcDbEntity
  8
0
  6
Continuous
 62
     7
100
AcDbLine
 10
292.7897029413305
 20
-99.14020134298731
 30
0.0
 11
292.7096980603124
 21
-99.14020134298731
 31
0.0
  0
LINE
  5
367
330
31
100
AcDbEntity
  8
0
  6
Continuous
 62
     7
100
AcDbLine
 10
191.0147039190805
 20
-99.14020134298731
 30
0.0
 11
191.0947026982805
 21
-99.14020134298731
 31
0.0
  0
LINE
  5
368
330
31
100
AcDbEntity
  8
0
  6
Continuous
 62
     7
100
AcDbLine
 10
292.7096980603124
 20
-99.12289177225133
 30
0.0
 11
292.6696956188942
 21
-99.12289177225133
 31
0.0
  0
LINE
  5
369
330
31
100
AcDbEntity
  8
0
  6
Continuous
 62
     7
100
AcDbLine
 10
191.0947026982805
 20
-99.12289177225133
 30
0.0
 11
191.1346990360624
 21
-99.12289177225133
 31
0.0
  0
LINE
  5
36A
330
31
100
AcDbEntity
  8
0
  6
Continuous
 62
     7
100
AcDbLine
 10
292.6696956188942
 20
-99.09602409615636
 30
0.0
 11
292.6387019664769
 21
-99.09602409615636
 31
0.0
  0
LINE
  5
36B
330
31
100
AcDbEntity
  8
0
  6
Continuous
 62
     7
100
AcDbLine
 10
191.1346990360624
 20
-99.09602409615636
 30
0.0
 11
191.1657048939341
 21
-99.09602409615636
 31
0.0
  0
LINE
  5
36C
330
31
100
AcDbEntity
  8
0
  6
Continuous
 62
     7
100
AcDbLine
 10
191.1657048939341
 20
-98.42801873192733
 30
0.0
 11
191.2846990345624
 21
-98.42801873192733
 31
0.0
  0
LINE
  5
36D
330
31
100
AcDbEntity
  8
0
  6
Continuous
 62
     7
100
AcDbLine
 10
292.5346980620623
 20
-98.42801873192733
 30
0.0
 11
292.6387019664769
 21
-98.42801873192733
 31
0.0
  0
LINE
  5
36E
330
31
100
AcDbEntity
  8
0
  6
Continuous
 62
     7
100
AcDbLine
 10
191.1657048939341
 20
-98.30301873317733
 30
0.0
 11
191.2846990345624
 21
-98.30301873317733
 31
0.0
  0
LINE
  5
36F
330
31
100
AcDbEntity
  8
0
  6
Continuous
 62
     7
100
AcDbLine
 10
292.5346980620623
 20
-98.30301873317733
 30
0.0
 11
292.6387019664769
 21
-98.30301873317733
 31
0.0
  0
LINE
  5
370
330
31
100
AcDbEntity
  8
0
  6
Continuous
 62
     7
100
AcDbLine
 10
191.2846990345624
 20
-97.94751336582329
 30
0.0
 11
292.5346980620623
 21
-97.94751336582329
 31
0.0
  0
LINE
  5
371
330
31
100
AcDbEntity
  8
0
  6
Continuous
 62
     7
100
AcDbLine
 10
191.2847018600168
 20
-97.88751914278689
 30
0.0
 11
292.5347008875169
 21
-97.88751914278689
 31
0.0
  0
LINE
  5
372
330
31
100
AcDbEntity
  8
0
  6
Continuous
 62
     7
100
AcDbLine
 10
272.9096982983123
 20
-97.70852411003136
 30
0.0
 11
271.5346983120624
 21
-97.70852411003136
 31
0.0
  0
LINE
  5
373
330
31
100
AcDbEntity
  8
0
  6
Continuous
 62
     7
100
AcDbLine
 10
212.2846987845624
 20
-97.70852411003136
 30
0.0
 11
210.9096987983124
 21
-97.70852411003136
 31
0.0
  0
LINE
  5
374
330
31
100
AcDbEntity
  8
0
  6
Continuous
 62
     7
100
AcDbLine
 10
211.1596987958124
 20
-97.61451776369868
 30
0.0
 11
212.0346987870624
 21
-97.61451776369868
 31
0.0
  0
LINE
  5
375
330
31
100
AcDbEntity
  8
0
  6
Continuous
 62
     7
100
AcDbLine
 10
271.7846983095625
 20
-97.61451776369868
 30
0.0
 11
272.6596983008123
 21
-97.61451776369868
 31
0.0
  0
LINE
  5
376
330
31
100
AcDbEntity
  8
0
  6
Continuous
 62
     7
100
AcDbLine
 10
211.3322024559055
 20
-97.36451776619869
 30
0.0
 11
211.8622012287874
 21
-97.36451776619869
 31
0.0
  0
LINE
  5
377
330
31
100
AcDbEntity
  8
0
  6
Continuous
 62
     7
100
AcDbLine
 10
271.9572080732918
 20
-97.36451776619869
 30
0.0
 11
272.4872007425373
 21
-97.36451776619869
 31
0.0
  0
LINE
  5
378
330
31
100
AcDbEntity
  8
0
  6
Continuous
 62
     7
100
AcDbLine
 10
211.4411990366337
 20
-97.31752069575957
 30
0.0
 11
211.7532046480591
 21
-97.31752069575957
 31
0.0
  0
LINE
  5
379
330
31
100
AcDbEntity
  8
0
  6
Continuous
 62
     7
100
AcDbLine
 10
272.06620465402
 20
-97.31752069575957
 30
0.0
 11
272.3782041618091
 21
-97.31752069575957
 31
0.0
  0
LWPOLYLINE
  5
3AE
330
31
100
AcDbEntity
  8
0
  6
Continuous
 62
     7
100
AcDbPolyline
 90
       11
 70
     0
 43
0.0
 10
272.4971983024374
 20
-97.40193231673366
 10
272.468011290002
 20
-97.39088495320777
 10
272.440240293916
 20
-97.38242548056508
 10
272.4131528923687
 20
-97.37637079335287
 10
272.386370667182
 20
-97.37269647702603
 10
272.3596616819946
 20
-97.37145136067482
 10
272.3329649058979
 20
-97.37267206248079
 10
272.3061826788931
 20
-97.37633417153508
 10
272.2791196900727
 20
-97.38236444602025
 10
272.2513609012594
 20
-97.39078729684507
 10
272.2221983051874
 20
-97.40181024582577
  0
LWPOLYLINE
  5
3BB
330
31
100
AcDbEntity
  8
0
  6
Continuous
 62
     7
100
AcDbPolyline
 90
       12
 70
     0
 43
0.0
 10
272.2221983051874
 20
-97.40181024582577
 10
272.195049867277
 20
-97.39046991503009
 10
272.169439516624
 20
-97.3815465751193
 10
272.1446470350538
 20
-97.37475946609629
 10
272.1202818025702
 20
-97.37007196614314
 10
272.0960752591758
 20
-97.36748407525992
 10
272.0719053375994
 20
-97.36704462071889
 10
272.0477232087503
 20
-97.36877802070155
 10
272.0234434235385
 20
-97.37263544248115
 10
271.9988828765114
 20
-97.37858026605806
 10
271.9736631513091
 20
-97.3866246987049
 10
271.9471983079374
 20
-97.39696405496514
  0
LINE
  5
3C9
330
31
100
AcDbEntity
  8
0
  6
Continuous
 62
     7
100
AcDbLine
 10
272.4872007425373
 20
-97.36451776619869
 30
0.0
 11
272.497613340615
 21
-97.37195184794252
 31
0.0
  0
LINE
  5
3CA
330
31
100
AcDbEntity
  8
0
  6
Continuous
 62
     7
100
AcDbLine
 10
271.9467588533963
 20
-97.60705926740966
 30
0.0
 11
271.9571958660192
 21
-97.61451776369868
 31
0.0
  0
LINE
  5
3F8
330
31
100
AcDbEntity
  8
0
  6
Continuous
 62
     7
100
AcDbLine
 10
292.5346980620623
 20
-104.3185216021132
 30
0.0
 11
292.5346980620623
 21
-97.88751580824145
 31
0.0
  0
LINE
  5
3F9
330
31
100
AcDbEntity
  8
0
  6
Continuous
 62
     7
100
AcDbLine
 10
292.5597008927214
 20
-104.3030190040864
 30
0.0
 11
292.5597008927214
 21
-104.1990189142173
 31
0.0
  0
LINE
  5
3FA
330
31
100
AcDbEntity
  8
0
  6
Continuous
 62
     7
100
AcDbLine
 10
292.6387019664769
 20
-104.1690220926991
 30
0.0
 11
292.6387019664769
 21
-98.30301873317733
 31
0.0
  0
LINE
  5
3FB
330
31
100
AcDbEntity
  8
0
  6
Continuous
 62
     7
100
AcDbLine
 10
292.6696956188942
 20
-103.2600133126982
 30
0.0
 11
292.6696956188942
 21
-102.8460240586563
 31
0.0
  0
LINE
  5
3FC
330
31
100
AcDbEntity
  8
0
  6
Continuous
 62
     7
100
AcDbLine
 10
292.6696956188942
 20
-99.51001335019826
 30
0.0
 11
292.6696956188942
 21
-99.09602409615636
 31
0.0
  0
LINE
  5
3FD
330
31
100
AcDbEntity
  8
0
  6
Continuous
 62
     7
100
AcDbLine
 10
292.7096980603124
 20
-99.12289177225133
 30
0.0
 11
292.7096980603124
 21
-99.14020134298731
 31
0.0
  0
LINE
  5
3FE
330
31
100
AcDbEntity
  8
0
  6
Continuous
 62
     7
100
AcDbLine
 10
292.7096980603124
 20
-102.8728917347513
 30
0.0
 11
292.7096980603124
 21
-102.8902013054873
 31
0.0
  0
LINE
  5
3FF
330
31
100
AcDbEntity
  8
0
  6
Continuous
 62
     7
100
AcDbLine
 10
292.7096980603124
 20
-103.2331578438759
 30
0.0
 11
292.7096980603124
 21
-103.2158360676855
 31
0.0
  0
LINE
  5
400
330
31
100
AcDbEntity
  8
0
  6
Continuous
 62
     7
100
AcDbLine
 10
292.7096980603124
 20
-99.48315788137591
 30
0.0
 11
292.7096980603124
 21
-99.46583610518551
 31
0.0
  0
LINE
  5
401
330
31
100
AcDbEntity
  8
0
  6
Continuous
 62
     7
100
AcDbLine
 10
292.7897029413305
 20
-99.14020134298731
 30
0.0
 11
292.7897029413305
 21
-99.46583610518551
 31
0.0
  0
LINE
  5
402
330
31
100
AcDbEntity
  8
0
  6
Continuous
 62
     7
100
AcDbLine
 10
292.7897029413305
 20
-102.8902013054873
 30
0.0
 11
292.7897029413305
 21
-103.2158360676855
 31
0.0
  0
LINE
  5
403
330
31
100
AcDbEntity
  8
0
  6
Continuous
 62
     7
100
AcDbLine
 10
293.4096980533123
 20
-104.3030186731773
 30
0.0
 11
293.4096980533123
 21
-104.1990147687628
 31
0.0
  0
LINE
  5
404
330
31
100
AcDbEntity
  8
0
  6
Continuous
 62
     7
100
AcDbLine
 10
293.5346980520623
 20
-104.3030186731773
 30
0.0
 11
293.5346980520623
 21
-104.1990147687628
 31
0.0
  0
LINE
  5
499
330
31
100
AcDbEntity
  8
0
  6
Continuous
 62
     7
100
AcDbLine
 10
170.8913602895045
 20
-97.36451907347142
 30
0.0
 11
170.8535889662459
 21
-97.39149858956524
 31
0.0
  0
LINE
  5
49A
330
31
100
AcDbEntity
  8
0
  6
Continuous
 62
     7
100
AcDbLine
 10
171.4735653655006
 20
-97.57722972770793
 30
0.0
 11
171.4213602842045
 21
-97.61451907097141
 31
0.0
  0
LINE
  5
49B
330
31
100
AcDbEntity
  8
0
  6
Continuous
 62
     7
100
AcDbLine
 10
170.8523602898945
 20
-99.12288577225135
 30
0.0
 11
170.6963602914545
 21
-99.21295241316887
 31
0.0
  0
LINE
  5
49C
330
31
100
AcDbEntity
  8
0
  6
Continuous
 62
     7
100
AcDbLine
 10
170.8523602898945
 20
-99.48315233592145
 30
0.0
 11
171.0083602883345
 21
-99.3930856950039
 31
0.0
  0
LINE
  5
4A0
330
31
100
AcDbEntity
  8
0
  6
Continuous
 62
     7
100
AcDbLine
 10
175.8313602401045
 20
-97.36451907347142
 30
0.0
 11
175.7935889168459
 21
-97.39149858956524
 31
0.0
  0
LINE
  5
4A1
330
31
100
AcDbEntity
  8
0
  6
Continuous
 62
     7
100
AcDbLine
 10
176.4135653161007
 20
-97.57722972770793
 30
0.0
 11
176.3613602348045
 21
-97.61451907097141
 31
0.0
  0
LINE
  5
4A2
330
31
100
AcDbEntity
  8
0
  6
Continuous
 62
     7
100
AcDbLine
 10
176.3923602344946
 20
-99.12288577225135
 30
0.0
 11
176.2363602360545
 21
-99.21295241316887
 31
0.0
  0
LINE
  5
4A3
330
31
100
AcDbEntity
  8
0
  6
Continuous
 62
     7
100
AcDbLine
 10
176.3923602344946
 20
-99.48315233592145
 30
0.0
 11
176.5483602329345
 21
-99.3930856950039
 31
0.0
  0
LINE
  5
4A4
330
31
100
AcDbEntity
  8
0
  6
Continuous
 62
     7
100
AcDbLine
 10
170.8523602898945
 20
-102.8728857347513
 30
0.0
 11
170.6963602914545
 21
-102.9629523756689
 31
0.0
  0
LINE
  5
4A5
330
31
100
AcDbEntity
  8
0
  6
Continuous
 62
     7
100
AcDbLine
 10
170.8523602898945
 20
-103.2331522984214
 30
0.0
 11
171.0083602883345
 21
-103.1430856575039
 31
0.0
  0
LINE
  5
4A6
330
31
100
AcDbEntity
  8
0
  6
Continuous
 62
     7
100
AcDbLine
 10
176.3923602344946
 20
-102.8728857347513
 30
0.0
 11
176.2363602360545
 21
-102.9629523756689
 31
0.0
  0
LINE
  5
4A7
330
31
100
AcDbEntity
  8
0
  6
Continuous
 62
     7
100
AcDbLine
 10
176.3923602344946
 20
-103.2331522984214
 30
0.0
 11
176.5483602329345
 21
-103.1430856575039
 31
0.0
  0
LINE
  5
4B0
330
31
100
AcDbEntity
  8
0
  6
Continuous
 62
     7
100
AcDbLine
 10
169.1263603071545
 20
-97.88751906824137
 30
0.0
 11
169.1263603071545
 21
-97.70851907003141
 31
0.0
  0
LINE
  5
4B1
330
31
100
AcDbEntity
  8
0
  6
Continuous
 62
     9
100
AcDbLine
 10
169.3116555453016
 20
-97.88751906824137
 30
0.0
 11
169.3116555453016
 21
-97.70851907003141
 31
0.0
  0
LINE
  5
4B2
330
31
100
AcDbEntity
  8
0
  6
Continuous
 62
     7
100
AcDbLine
 10
169.3463603049545
 20
-97.70851907003141
 30
0.0
 11
169.3463603049545
 21
-97.88751906824137
 31
0.0
  0
LINE
  5
4B3
330
31
100
AcDbEntity
  8
0
  6
Continuous
 62
     7
100
AcDbLine
 10
169.7473603009445
 20
-104.3030190040864
 30
0.0
 11
169.7473603009445
 21
-104.1840190052764
 31
0.0
  0
LINE
  5
4B4
330
31
100
AcDbEntity
  8
0
  6
Continuous
 62
     9
100
AcDbLine
 10
169.8723602996945
 20
-104.3030190040864
 30
0.0
 11
169.8723602996945
 21
-104.1840190052764
 31
0.0
  0
LINE
  5
4B5
330
31
100
AcDbEntity
  8
0
  6
Continuous
 62
     7
100
AcDbLine
 10
170.5953602924645
 20
-97.9475190676414
 30
0.0
 11
170.5953602924645
 21
-104.1325190057914
 31
0.0
  0
LINE
  5
4B6
330
31
100
AcDbEntity
  8
0
  6
Continuous
 62
     7
100
AcDbLine
 10
170.6223602921945
 20
-104.1840190052764
 30
0.0
 11
170.6223602921945
 21
-98.42801906283639
 31
0.0
  0
LINE
  5
4B7
330
31
100
AcDbEntity
  8
0
  6
Continuous
 62
     7
100
AcDbLine
 10
170.6963602914545
 20
-99.21295241316887
 30
0.0
 11
170.6963602914545
 21
-99.3930856950039
 31
0.0
  0
LINE
  5
4B8
330
31
100
AcDbEntity
  8
0
  6
Continuous
 62
     7
100
AcDbLine
 10
170.6963602914545
 20
-102.9629523756689
 30
0.0
 11
170.6963602914545
 21
-103.1430856575039
 31
0.0
  0
LINE
  5
4B9
330
31
100
AcDbEntity
  8
0
  6
Continuous
 62
     7
100
AcDbLine
 10
170.7188602912295
 20
-97.70851907003141
 30
0.0
 11
170.7188602912295
 21
-97.61451907097141
 31
0.0
  0
LINE
  5
4BA
330
31
100
AcDbEntity
  8
0
  6
Continuous
 62
     7
100
AcDbLine
 10
170.7753602906645
 20
-98.06751906644141
 30
0.0
 11
170.7753602906645
 21
-98.28751906424141
 31
0.0
  0
LINE
  5
4BB
330
31
100
AcDbEntity
  8
0
  6
Continuous
 62
     7
100
AcDbLine
 10
170.8223602901945
 20
-99.14020627935087
 30
0.0
 11
170.8223602901945
 21
-99.46583182882193
 31
0.0
  0
LINE
  5
4BC
330
31
100
AcDbEntity
  8
0
  6
Continuous
 62
     7
100
AcDbLine
 10
170.8223602901945
 20
-102.8902062418509
 30
0.0
 11
170.8223602901945
 21
-103.2158317913219
 31
0.0
  0
LINE
  5
4BD
330
31
100
AcDbEntity
  8
0
  6
Continuous
 62
     7
100
AcDbLine
 10
170.8535889662459
 20
-97.58753955305937
 30
0.0
 11
170.8535889662459
 21
-97.39149858956524
 31
0.0
  0
LINE
  5
4BE
330
31
100
AcDbEntity
  8
0
  6
Continuous
 62
     7
100
AcDbLine
 10
170.8823602895945
 20
-103.2158317913219
 30
0.0
 11
170.8823602895945
 21
-102.8902062418509
 31
0.0
  0
LINE
  5
4BF
330
31
100
AcDbEntity
  8
0
  6
Continuous
 62
     7
100
AcDbLine
 10
170.8823602895945
 20
-99.46583182882193
 30
0.0
 11
170.8823602895945
 21
-99.14020627935087
 31
0.0
  0
LINE
  5
4C0
330
31
100
AcDbEntity
  8
0
  6
Continuous
 62
     7
100
AcDbLine
 10
170.9903602885145
 20
-97.88751906824137
 30
0.0
 11
170.9903602885145
 21
-98.06751906644141
 31
0.0
  0
LINE
  5
4C1
330
31
100
AcDbEntity
  8
0
  6
Continuous
 62
     7
100
AcDbLine
 10
170.9963602884545
 20
-98.06751906644141
 30
0.0
 11
170.9963602884545
 21
-97.88751906824137
 31
0.0
  0
LINE
  5
4C2
330
31
100
AcDbEntity
  8
0
  6
Continuous
 62
     7
100
AcDbLine
 10
171.0003602884145
 20
-97.36451907347142
 30
0.0
 11
171.0003602884145
 21
-97.31751907394141
 31
0.0
  0
LINE
  5
4C3
330
31
100
AcDbEntity
  8
0
  6
Continuous
 62
     7
100
AcDbLine
 10
171.0083602883345
 20
-103.1430856575039
 30
0.0
 11
171.0083602883345
 21
-102.9629523756689
 31
0.0
  0
LINE
  5
4C4
330
31
100
AcDbEntity
  8
0
  6
Continuous
 62
     7
100
AcDbLine
 10
171.0083602883345
 20
-99.3930856950039
 30
0.0
 11
171.0083602883345
 21
-99.21295241316887
 31
0.0
  0
LINE
  5
4C5
330
31
100
AcDbEntity
  8
0
  6
Continuous
 62
     7
100
AcDbLine
 10
171.0123602882945
 20
-97.58207572584128
 30
0.0
 11
171.0123602882945
 21
-97.39696241678331
 31
0.0
  0
LINE
  5
4C6
330
31
100
AcDbEntity
  8
0
  6
Continuous
 62
     7
100
AcDbLine
 10
171.3003602854145
 20
-97.58207572584128
 30
0.0
 11
171.3003602854145
 21
-97.39696241678331
 31
0.0
  0
LINE
  5
4C7
330
31
100
AcDbEntity
  8
0
  6
Continuous
 62
     7
100
AcDbLine
 10
171.3123602852945
 20
-97.36451907347142
 30
0.0
 11
171.3123602852945
 21
-97.31751907394141
 31
0.0
  0
LINE
  5
4C8
330
31
100
AcDbEntity
  8
0
  6
Continuous
 62
     7
100
AcDbLine
 10
171.3163602852545
 20
-98.06751906644141
 30
0.0
 11
171.3163602852545
 21
-97.88751906824137
 31
0.0
  0
LINE
  5
4C9
330
31
100
AcDbEntity
  8
0
  6
Continuous
 62
     7
100
AcDbLine
 10
171.3203602852145
 20
-98.06751906644141
 30
0.0
 11
171.3203602852145
 21
-97.88751906824137
 31
0.0
  0
LINE
  5
4CA
330
31
100
AcDbEntity
  8
0
  6
Continuous
 62
     7
100
AcDbLine
 10
171.4735653655006
 20
-97.57722972770793
 30
0.0
 11
171.4735653655006
 21
-97.40180841673486
 31
0.0
  0
LINE
  5
4CD
330
31
100
AcDbEntity
  8
0
  6
Continuous
 62
     7
100
AcDbLine
 10
171.5353602830645
 20
-98.28751906424141
 30
0.0
 11
171.5353602830645
 21
-98.06751906644141
 31
0.0
  0
LINE
  5
4D3
330
31
100
AcDbEntity
  8
0
  6
Continuous
 62
     7
100
AcDbLine
 10
171.5938602824795
 20
-97.70851907003141
 30
0.0
 11
171.5938602824795
 21
-97.61451907097141
 31
0.0
  0
LINE
  5
4DA
330
31
100
AcDbEntity
  8
0
  6
Continuous
 62
     7
100
AcDbLine
 10
171.7153602812645
 20
-97.9475190676414
 30
0.0
 11
171.7153602812645
 21
-98.28751906424141
 31
0.0
  0
LINE
  5
51E
330
31
100
AcDbEntity
  8
0
  6
Continuous
 62
     7
100
AcDbLine
 10
173.3468602649495
 20
-103.6275190108413
 30
0.0
 11
173.3468602649495
 21
-103.5685190114314
 31
0.0
  0
LINE
  5
51F
330
31
100
AcDbEntity
  8
0
  6
Continuous
 62
     7
100
AcDbLine
 10
173.3518602648994
 20
-103.5685190114314
 30
0.0
 11
173.3518602648994
 21
-103.6275190108413
 31
0.0
  0
LINE
  5
520
330
31
100
AcDbEntity
  8
0
  6
Continuous
 62
     7
100
AcDbLine
 10
173.5378602630395
 20
-103.5685190114314
 30
0.0
 11
173.5378602630395
 21
-103.6275190108413
 31
0.0
  0
LINE
  5
521
330
31
100
AcDbEntity
  8
0
  6
Continuous
 62
     7
100
AcDbLine
 10
173.7068602613494
 20
-103.5685190114314
 30
0.0
 11
173.7068602613494
 21
-103.6275190108413
 31
0.0
  0
LINE
  5
522
330
31
100
AcDbEntity
  8
0
  6
Continuous
 62
     7
100
AcDbLine
 10
173.7118602612995
 20
-103.6275190108413
 30
0.0
 11
173.7118602612995
 21
-103.5685190114314
 31
0.0
  0
LINE
  5
523
330
31
100
AcDbEntity
  8
0
  6
Continuous
 62
     7
100
AcDbLine
 10
173.8978602594395
 20
-103.6275190108413
 30
0.0
 11
173.8978602594395
 21
-103.5685190114314
 31
0.0
  0
LINE
  5
526
330
31
100
AcDbEntity
  8
0
  6
Continuous
 62
     7
100
AcDbLine
 10
175.5373602430445
 20
-97.9475190676414
 30
0.0
 11
175.5373602430445
 21
-98.28751906424141
 31
0.0
  0
LINE
  5
527
330
31
100
AcDbEntity
  8
0
  6
Continuous
 62
     7
100
AcDbLine
 10
175.6588602418295
 20
-97.70851907003141
 30
0.0
 11
175.6588602418295
 21
-97.61451907097141
 31
0.0
  0
LINE
  5
528
330
31
100
AcDbEntity
  8
0
  6
Continuous
 62
     7
100
AcDbLine
 10
175.7173602412445
 20
-98.28751906424141
 30
0.0
 11
175.7173602412445
 21
-98.06751906644141
 31
0.0
  0
LINE
  5
529
330
31
100
AcDbEntity
  8
0
  6
Continuous
 62
     7
100
AcDbLine
 10
175.7935889168459
 20
-97.58753955305937
 30
0.0
 11
175.7935889168459
 21
-97.39149858956524
 31
0.0
  0
LINE
  5
52A
330
31
100
AcDbEntity
  8
0
  6
Continuous
 62
     7
100
AcDbLine
 10
175.9323602390945
 20
-98.06751906644141
 30
0.0
 11
175.9323602390945
 21
-97.88751906824137
 31
0.0
  0
LINE
  5
52B
330
31
100
AcDbEntity
  8
0
  6
Continuous
 62
     7
100
AcDbLine
 10
175.9363602390545
 20
-98.06751906644141
 30
0.0
 11
175.9363602390545
 21
-97.88751906824137
 31
0.0
  0
LINE
  5
52C
330
31
100
AcDbEntity
  8
0
  6
Continuous
 62
     7
100
AcDbLine
 10
175.9403602390145
 20
-97.36451907347142
 30
0.0
 11
175.9403602390145
 21
-97.31751907394141
 31
0.0
  0
LINE
  5
52D
330
31
100
AcDbEntity
  8
0
  6
Continuous
 62
     7
100
AcDbLine
 10
175.9523602388945
 20
-97.58207572584128
 30
0.0
 11
175.9523602388945
 21
-97.39696241678331
 31
0.0
  0
LINE
  5
539
330
31
100
AcDbEntity
  8
0
  6
Continuous
 62
     7
100
AcDbLine
 10
176.2363602360545
 20
-99.21295241316887
 30
0.0
 11
176.2363602360545
 21
-99.3930856950039
 31
0.0
  0
LINE
  5
53A
330
31
100
AcDbEntity
  8
0
  6
Continuous
 62
     7
100
AcDbLine
 10
176.2363602360545
 20
-102.9629523756689
 30
0.0
 11
176.2363602360545
 21
-103.1430856575039
 31
0.0
  0
LINE
  5
53B
330
31
100
AcDbEntity
  8
0
  6
Continuous
 62
     7
100
AcDbLine
 10
176.2403602360146
 20
-97.58207572584128
 30
0.0
 11
176.2403602360146
 21
-97.39696241678331
 31
0.0
  0
LINE
  5
53C
330
31
100
AcDbEntity
  8
0
  6
Continuous
 62
     7
100
AcDbLine
 10
176.2523602358945
 20
-97.36451907347142
 30
0.0
 11
176.2523602358945
 21
-97.31751907394141
 31
0.0
  0
LINE
  5
53D
330
31
100
AcDbEntity
  8
0
  6
Continuous
 62
     7
100
AcDbLine
 10
176.2563602358545
 20
-98.06751906644141
 30
0.0
 11
176.2563602358545
 21
-97.88751906824137
 31
0.0
  0
LINE
  5
53E
330
31
100
AcDbEntity
  8
0
  6
Continuous
 62
     7
100
AcDbLine
 10
176.2623602357945
 20
-97.88751906824137
 30
0.0
 11
176.2623602357945
 21
-98.06751906644141
 31
0.0
  0
LINE
  5
543
330
31
100
AcDbEntity
  8
0
  6
Continuous
 62
     7
100
AcDbLine
 10
176.3623602347945
 20
-99.14020627935087
 30
0.0
 11
176.3623602347945
 21
-99.46583182882193
 31
0.0
  0
LINE
  5
544
330
31
100
AcDbEntity
  8
0
  6
Continuous
 62
     7
100
AcDbLine
 10
176.3623602347945
 20
-102.8902062418509
 30
0.0
 11
176.3623602347945
 21
-103.2158317913219
 31
0.0
  0
LINE
  5
548
330
31
100
AcDbEntity
  8
0
  6
Continuous
 62
     7
100
AcDbLine
 10
176.4135653161007
 20
-97.57722972770793
 30
0.0
 11
176.4135653161007
 21
-97.40180841673486
 31
0.0
  0
LINE
  5
549
330
31
100
AcDbEntity
  8
0
  6
Continuous
 62
     7
100
AcDbLine
 10
176.4223602341945
 20
-103.2158317913219
 30
0.0
 11
176.4223602341945
 21
-102.8902062418509
 31
0.0
  0
LINE
  5
54A
330
31
100
AcDbEntity
  8
0
  6
Continuous
 62
     7
100
AcDbLine
 10
176.4223602341945
 20
-99.46583182882193
 30
0.0
 11
176.4223602341945
 21
-99.14020627935087
 31
0.0
  0
LINE
  5
54B
330
31
100
AcDbEntity
  8
0
  6
Continuous
 62
     7
100
AcDbLine
 10
176.4773602336445
 20
-98.06751906644141
 30
0.0
 11
176.4773602336445
 21
-98.28751906424141
 31
0.0
  0
LINE
  5
54C
330
31
100
AcDbEntity
  8
0
  6
Continuous
 62
     7
100
AcDbLine
 10
176.5338602330795
 20
-97.70851907003141
 30
0.0
 11
176.5338602330795
 21
-97.61451907097141
 31
0.0
  0
LINE
  5
54D
330
31
100
AcDbEntity
  8
0
  6
Continuous
 62
     7
100
AcDbLine
 10
176.5483602329345
 20
-103.1430856575039
 30
0.0
 11
176.5483602329345
 21
-102.9629523756689
 31
0.0
  0
LINE
  5
54E
330
31
100
AcDbEntity
  8
0
  6
Continuous
 62
     7
100
AcDbLine
 10
176.5483602329345
 20
-99.3930856950039
 30
0.0
 11
176.5483602329345
 21
-99.21295241316887
 31
0.0
  0
LINE
  5
54F
330
31
100
AcDbEntity
  8
0
  6
Continuous
 62
     7
100
AcDbLine
 10
176.6223602321945
 20
-104.1840190052764
 30
0.0
 11
176.6223602321945
 21
-98.42801906283639
 31
0.0
  0
LINE
  5
550
330
31
100
AcDbEntity
  8
0
  6
Continuous
 62
     7
100
AcDbLine
 10
176.6573602318445
 20
-104.1325190057914
 30
0.0
 11
176.6573602318445
 21
-97.9475190676414
 31
0.0
  0
LINE
  5
551
330
31
100
AcDbEntity
  8
0
  6
Continuous
 62
     9
100
AcDbLine
 10
177.3723602246945
 20
-104.1840190052764
 30
0.0
 11
177.3723602246945
 21
-104.3030190040864
 31
0.0
  0
LINE
  5
552
330
31
100
AcDbEntity
  8
0
  6
Continuous
 62
     7
100
AcDbLine
 10
177.4973602234445
 20
-104.1840190052764
 30
0.0
 11
177.4973602234445
 21
-104.3030190040864
 31
0.0
  0
LINE
  5
553
330
31
100
AcDbEntity
  8
0
  6
Continuous
 62
     7
100
AcDbLine
 10
177.5013602234045
 20
-104.2885190042314
 30
0.0
 11
177.5013602234045
 21
-104.1925190051914
 31
0.0
  0
LINE
  5
554
330
31
100
AcDbEntity
  8
0
  6
Continuous
 62
     7
100
AcDbLine
 10
177.5023602233945
 20
-104.3030190040864
 30
0.0
 11
177.5023602233945
 21
-104.1990190051264
 31
0.0
  0
LINE
  5
558
330
31
100
AcDbEntity
  8
0
  6
Continuous
 62
     7
100
AcDbLine
 10
177.9063602193545
 20
-97.70851907003141
 30
0.0
 11
177.9063602193545
 21
-97.88751906824137
 31
0.0
  0
LINE
  5
559
330
31
100
AcDbEntity
  8
0
  6
Continuous
 62
     9
100
AcDbLine
 10
177.9410649808257
 20
-97.70851907003141
 30
0.0
 11
177.9410649808257
 21
-97.88751906824137
 31
0.0
  0
LINE
  5
55A
330
31
100
AcDbEntity
  8
0
  6
Continuous
 62
     7
100
AcDbLine
 10
178.1263602171545
 20
-97.70851907003141
 30
0.0
 11
178.1263602171545
 21
-97.88751906824137
 31
0.0
  0
LINE
  5
55F
330
31
100
AcDbEntity
  8
0
  6
Continuous
 62
     7
100
AcDbLine
 10
170.8523602898945
 20
-103.2331522984214
 30
0.0
 11
170.6963602914545
 21
-103.1430856575039
 31
0.0
  0
LINE
  5
560
330
31
100
AcDbEntity
  8
0
  6
Continuous
 62
     7
100
AcDbLine
 10
171.0083602883345
 20
-102.9629523756689
 30
0.0
 11
170.8523602898945
 21
-102.8728857347513
 31
0.0
  0
LINE
  5
561
330
31
100
AcDbEntity
  8
0
  6
Continuous
 62
     7
100
AcDbLine
 10
177.4713602237045
 20
-104.3185190039314
 30
0.0
 11
176.5613602328045
 21
-104.3185190039314
 31
0.0
  0
LINE
  5
562
330
31
100
AcDbEntity
  8
0
  6
Continuous
 62
     7
100
AcDbLine
 10
170.6913602915045
 20
-104.3185190039314
 30
0.0
 11
169.7813603006045
 21
-104.3185190039314
 31
0.0
  0
LINE
  5
563
330
31
100
AcDbEntity
  8
0
  6
Continuous
 62
     7
100
AcDbLine
 10
169.7473603009445
 20
-104.3030190040864
 30
0.0
 11
177.4973602234445
 21
-104.3030190040864
 31
0.0
  0
LINE
  5
564
330
31
100
AcDbEntity
  8
0
  6
Continuous
 62
     7
100
AcDbLine
 10
177.4974592198072
 20
-104.3030190040864
 30
0.0
 11
177.5023602233945
 21
-104.3030190040864
 31
0.0
  0
LINE
  5
565
330
31
100
AcDbEntity
  8
0
  6
Continuous
 62
     7
100
AcDbLine
 10
169.7473603009445
 20
-104.1840190052764
 30
0.0
 11
177.4973602234445
 21
-104.1840190052764
 31
0.0
  0
LINE
  5
566
330
31
100
AcDbEntity
  8
0
  6
Continuous
 62
     7
100
AcDbLine
 10
177.4713602237045
 20
-104.1625190054914
 30
0.0
 11
176.6873602315445
 21
-104.1625190054914
 31
0.0
  0
LINE
  5
567
330
31
100
AcDbEntity
  8
0
  6
Continuous
 62
     7
100
AcDbLine
 10
169.7813603006045
 20
-104.1625190054914
 30
0.0
 11
170.5653602927645
 21
-104.1625190054914
 31
0.0
  0
LINE
  5
568
330
31
100
AcDbEntity
  8
0
  6
Continuous
 62
     9
100
AcDbLine
 10
176.6223602321945
 20
-104.1540190055764
 30
0.0
 11
170.6223602921945
 21
-104.1540190055764
 31
0.0
  0
LINE
  5
569
330
31
100
AcDbEntity
  8
0
  6
Continuous
 62
     7
100
AcDbLine
 10
176.3923602344946
 20
-103.2331522984214
 30
0.0
 11
176.2363602360545
 21
-103.1430856575039
 31
0.0
  0
LINE
  5
56A
330
31
100
AcDbEntity
  8
0
  6
Continuous
 62
     7
100
AcDbLine
 10
176.5483602329345
 20
-102.9629523756689
 30
0.0
 11
176.3923602344946
 21
-102.8728857347513
 31
0.0
  0
LINE
  5
56B
330
31
100
AcDbEntity
  8
0
  6
Continuous
 62
     7
100
AcDbLine
 10
170.8523602898945
 20
-99.48315233592145
 30
0.0
 11
170.6963602914545
 21
-99.3930856950039
 31
0.0
  0
LINE
  5
56C
330
31
100
AcDbEntity
  8
0
  6
Continuous
 62
     7
100
AcDbLine
 10
171.0083602883345
 20
-99.21295241316887
 30
0.0
 11
170.8523602898945
 21
-99.12288577225135
 31
0.0
  0
LINE
  5
56D
330
31
100
AcDbEntity
  8
0
  6
Continuous
 62
     7
100
AcDbLine
 10
170.8535889662459
 20
-97.58753955305937
 30
0.0
 11
170.8913602895045
 21
-97.61451907097141
 31
0.0
  0
LINE
  5
56E
330
31
100
AcDbEntity
  8
0
  6
Continuous
 62
     7
100
AcDbLine
 10
171.4213602842045
 20
-97.36451907347142
 30
0.0
 11
171.4735653655006
 21
-97.40180841673486
 31
0.0
  0
LINE
  5
588
330
31
100
AcDbEntity
  8
0
  6
Continuous
 62
     7
100
AcDbLine
 10
176.3923602344946
 20
-99.48315233592145
 30
0.0
 11
176.2363602360545
 21
-99.3930856950039
 31
0.0
  0
LINE
  5
589
330
31
100
AcDbEntity
  8
0
  6
Continuous
 62
     7
100
AcDbLine
 10
176.5483602329345
 20
-99.21295241316887
 30
0.0
 11
176.3923602344946
 21
-99.12288577225135
 31
0.0
  0
LINE
  5
58A
330
31
100
AcDbEntity
  8
0
  6
Continuous
 62
     7
100
AcDbLine
 10
175.7935889168459
 20
-97.58753955305937
 30
0.0
 11
175.8313602401045
 21
-97.61451907097141
 31
0.0
  0
LINE
  5
58B
330
31
100
AcDbEntity
  8
0
  6
Continuous
 62
     7
100
AcDbLine
 10
176.3613602348045
 20
-97.36451907347142
 30
0.0
 11
176.4135653161007
 21
-97.40180841673486
 31
0.0
  0
LINE
  5
58C
330
31
100
AcDbEntity
  8
0
  6
Continuous
 62
     7
100
AcDbLine
 10
176.4973602334445
 20
-98.3030190640864
 30
0.0
 11
170.7473602909445
 21
-98.3030190640864
 31
0.0
  0
LINE
  5
58D
330
31
100
AcDbEntity
  8
0
  6
Continuous
 62
     7
100
AcDbLine
 10
170.7753602906645
 20
-98.28751906424141
 30
0.0
 11
171.5353602830645
 21
-98.28751906424141
 31
0.0
  0
LINE
  5
58E
330
31
100
AcDbEntity
  8
0
  6
Continuous
 62
     7
100
AcDbLine
 10
171.7153602812645
 20
-98.28751906424141
 30
0.0
 11
175.5373602430445
 21
-98.28751906424141
 31
0.0
  0
LINE
  5
58F
330
31
100
AcDbEntity
  8
0
  6
Continuous
 62
     7
100
AcDbLine
 10
175.7173602412445
 20
-98.28751906424141
 30
0.0
 11
176.4773602336445
 21
-98.28751906424141
 31
0.0
  0
LINE
  5
590
330
31
100
AcDbEntity
  8
0
  6
Continuous
 62
     9
100
AcDbLine
 10
176.4234663160016
 20
-98.10202730427814
 30
0.0
 11
175.7692541589074
 21
-98.10202730427814
 31
0.0
  0
LINE
  5
591
330
31
100
AcDbEntity
  8
0
  6
Continuous
 62
     9
100
AcDbLine
 10
171.4834663654016
 20
-98.10202730427814
 30
0.0
 11
170.8292542083074
 21
-98.10202730427814
 31
0.0
  0
LINE
  5
592
330
31
100
AcDbEntity
  8
0
  6
Continuous
 62
     7
100
AcDbLine
 10
171.5353602830645
 20
-98.06751906644141
 30
0.0
 11
170.7753602906645
 21
-98.06751906644141
 31
0.0
  0
LINE
  5
593
330
31
100
AcDbEntity
  8
0
  6
Continuous
 62
     7
100
AcDbLine
 10
175.7173602412445
 20
-98.06751906644141
 30
0.0
 11
176.4773602336445
 21
-98.06751906644141
 31
0.0
  0
LINE
  5
594
330
31
100
AcDbEntity
  8
0
  6
Continuous
 62
     7
100
AcDbLine
 10
169.1263603071545
 20
-97.88751906824137
 30
0.0
 11
178.1263602171545
 21
-97.88751906824137
 31
0.0
  0
LINE
  5
595
330
31
100
AcDbEntity
  8
0
  6
Continuous
 62
     7
100
AcDbLine
 10
169.1263603071545
 20
-97.70851907003141
 30
0.0
 11
178.1263602171545
 21
-97.70851907003141
 31
0.0
  0
LINE
  5
596
330
31
100
AcDbEntity
  8
0
  6
Continuous
 62
     7
100
AcDbLine
 10
170.7188602912295
 20
-97.61451907097141
 30
0.0
 11
171.5938602824795
 21
-97.61451907097141
 31
0.0
  0
LINE
  5
597
330
31
100
AcDbEntity
  8
0
  6
Continuous
 62
     7
100
AcDbLine
 10
175.6588602418295
 20
-97.61451907097141
 30
0.0
 11
176.5338602330795
 21
-97.61451907097141
 31
0.0
  0
LINE
  5
598
330
31
100
AcDbEntity
  8
0
  6
Continuous
 62
     7
100
AcDbLine
 10
170.8913602895045
 20
-97.36451907347142
 30
0.0
 11
171.4213578132955
 21
-97.36451907347142
 31
0.0
  0
LINE
  5
599
330
31
100
AcDbEntity
  8
0
  6
Continuous
 62
     7
100
AcDbLine
 10
175.8313602401045
 20
-97.36451907347142
 30
0.0
 11
176.3613577638954
 21
-97.36451907347142
 31
0.0
  0
LINE
  5
59A
330
31
100
AcDbEntity
  8
0
  6
Continuous
 62
     7
100
AcDbLine
 10
171.0003602884145
 20
-97.31751907394141
 30
0.0
 11
171.3123602852945
 21
-97.31751907394141
 31
0.0
  0
LINE
  5
59B
330
31
100
AcDbEntity
  8
0
  6
Continuous
 62
     7
100
AcDbLine
 10
175.9403602390145
 20
-97.31751907394141
 30
0.0
 11
176.2523602358945
 21
-97.31751907394141
 31
0.0
  0
ARC
  5
7FA
330
31
100
AcDbEntity
  8
0
  6
Continuous
 62
     7
100
AcDbCircle
 10
191.1507018613568
 20
-104.1690190054264
 30
0.0
 40
0.13399999866
100
AcDbArc
 50
325.0306420162007
 51
350.0018771382007
  0
ARC
  5
7FB
330
31
100
AcDbEntity
  8
0
  6
Continuous
 62
     7
100
AcDbCircle
 10
191.1357018615069
 20
-104.1540190055764
 30
0.0
 40
0.0299999997
100
AcDbArc
 50
270.0000000000006
 51
0.0000000000007994
  0
ARC
  5
7FC
330
31
100
AcDbEntity
  8
0
  6
Continuous
 62
     7
100
AcDbCircle
 10
292.6687008861768
 20
-104.1690190054264
 30
0.0
 40
0.13399999866
100
AcDbArc
 50
189.9981228618004
 51
214.9693579838005
  0
ARC
  5
7FD
330
31
100
AcDbEntity
  8
0
  6
Continuous
 62
     7
100
AcDbCircle
 10
292.6687008861768
 20
-104.1690190054264
 30
0.0
 40
0.0299999997
100
AcDbArc
 50
180.0000000000004
 51
270.0000000000006
  0
CIRCLE
  5
862
330
31
100
AcDbEntity
  8
0
  6
Continuous
 62
     7
100
AcDbCircle
 10
176.3923602344946
 20
-103.0530190165864
 30
0.0
 40
0.20699999793
  0
CIRCLE
  5
863
330
31
100
AcDbEntity
  8
0
  6
Continuous
 62
     7
100
AcDbCircle
 10
170.8523602898945
 20
-99.3030190540864
 30
0.0
 40
0.20699999793
  0
CIRCLE
  5
864
330
31
100
AcDbEntity
  8
0
  6
Continuous
 62
     7
100
AcDbCircle
 10
170.8523602898945
 20
-103.0530190165864
 30
0.0
 40
0.20699999793
  0
CIRCLE
  5
865
330
31
100
AcDbEntity
  8
0
  6
Continuous
 62
     7
100
AcDbCircle
 10
176.3923602344946
 20
-99.3030190540864
 30
0.0
 40
0.20699999793
  0
ARC
  5
866
330
31
100
AcDbEntity
  8
0
  6
Continuous
 62
     7
100
AcDbCircle
 10
171.1563602868545
 20
-97.7572917968164
 30
0.0
 40
0.475227267975
100
AcDbArc
 50
226.5031224380005
 51
313.4968775620007
  0
ARC
  5
867
330
31
100
AcDbEntity
  8
0
  6
Continuous
 62
     7
100
AcDbCircle
 10
171.4697000655393
 20
-98.0875190662414
 30
0.0
 40
0.0199999998
100
AcDbArc
 50
313.4968758626007
 51
90.00000000000019
  0
ARC
  5
868
330
31
100
AcDbEntity
  8
0
  6
Continuous
 62
     7
100
AcDbCircle
 10
170.8430205099879
 20
-98.0875190662414
 30
0.0
 40
0.0199999998
100
AcDbArc
 50
90.00000000000019
 51
226.5031241374005
  0
ARC
  5
869
330
31
100
AcDbEntity
  8
0
  6
Continuous
 62
     7
100
AcDbCircle
 10
176.0963602374545
 20
-97.7572917968164
 30
0.0
 40
0.475227267975
100
AcDbArc
 50
226.5031224380005
 51
313.4968775620007
  0
ARC
  5
86A
330
31
100
AcDbEntity
  8
0
  6
Continuous
 62
     7
100
AcDbCircle
 10
176.4097000161393
 20
-98.0875190662414
 30
0.0
 40
0.0199999998
100
AcDbArc
 50
313.4968758626007
 51
90.00000000000019
  0
ARC
  5
86B
330
31
100
AcDbEntity
  8
0
  6
Continuous
 62
     7
100
AcDbCircle
 10
175.7830204605879
 20
-98.0875190662414
 30
0.0
 40
0.0199999998
100
AcDbArc
 50
90.00000000000019
 51
226.5031241374005
  0
ARC
  5
880
330
31
100
AcDbEntity
  8
0
  6
Continuous
 62
     7
100
AcDbCircle
 10
173.8073602603445
 20
-103.5685190114314
 30
0.0
 40
0.095499999045
100
AcDbArc
 50
91.50578746170021
 51
180.0000000000004
  0
ARC
  5
881
330
31
100
AcDbEntity
  8
0
  6
Continuous
 62
     7
100
AcDbCircle
 10
173.8073602603445
 20
-103.6275190108413
 30
0.0
 40
0.095499999045
100
AcDbArc
 50
180.0000000000004
 51
268.4942125383007
  0
ARC
  5
882
330
31
100
AcDbEntity
  8
0
  6
Continuous
 62
     7
100
AcDbCircle
 10
173.4473602639445
 20
-103.5685190114314
 30
0.0
 40
0.095499999045
100
AcDbArc
 50
91.50578746170021
 51
180.0000000000004
  0
ARC
  5
883
330
31
100
AcDbEntity
  8
0
  6
Continuous
 62
     7
100
AcDbCircle
 10
173.4473602639445
 20
-103.6275190108413
 30
0.0
 40
0.095499999045
100
AcDbArc
 50
180.0000000000004
 51
268.4942125383007
  0
ARC
  5
884
330
31
100
AcDbEntity
  8
0
  6
Continuous
 62
     7
100
AcDbCircle
 10
176.4973602334445
 20
-98.42801906283639
 30
0.0
 40
0.12499999875
100
AcDbArc
 50
0.0
 51
90.00000000000019
  0
ARC
  5
885
330
31
100
AcDbEntity
  8
0
  6
Continuous
 62
     7
100
AcDbCircle
 10
170.7473602909445
 20
-98.42801906283639
 30
0.0
 40
0.12499999875
100
AcDbArc
 50
90.00000000000019
 51
180.0000000000004
  0
ARC
  5
888
330
31
100
AcDbEntity
  8
0
  6
Continuous
 62
     7
100
AcDbCircle
 10
173.4423602639945
 20
-103.6275190108413
 30
0.0
 40
0.095499999045
100
AcDbArc
 50
180.0000000000004
 51
0.0000000000007994
  0
ARC
  5
889
330
31
100
AcDbEntity
  8
0
  6
Continuous
 62
     7
100
AcDbCircle
 10
173.4423602639945
 20
-103.5685190114314
 30
0.0
 40
0.095499999045
100
AcDbArc
 50
0.0
 51
180.0000000000004
  0
ARC
  5
88A
330
31
100
AcDbEntity
  8
0
  6
Continuous
 62
     7
100
AcDbCircle
 10
173.8023602603945
 20
-103.6275190108413
 30
0.0
 40
0.095499999045
100
AcDbArc
 50
180.0000000000004
 51
0.0000000000007994
  0
ARC
  5
88B
330
31
100
AcDbEntity
  8
0
  6
Continuous
 62
     7
100
AcDbCircle
 10
173.8023602603945
 20
-103.5685190114314
 30
0.0
 40
0.095499999045
100
AcDbArc
 50
0.0
 51
180.0000000000004
  0
ARC
  5
88C
330
31
100
AcDbEntity
  8
0
  6
Continuous
 62
     7
100
AcDbCircle
 10
177.4713602237045
 20
-104.2885190042314
 30
0.0
 40
0.0299999997
100
AcDbArc
 50
270.0000000000006
 51
0.0000000000007994
  0
ARC
  5
88D
330
31
100
AcDbEntity
  8
0
  6
Continuous
 62
     7
100
AcDbCircle
 10
177.4713602237045
 20
-104.1925190051914
 30
0.0
 40
0.0299999997
100
AcDbArc
 50
0.0
 51
90.00000000000019
  0
ARC
  5
88E
330
31
100
AcDbEntity
  8
0
  6
Continuous
 62
     7
100
AcDbCircle
 10
169.7813603006045
 20
-104.2885190042314
 30
0.0
 40
0.0299999997
100
AcDbArc
 50
209.0597207799005
 51
270.0000000000006
  0
ARC
  5
88F
330
31
100
AcDbEntity
  8
0
  6
Continuous
 62
     7
100
AcDbCircle
 10
169.7813603006045
 20
-104.1925190051914
 30
0.0
 40
0.0299999997
100
AcDbArc
 50
90.00000000000019
 51
163.4534951430003
  0
ARC
  5
890
330
31
100
AcDbEntity
  8
0
  6
Continuous
 62
     7
100
AcDbCircle
 10
170.5653602927645
 20
-104.1325190057914
 30
0.0
 40
0.0299999997
100
AcDbArc
 50
270.0000000000006
 51
0.0000000000007994
  0
ARC
  5
891
330
31
100
AcDbEntity
  8
0
  6
Continuous
 62
     7
100
AcDbCircle
 10
176.6873602315445
 20
-104.1325190057914
 30
0.0
 40
0.0299999997
100
AcDbArc
 50
180.0000000000004
 51
270.0000000000006
  0
ARC
  5
892
330
31
100
AcDbEntity
  8
0
  6
Continuous
 62
     7
100
AcDbCircle
 10
170.6913602915045
 20
-104.2585190045314
 30
0.0
 40
0.0599999994
100
AcDbArc
 50
270.0000000000006
 51
311.9767217677007
  0
ARC
  5
893
330
31
100
AcDbEntity
  8
0
  6
Continuous
 62
     7
100
AcDbCircle
 10
176.5613602328045
 20
-104.2585190045314
 30
0.0
 40
0.0599999994
100
AcDbArc
 50
228.0232782323005
 51
270.0000000000006
  0
ARC
  5
894
330
31
100
AcDbEntity
  8
0
  6
Continuous
 62
     7
100
AcDbCircle
 10
171.6553602818645
 20
-97.9475190676414
 30
0.0
 40
0.0599999994
100
AcDbArc
 50
0.0
 51
90.00000000000019
  0
ARC
  5
895
330
31
100
AcDbEntity
  8
0
  6
Continuous
 62
     7
100
AcDbCircle
 10
170.6553602918645
 20
-97.9475190676414
 30
0.0
 40
0.0599999994
100
AcDbArc
 50
90.00000000000019
 51
180.0000000000004
  0
ARC
  5
896
330
31
100
AcDbEntity
  8
0
  6
Continuous
 62
     7
100
AcDbCircle
 10
175.5973602424445
 20
-97.9475190676414
 30
0.0
 40
0.0599999994
100
AcDbArc
 50
90.00000000000019
 51
180.0000000000004
  0
ARC
  5
897
330
31
100
AcDbEntity
  8
0
  6
Continuous
 62
     7
100
AcDbCircle
 10
176.5973602324445
 20
-97.9475190676414
 30
0.0
 40
0.0599999994
100
AcDbArc
 50
0.0
 51
90.00000000000019
  0
SPLINE
  5
8C3
330
31
100
AcDbEntity
  8
0
  6
Continuous
 62
     7
100
AcDbSpline
210
0.0
220
0.0
230
1.0
 70
     8
 71
     3
 72
    11
 73
     7
 74
     5
 42
0.0000000001
 43
0.0000000001
 44
0.0000000001
 40
0.0
 40
0.0
 40
0.0
 40
0.0
 40
0.0141686802052966
 40
0.0291248791487005
 40
0.0452428381323999
 40
0.0630433738160238
 40
0.0630433738160238
 40
0.0630433738160238
 40
0.0630433738160238
 10
175.8500974835535
 20
-97.36451907347142
 30
0.0
 10
175.8455087637842
 20
-97.3656651511326
 30
0.0
 10
175.8360762755926
 20
-97.36802100735161
 30
0.0
 10
175.8221717142391
 20
-97.37399351600222
 30
0.0
 10
175.8078139876115
 20
-97.38173734131374
 30
0.0
 10
175.7984848686463
 20
-97.38813898582485
 30
0.0
 10
175.7935889168459
 20
-97.39149858956524
 30
0.0
 11
175.8500974835535
 21
-97.36451907347142
 31
0.0
 11
175.8364452745991
 21
-97.36830967888806
 31
0.0
 11
175.8226264129191
 21
-97.37403042610358
 31
0.0
 11
175.8084516585154
 21
-97.38170277511777
 31
0.0
 11
175.7935889168459
 21
-97.39149858956524
 31
0.0
  0
SPLINE
  5
8C4
330
31
100
AcDbEntity
  8
0
  6
Continuous
 62
     7
100
AcDbSpline
210
0.0
220
0.0
230
1.0
 70
     8
 71
     3
 72
    12
 73
     8
 74
     6
 42
0.0000000001
 43
0.0000000001
 44
0.0000000001
 40
0.0
 40
0.0
 40
0.0
 40
0.0
 40
0.0169177493974529
 40
0.0321985670762125
 40
0.0463205658636345
 40
0.0595813284528632
 40
0.0722350397877207
 40
0.0722350397877207
 40
0.0722350397877207
 40
0.0722350397877207
 10
175.9523602388945
 20
-97.39696241678336
 30
0.0
 10
175.9478251650356
 20
-97.39360774851615
 30
0.0
 10
175.9391938230993
 20
-97.38722300379139
 30
0.0
 10
175.9260402564138
 20
-97.37909514507951
 30
0.0
 10
175.9133725694898
 20
-97.37261207865607
 30
0.0
 10
175.9009657856092
 20
-97.36758476645754
 30
0.0
 10
175.8925670213054
 20
-97.36552488678171
 30
0.0
 10
175.8884660104425
 20
-97.36451907347142
 30
0.0
 11
175.9523602388945
 21
-97.39696241678336
 31
0.0
 11
175.9386136644865
 21
-97.38710128415469
 31
0.0
 11
175.9256083282529
 21
-97.37907852787129
 31
0.0
 11
175.9130224138334
 21
-97.37267340429895
 31
0.0
 11
175.9006812539568
 21
-97.36782122980208
 31
0.0
 11
175.8884660104425
 21
-97.36451907347142
 31
0.0
  0
SPLINE
  5
8C5
330
31
100
AcDbEntity
  8
0
  6
Continuous
 62
     7
100
AcDbSpline
210
0.0
220
0.0
230
1.0
 70
     8
 71
     3
 72
    16
 73
    12
 74
    10
 42
0.0000000001
 43
0.0000000001
 44
0.0000000001
 40
0.0
 40
0.0
 40
0.0
 40
0.0
 40
0.0347892978183944
 40
0.0677636647493919
 40
0.0997127916877042
 40
0.1311628385936963
 40
0.1624686382807026
 40
0.1939188992152802
 40
0.2258681597481805
 40
0.2588423937186393
 40
0.2936312004301468
 40
0.2936312004301468
 40
0.2936312004301468
 40
0.2936312004301468
 10
176.2403602360145
 20
-97.39696241678336
 30
0.0
 10
176.2292940329207
 20
-97.39348415889502
 30
0.0
 10
176.2077389420301
 20
-97.38670910115493
 30
0.0
 10
176.1753193423642
 20
-97.37922681444382
 30
0.0
 10
176.1435777711283
 20
-97.37411871727083
 30
0.0
 10
176.1120780942755
 20
-97.37155752114981
 30
0.0
 10
176.0806420325669
 20
-97.37155753202451
 30
0.0
 10
176.0491422421559
 20
-97.37411876855688
 30
0.0
 10
176.0174006066681
 20
-97.37922691850016
 30
0.0
 10
175.9849811760281
 20
-97.3867092071854
 30
0.0
 10
175.963426285051
 20
-97.39348420614218
 30
0.0
 10
175.9523602388945
 20
-97.39696241678336
 30
0.0
 11
176.2403602360145
 21
-97.39696241678336
 31
0.0
 11
176.2070359308931
 21
-97.38697312597414
 31
0.0
 11
176.1749151639417
 21
-97.37951891877596
 31
0.0
 11
176.1433610897118
 21
-97.37451021518969
 31
0.0
 11
176.1120129991161
 21
-97.37197986612407
 31
0.0
 11
176.0807071994291
 21
-97.37197987703316
 31
0.0
 11
176.0493588979245
 21
-97.37451027337153
 31
0.0
 11
176.0178046982401
 21
-97.37951903877595
 31
0.0
 11
175.9856840694704
 21
-97.38697325324686
 31
0.0
 11
175.9523602388945
 21
-97.39696241678336
 31
0.0
  0
SPLINE
  5
8C6
330
31
100
AcDbEntity
  8
0
  6
Continuous
 62
     7
100
AcDbSpline
210
0.0
220
0.0
230
1.0
 70
     8
 71
     3
 72
    16
 73
    12
 74
    10
 42
0.0000000001
 43
0.0000000001
 44
0.0000000001
 40
0.0
 40
0.0
 40
0.0
 40
0.0
 40
0.0347888054919382
 40
0.0677630372802288
 40
0.0997122978132459
 40
0.1311625605602042
 40
0.1624683620652342
 40
0.1939184071589305
 40
0.2258675340972405
 40
0.2588418992573054
 40
0.2936312010808288
 40
0.2936312010808288
 40
0.2936312010808288
 40
0.2936312010808288
 10
175.9523602388945
 20
-97.58207572584131
 30
0.0
 10
175.9634262843482
 20
-97.58555393745394
 30
0.0
 10
175.9849811736299
 20
-97.59232893820037
 30
0.0
 10
176.0174006038958
 20
-97.59981122359455
 30
0.0
 10
176.0491422390765
 20
-97.60491937454602
 30
0.0
 10
176.0806420307625
 20
-97.60748060983704
 30
0.0
 10
176.1120780930684
 20
-97.60748062409973
 30
0.0
 10
176.1435777698993
 20
-97.60491942682126
 30
0.0
 10
176.175319339987
 20
-97.59981133026983
 30
0.0
 10
176.2077389402723
 20
-97.59232904280446
 30
0.0
 10
176.2292940317237
 20
-97.58555398437124
 30
0.0
 10
176.2403602360145
 20
-97.58207572584131
 30
0.0
 11
175.9523602388945
 21
-97.58207572584131
 31
0.0
 11
175.9856840676522
 21
-97.59206489119595
 31
0.0
 11
176.0178046946037
 21
-97.5995191038487
 31
0.0
 11
176.0493588942882
 21
-97.60452786925316
 31
0.0
 11
176.0807071976111
 21
-97.60705826559149
 31
0.0
 11
176.1120129991161
 21
-97.60705827831877
 31
0.0
 11
176.1433610878936
 21
-97.60452792925313
 31
0.0
 11
176.1749151621235
 21
-97.59951922566687
 31
0.0
 11
176.2070359272569
 21
-97.59206501846868
 31
0.0
 11
176.2403602360145
 21
-97.58207572584131
 31
0.0
  0
SPLINE
  5
8C7
330
31
100
AcDbEntity
  8
0
  6
Continuous
 62
     7
100
AcDbSpline
210
0.0
220
0.0
230
1.0
 70
     8
 71
     3
 72
    18
 73
    14
 74
    12
 42
0.0000000001
 43
0.0000000001
 44
0.0000000001
 40
0.0
 40
0.0
 40
0.0
 40
0.0
 40
0.0205186738281796
 40
0.0389580667661649
 40
0.0559774988978272
 40
0.0720281475859953
 40
0.0874923508356234
 40
0.102718810305072
 40
0.1180459736746371
 40
0.1338154928711817
 40
0.1503922259744536
 40
0.1681940476457793
 40
0.1736881746501203
 40
0.1736881746501203
 40
0.1736881746501203
 40
0.1736881746501203
 10
176.4135653161007
 20
-97.40180841673486
 30
0.0
 10
176.4079272243322
 20
-97.39793092209497
 30
0.0
 10
176.3972223826165
 20
-97.39056886271768
 30
0.0
 10
176.3808750429755
 20
-97.38150910287457
 30
0.0
 10
176.3651349471444
 20
-97.37458057030957
 30
0.0
 10
176.3496420123205
 20
-97.36978157532291
 30
0.0
 10
176.3342403470056
 20
-97.36712811626837
 30
0.0
 10
176.3188541351213
 20
-97.36668314480457
 30
0.0
 10
176.3034644713139
 20
-97.36845923552156
 30
0.0
 10
176.2880255055889
 20
-97.37240622536345
 30
0.0
 10
176.2724178855123
 20
-97.37848121145459
 30
0.0
 10
176.2605539802694
 20
-97.38452310769355
 30
0.0
 10
176.253858015286
 20
-97.38845547915255
 30
0.0
 10
176.2522788358953
 20
-97.38938289140456
 30
0.0
 11
176.4135653161007
 21
-97.40180841673486
 31
0.0
 11
176.3964645617262
 21
-97.39046909684828
 31
0.0
 11
176.3803305073421
 21
-97.38154141511936
 31
0.0
 11
176.3647194402255
 21
-97.37476235518714
 31
0.0
 11
176.3493706731062
 21
-97.37006781887046
 31
0.0
 11
176.3341242587133
 21
-97.36748161889636
 31
0.0
 11
176.3189039625018
 21
-97.36704843162792
 31
0.0
 11
176.3036747062905
 21
-97.36877808251973
 31
0.0
 11
176.2883839264434
 21
-97.37263421884479
 31
0.0
 11
176.2729085629618
 21
-97.37857570060358
 31
0.0
 11
176.2570294794842
 21
-97.38662303325035
 31
0.0
 11
176.2522788358953
 21
-97.38938289140456
 31
0.0
  0
SPLINE
  5
8C8
330
31
100
AcDbEntity
  8
0
  6
Continuous
 62
     7
100
AcDbSpline
210
0.0
220
0.0
230
1.0
 70
    24
 71
     3
 72
     8
 73
     4
 74
     2
 42
0.0000000001
 43
0.0000000001
 44
0.0000000001
 40
0.0
 40
0.0
 40
0.0
 40
0.0
 40
0.0141245257650055
 40
0.0141245257650055
 40
0.0141245257650055
 40
0.0141245257650055
 10
176.2522788358953
 20
-97.38938289140456
 30
0.0
 10
176.2483059692683
 20
-97.39190939986414
 30
0.0
 10
176.2443331026414
 20
-97.39443590832374
 30
0.0
 10
176.2403602360145
 20
-97.39696241678336
 30
0.0
 11
176.2522788358953
 21
-97.38938289140456
 31
0.0
 11
176.2403602360145
 21
-97.39696241678336
 31
0.0
  0
SPLINE
  5
8C9
330
31
100
AcDbEntity
  8
0
  6
Continuous
 62
     7
100
AcDbSpline
210
0.0
220
0.0
230
1.0
 70
     8
 71
     3
 72
    11
 73
     7
 74
     5
 42
0.0000000001
 43
0.0000000001
 44
0.0000000001
 40
0.0
 40
0.0
 40
0.0
 40
0.0
 40
0.0208861669547322
 40
0.0393992575124023
 40
0.0563315295966127
 40
0.0722213832249356
 40
0.0722213832249356
 40
0.0722213832249356
 40
0.0722213832249356
 10
175.9523602388945
 20
-97.58207572584131
 30
0.0
 10
175.9467461858175
 20
-97.58620253925434
 30
0.0
 10
175.9361559457151
 20
-97.59398727949498
 30
0.0
 10
175.9198636352339
 20
-97.6033732352279
 30
0.0
 10
175.9042267593109
 20
-97.61049765351586
 30
0.0
 10
175.8936071686541
 20
-97.61320728410479
 30
0.0
 10
175.8884660104425
 20
-97.61451907097141
 30
0.0
 11
175.9523602388945
 21
-97.58207572584131
 31
0.0
 11
175.9352918881561
 21
-97.59411330753913
 31
0.0
 11
175.9192576992255
 21
-97.60336745835566
 31
0.0
 11
175.9037437375624
 21
-97.61015117646962
 31
0.0
 11
175.8884660104425
 21
-97.61451907097141
 31
0.0
  0
SPLINE
  5
8CA
330
31
100
AcDbEntity
  8
0
  6
Continuous
 62
     7
100
AcDbSpline
210
0.0
220
0.0
230
1.0
 70
     8
 71
     3
 72
    11
 73
     7
 74
     5
 42
0.0000000001
 43
0.0000000001
 44
0.0000000001
 40
0.0
 40
0.0
 40
0.0
 40
0.0
 40
0.0141721089433108
 40
0.0291292021446038
 40
0.0452344856526579
 40
0.0630433740281514
 40
0.0630433740281514
 40
0.0630433740281514
 40
0.0630433740281514
 10
175.8500974835535
 20
-97.61451907097141
 30
0.0
 10
175.845507661399
 20
-97.61337267235722
 30
0.0
 10
175.8360737897092
 20
-97.61101637682598
 30
0.0
 10
175.8221719749853
 20
-97.60504452870991
 30
0.0
 10
175.807815178542
 20
-97.59730147383814
 30
0.0
 10
175.798487194428
 20
-97.59090070293353
 30
0.0
 10
175.7935889168459
 20
-97.58753955305941
 30
0.0
 11
175.8500974835535
 21
-97.61451907097141
 31
0.0
 11
175.8364420291446
 21
-97.61072733828207
 31
0.0
 11
175.8226225074646
 21
-97.6050058474302
 31
0.0
 11
175.8084588221517
 21
-97.59733967659776
 31
0.0
 11
175.7935889168459
 21
-97.58753955305941
 31
0.0
  0
SPLINE
  5
8CB
330
31
100
AcDbEntity
  8
0
  6
Continuous
 62
     7
100
AcDbSpline
210
0.0
220
0.0
230
1.0
 70
     8
 71
     3
 72
    17
 73
    13
 74
    11
 42
0.0000000001
 43
0.0000000001
 44
0.0000000001
 40
0.0
 40
0.0
 40
0.0
 40
0.0
 40
0.0224564901144606
 40
0.0424668253970554
 40
0.060877446168946
 40
0.0782596040828798
 40
0.0951043230321816
 40
0.1118666246368955
 40
0.1289972135642292
 40
0.1469681279773897
 40
0.1663126993834325
 40
0.1737032163730617
 40
0.1737032163730617
 40
0.1737032163730617
 40
0.1737032163730617
 10
176.4135653161007
 20
-97.57722972770794
 30
0.0
 10
176.4073871629891
 20
-97.58146381996722
 30
0.0
 10
176.3957038345558
 20
-97.58947079059231
 30
0.0
 10
176.3777936183048
 20
-97.59910008638875
 30
0.0
 10
176.3605446938327
 20
-97.6061681055151
 30
0.0
 10
176.3435191431185
 20
-97.61064753610241
 30
0.0
 10
176.3265541179635
 20
-97.61248965302696
 30
0.0
 10
176.3095929501207
 20
-97.61162718643085
 30
0.0
 10
176.2926043891462
 20
-97.60809749692867
 30
0.0
 10
176.2754739625278
 20
-97.6019667911151
 30
0.0
 10
176.2620718623392
 20
-97.59537648011827
 30
0.0
 10
176.2543770246273
 20
-97.59088092430381
 30
0.0
 10
176.2522499013502
 20
-97.58963819485657
 30
0.0
 11
176.4135653161007
 21
-97.57722972770794
 31
0.0
 11
176.3948042271973
 21
-97.58957134394815
 31
0.0
 11
176.3771676746464
 21
-97.59902467839909
 31
0.0
 11
176.3600909402718
 21
-97.60590480196665
 31
0.0
 11
176.3432634858946
 21
-97.61026096919581
 31
0.0
 11
176.3265134096984
 21
-97.61204408554165
 31
0.0
 11
176.3097718644113
 21
-97.61121016918631
 31
0.0
 11
176.2929877445791
 21
-97.60778228376606
 31
0.0
 11
176.2760346629305
 21
-97.60182017109841
 31
0.0
 11
176.2586557158316
 21
-97.5933240166379
 31
0.0
 11
176.2522499013502
 21
-97.58963819485657
 31
0.0
  0
SPLINE
  5
8CC
330
31
100
AcDbEntity
  8
0
  6
Continuous
 62
     7
100
AcDbSpline
210
0.0
220
0.0
230
1.0
 70
    24
 71
     3
 72
     8
 73
     4
 74
     2
 42
0.0000000001
 43
0.0000000001
 44
0.0000000001
 40
0.0
 40
0.0
 40
0.0
 40
0.0
 40
0.0140909573628265
 40
0.0140909573628265
 40
0.0140909573628265
 40
0.0140909573628265
 10
176.2522499013502
 20
-97.58963819485657
 30
0.0
 10
176.2482866795716
 20
-97.58711737185148
 30
0.0
 10
176.244323457793
 20
-97.58459654884639
 30
0.0
 10
176.2403602360145
 20
-97.58207572584131
 30
0.0
 11
176.2522499013502
 21
-97.58963819485657
 31
0.0
 11
176.2403602360145
 21
-97.58207572584131
 31
0.0
  0
SPLINE
  5
8CD
330
31
100
AcDbEntity
  8
0
  6
Continuous
 62
     7
100
AcDbSpline
210
0.0
220
0.0
230
1.0
 70
     8
 71
     3
 72
    11
 73
     7
 74
     5
 42
0.0000000001
 43
0.0000000001
 44
0.0000000001
 40
0.0
 40
0.0
 40
0.0
 40
0.0
 40
0.0141686802052692
 40
0.0291248791486994
 40
0.0452428381323987
 40
0.0630433738160227
 40
0.0630433738160227
 40
0.0630433738160227
 40
0.0630433738160227
 10
170.9100975329535
 20
-97.36451907347142
 30
0.0
 10
170.9055088131842
 20
-97.3656651511326
 30
0.0
 10
170.8960763249926
 20
-97.36802100735165
 30
0.0
 10
170.8821717636391
 20
-97.3739935160022
 30
0.0
 10
170.8678140370114
 20
-97.38173734131375
 30
0.0
 10
170.8584849180464
 20
-97.38813898582483
 30
0.0
 10
170.8535889662459
 20
-97.39149858956524
 30
0.0
 11
170.9100975329535
 21
-97.36451907347142
 31
0.0
 11
170.8964453239991
 21
-97.36830967888806
 31
0.0
 11
170.8826264623191
 21
-97.37403042610358
 31
0.0
 11
170.8684517079154
 21
-97.38170277511777
 31
0.0
 11
170.8535889662459
 21
-97.39149858956524
 31
0.0
  0
SPLINE
  5
8CE
330
31
100
AcDbEntity
  8
0
  6
Continuous
 62
     7
100
AcDbSpline
210
0.0
220
0.0
230
1.0
 70
     8
 71
     3
 72
    12
 73
     8
 74
     6
 42
0.0000000001
 43
0.0000000001
 44
0.0000000001
 40
0.0
 40
0.0
 40
0.0
 40
0.0
 40
0.0169177493974529
 40
0.0321985670762125
 40
0.0463205658636345
 40
0.0595813284528632
 40
0.0722350397877207
 40
0.0722350397877207
 40
0.0722350397877207
 40
0.0722350397877207
 10
171.0123602882945
 20
-97.39696241678336
 30
0.0
 10
171.0078252144356
 20
-97.39360774851615
 30
0.0
 10
170.9991938724994
 20
-97.38722300379139
 30
0.0
 10
170.9860403058138
 20
-97.37909514507951
 30
0.0
 10
170.9733726188899
 20
-97.37261207865607
 30
0.0
 10
170.9609658350092
 20
-97.36758476645754
 30
0.0
 10
170.9525670707054
 20
-97.36552488678171
 30
0.0
 10
170.9484660598425
 20
-97.36451907347142
 30
0.0
 11
171.0123602882945
 21
-97.39696241678336
 31
0.0
 11
170.9986137138865
 21
-97.38710128415469
 31
0.0
 11
170.9856083776529
 21
-97.37907852787129
 31
0.0
 11
170.9730224632334
 21
-97.37267340429895
 31
0.0
 11
170.9606813033568
 21
-97.36782122980208
 31
0.0
 11
170.9484660598425
 21
-97.36451907347142
 31
0.0
  0
SPLINE
  5
8CF
330
31
100
AcDbEntity
  8
0
  6
Continuous
 62
     7
100
AcDbSpline
210
0.0
220
0.0
230
1.0
 70
     8
 71
     3
 72
    16
 73
    12
 74
    10
 42
0.0000000001
 43
0.0000000001
 44
0.0000000001
 40
0.0
 40
0.0
 40
0.0
 40
0.0
 40
0.0347892978183127
 40
0.0677636647493656
 40
0.099712791687706
 40
0.1311628385936131
 40
0.1624686382806193
 40
0.1939188992152819
 40
0.2258681597481822
 40
0.258842393718641
 40
0.2936312004301485
 40
0.2936312004301485
 40
0.2936312004301485
 40
0.2936312004301485
 10
171.3003602854145
 20
-97.39696241678336
 30
0.0
 10
171.2892940823207
 20
-97.39348415889502
 30
0.0
 10
171.2677389914301
 20
-97.38670910115487
 30
0.0
 10
171.2353193917643
 20
-97.37922681444386
 30
0.0
 10
171.2035778205284
 20
-97.37411871727083
 30
0.0
 10
171.1720781436756
 20
-97.37155752114979
 30
0.0
 10
171.140642081967
 20
-97.37155753202452
 30
0.0
 10
171.1091422915559
 20
-97.37411876855688
 30
0.0
 10
171.0774006560681
 20
-97.37922691850014
 30
0.0
 10
171.0449812254281
 20
-97.3867092071854
 30
0.0
 10
171.023426334451
 20
-97.39348420614218
 30
0.0
 10
171.0123602882945
 20
-97.39696241678336
 30
0.0
 11
171.3003602854145
 21
-97.39696241678336
 31
0.0
 11
171.2670359802932
 21
-97.38697312597414
 31
0.0
 11
171.2349152133417
 21
-97.37951891877596
 31
0.0
 11
171.2033611391118
 21
-97.37451021518969
 31
0.0
 11
171.1720130485162
 21
-97.37197986612407
 31
0.0
 11
171.1407072488292
 21
-97.37197987703316
 31
0.0
 11
171.1093589473245
 21
-97.37451027337153
 31
0.0
 11
171.0778047476401
 21
-97.37951903877595
 31
0.0
 11
171.0456841188704
 21
-97.38697325324686
 31
0.0
 11
171.0123602882945
 21
-97.39696241678336
 31
0.0
  0
SPLINE
  5
8D0
330
31
100
AcDbEntity
  8
0
  6
Continuous
 62
     7
100
AcDbSpline
210
0.0
220
0.0
230
1.0
 70
     8
 71
     3
 72
    16
 73
    12
 74
    10
 42
0.0000000001
 43
0.0000000001
 44
0.0000000001
 40
0.0
 40
0.0
 40
0.0
 40
0.0
 40
0.0347888054919109
 40
0.0677630372802293
 40
0.0997122978132463
 40
0.1311625605602047
 40
0.1624683620653199
 40
0.1939184071589312
 40
0.2258675340972412
 40
0.2588418992573338
 40
0.29363120108083
 40
0.29363120108083
 40
0.29363120108083
 40
0.29363120108083
 10
171.0123602882945
 20
-97.58207572584131
 30
0.0
 10
171.0234263337482
 20
-97.58555393745393
 30
0.0
 10
171.0449812230299
 20
-97.59232893820035
 30
0.0
 10
171.0774006532958
 20
-97.59981122359455
 30
0.0
 10
171.1091422884765
 20
-97.60491937454604
 30
0.0
 10
171.1406420801625
 20
-97.60748060983706
 30
0.0
 10
171.1720781424684
 20
-97.60748062409973
 30
0.0
 10
171.2035778192993
 20
-97.60491942682126
 30
0.0
 10
171.235319389387
 20
-97.59981133026981
 30
0.0
 10
171.2677389896723
 20
-97.59232904280446
 30
0.0
 10
171.2892940811237
 20
-97.58555398437124
 30
0.0
 10
171.3003602854145
 20
-97.58207572584131
 30
0.0
 11
171.0123602882945
 21
-97.58207572584131
 31
0.0
 11
171.0456841170522
 21
-97.59206489119595
 31
0.0
 11
171.0778047440037
 21
-97.5995191038487
 31
0.0
 11
171.1093589436882
 21
-97.60452786925316
 31
0.0
 11
171.1407072470111
 21
-97.60705826559149
 31
0.0
 11
171.1720130485162
 21
-97.60705827831877
 31
0.0
 11
171.2033611372936
 21
-97.60452792925313
 31
0.0
 11
171.2349152115235
 21
-97.59951922566687
 31
0.0
 11
171.2670359766569
 21
-97.59206501846868
 31
0.0
 11
171.3003602854145
 21
-97.58207572584131
 31
0.0
  0
SPLINE
  5
8D1
330
31
100
AcDbEntity
  8
0
  6
Continuous
 62
     7
100
AcDbSpline
210
0.0
220
0.0
230
1.0
 70
     8
 71
     3
 72
    18
 73
    14
 74
    12
 42
0.0000000001
 43
0.0000000001
 44
0.0000000001
 40
0.0
 40
0.0
 40
0.0
 40
0.0
 40
0.0205186738281085
 40
0.0389580667661187
 40
0.0559774988977549
 40
0.0720281475860317
 40
0.0874923508355477
 40
0.1027188103049963
 40
0.1180459736745615
 40
0.1338154928711061
 40
0.1503922259743779
 40
0.1681940476457037
 40
0.1736881746500447
 40
0.1736881746500447
 40
0.1736881746500447
 40
0.1736881746500447
 10
171.4735653655006
 20
-97.40180841673486
 30
0.0
 10
171.4679272737322
 20
-97.39793092209499
 30
0.0
 10
171.4572224320165
 20
-97.39056886271768
 30
0.0
 10
171.4408750923755
 20
-97.38150910287457
 30
0.0
 10
171.4251349965444
 20
-97.37458057030956
 30
0.0
 10
171.4096420617204
 20
-97.36978157532293
 30
0.0
 10
171.3942403964056
 20
-97.36712811626837
 30
0.0
 10
171.3788541845213
 20
-97.36668314480461
 30
0.0
 10
171.3634645207139
 20
-97.36845923552156
 30
0.0
 10
171.3480255549889
 20
-97.37240622536345
 30
0.0
 10
171.3324179349123
 20
-97.37848121145459
 30
0.0
 10
171.3205540296694
 20
-97.38452310769355
 30
0.0
 10
171.313858064686
 20
-97.38845547915255
 30
0.0
 10
171.3122788852953
 20
-97.38938289140456
 30
0.0
 11
171.4735653655006
 21
-97.40180841673486
 31
0.0
 11
171.4564646111262
 21
-97.39046909684828
 31
0.0
 11
171.4403305567421
 21
-97.38154141511936
 31
0.0
 11
171.4247194896255
 21
-97.37476235518714
 31
0.0
 11
171.4093707225061
 21
-97.37006781887046
 31
0.0
 11
171.3941243081133
 21
-97.36748161889636
 31
0.0
 11
171.3789040119018
 21
-97.36704843162792
 31
0.0
 11
171.3636747556905
 21
-97.36877808251973
 31
0.0
 11
171.3483839758434
 21
-97.37263421884479
 31
0.0
 11
171.3329086123618
 21
-97.37857570060358
 31
0.0
 11
171.3170295288842
 21
-97.38662303325035
 31
0.0
 11
171.3122788852953
 21
-97.38938289140456
 31
0.0
  0
SPLINE
  5
8D2
330
31
100
AcDbEntity
  8
0
  6
Continuous
 62
     7
100
AcDbSpline
210
0.0
220
0.0
230
1.0
 70
    24
 71
     3
 72
     8
 73
     4
 74
     2
 42
0.0000000001
 43
0.0000000001
 44
0.0000000001
 40
0.0
 40
0.0
 40
0.0
 40
0.0
 40
0.0141245257650055
 40
0.0141245257650055
 40
0.0141245257650055
 40
0.0141245257650055
 10
171.3122788852953
 20
-97.38938289140456
 30
0.0
 10
171.3083060186683
 20
-97.39190939986414
 30
0.0
 10
171.3043331520414
 20
-97.39443590832374
 30
0.0
 10
171.3003602854145
 20
-97.39696241678336
 30
0.0
 11
171.3122788852953
 21
-97.38938289140456
 31
0.0
 11
171.3003602854145
 21
-97.39696241678336
 31
0.0
  0
SPLINE
  5
8D3
330
31
100
AcDbEntity
  8
0
  6
Continuous
 62
     7
100
AcDbSpline
210
0.0
220
0.0
230
1.0
 70
     8
 71
     3
 72
    11
 73
     7
 74
     5
 42
0.0000000001
 43
0.0000000001
 44
0.0000000001
 40
0.0
 40
0.0
 40
0.0
 40
0.0
 40
0.0208861669547322
 40
0.0393992575123285
 40
0.0563315295965388
 40
0.0722213832249438
 40
0.0722213832249438
 40
0.0722213832249438
 40
0.0722213832249438
 10
171.0123602882945
 20
-97.58207572584131
 30
0.0
 10
171.0067462352174
 20
-97.58620253925432
 30
0.0
 10
170.9961559951151
 20
-97.59398727949493
 30
0.0
 10
170.979863684634
 20
-97.60337323522797
 30
0.0
 10
170.964226808711
 20
-97.61049765351586
 30
0.0
 10
170.9536072180541
 20
-97.61320728410478
 30
0.0
 10
170.9484660598425
 20
-97.61451907097141
 30
0.0
 11
171.0123602882945
 21
-97.58207572584131
 31
0.0
 11
170.9952919375561
 21
-97.59411330753913
 31
0.0
 11
170.9792577486256
 21
-97.60336745835566
 31
0.0
 11
170.9637437869625
 21
-97.61015117646962
 31
0.0
 11
170.9484660598425
 21
-97.61451907097141
 31
0.0
  0
SPLINE
  5
8D4
330
31
100
AcDbEntity
  8
0
  6
Continuous
 62
     7
100
AcDbSpline
210
0.0
220
0.0
230
1.0
 70
     8
 71
     3
 72
    11
 73
     7
 74
     5
 42
0.0000000001
 43
0.0000000001
 44
0.0000000001
 40
0.0
 40
0.0
 40
0.0
 40
0.0
 40
0.0141721089433108
 40
0.0291292021446038
 40
0.0452344856526579
 40
0.0630433740281514
 40
0.0630433740281514
 40
0.0630433740281514
 40
0.0630433740281514
 10
170.9100975329535
 20
-97.61451907097141
 30
0.0
 10
170.905507710799
 20
-97.61337267235722
 30
0.0
 10
170.8960738391092
 20
-97.61101637682598
 30
0.0
 10
170.8821720243853
 20
-97.60504452870991
 30
0.0
 10
170.867815227942
 20
-97.59730147383814
 30
0.0
 10
170.858487243828
 20
-97.59090070293353
 30
0.0
 10
170.8535889662459
 20
-97.58753955305941
 30
0.0
 11
170.9100975329535
 21
-97.61451907097141
 31
0.0
 11
170.8964420785446
 21
-97.61072733828207
 31
0.0
 11
170.8826225568646
 21
-97.6050058474302
 31
0.0
 11
170.8684588715517
 21
-97.59733967659776
 31
0.0
 11
170.8535889662459
 21
-97.58753955305941
 31
0.0
  0
SPLINE
  5
8D5
330
31
100
AcDbEntity
  8
0
  6
Continuous
 62
     7
100
AcDbSpline
210
0.0
220
0.0
230
1.0
 70
     8
 71
     3
 72
    17
 73
    13
 74
    11
 42
0.0000000001
 43
0.0000000001
 44
0.0000000001
 40
0.0
 40
0.0
 40
0.0
 40
0.0
 40
0.0224564901143182
 40
0.0424668253969129
 40
0.0608774461689881
 40
0.0782596040828118
 40
0.0951043230321136
 40
0.1118666246368275
 40
0.1289972135641612
 40
0.1469681279773217
 40
0.1663126993834667
 40
0.1737032163729973
 40
0.1737032163729973
 40
0.1737032163729973
 40
0.1737032163729973
 10
171.4735653655006
 20
-97.57722972770794
 30
0.0
 10
171.467387212389
 20
-97.58146381996722
 30
0.0
 10
171.4557038839559
 20
-97.58947079059234
 30
0.0
 10
171.4377936677048
 20
-97.59910008638877
 30
0.0
 10
171.4205447432327
 20
-97.60616810551509
 30
0.0
 10
171.4035191925185
 20
-97.61064753610243
 30
0.0
 10
171.3865541673636
 20
-97.61248965302698
 30
0.0
 10
171.3695929995207
 20
-97.61162718643079
 30
0.0
 10
171.3526044385462
 20
-97.60809749692867
 30
0.0
 10
171.3354740119278
 20
-97.60196679111508
 30
0.0
 10
171.3220719117391
 20
-97.59537648011832
 30
0.0
 10
171.3143770740272
 20
-97.59088092430383
 30
0.0
 10
171.3122499507502
 20
-97.58963819485657
 30
0.0
 11
171.4735653655006
 21
-97.57722972770794
 31
0.0
 11
171.4548042765974
 21
-97.58957134394815
 31
0.0
 11
171.4371677240465
 21
-97.59902467839909
 31
0.0
 11
171.4200909896717
 21
-97.60590480196665
 31
0.0
 11
171.4032635352946
 21
-97.61026096919581
 31
0.0
 11
171.3865134590984
 21
-97.61204408554165
 31
0.0
 11
171.3697719138113
 21
-97.61121016918631
 31
0.0
 11
171.3529877939791
 21
-97.60778228376606
 31
0.0
 11
171.3360347123305
 21
-97.60182017109841
 31
0.0
 11
171.3186557652315
 21
-97.5933240166379
 31
0.0
 11
171.3122499507502
 21
-97.58963819485657
 31
0.0
  0
SPLINE
  5
8D6
330
31
100
AcDbEntity
  8
0
  6
Continuous
 62
     7
100
AcDbSpline
210
0.0
220
0.0
230
1.0
 70
    24
 71
     3
 72
     8
 73
     4
 74
     2
 42
0.0000000001
 43
0.0000000001
 44
0.0000000001
 40
0.0
 40
0.0
 40
0.0
 40
0.0
 40
0.0140909573628265
 40
0.0140909573628265
 40
0.0140909573628265
 40
0.0140909573628265
 10
171.3122499507502
 20
-97.58963819485657
 30
0.0
 10
171.3082867289716
 20
-97.58711737185148
 30
0.0
 10
171.304323507193
 20
-97.58459654884639
 30
0.0
 10
171.3003602854145
 20
-97.58207572584131
 30
0.0
 11
171.3122499507502
 21
-97.58963819485657
 31
0.0
 11
171.3003602854145
 21
-97.58207572584131
 31
0.0
  0
LINE
  5
FC1
330
31
100
AcDbEntity
  8
0
100
AcDbLine
 10
289.9096985483124
 20
-158.3185216021131
 30
0.0
 11
193.9096985483123
 21
-158.3185216021132
 31
0.0
  0
LINE
  5
FC2
330
31
100
AcDbEntity
  8
0
100
AcDbLine
 10
289.9096985483124
 20
-160.5685216021134
 30
0.0
 11
193.9096985483123
 21
-160.5685216021135
 31
0.0
  0
LINE
  5
FC3
330
31
100
AcDbEntity
  8
0
100
AcDbLine
 10
289.9096985483124
 20
-104.3185216021132
 30
0.0
 11
289.9096985483124
 21
-160.5685216021134
 31
0.0
  0
LINE
  5
FD3
330
31
100
AcDbEntity
  8
0
100
AcDbLine
 10
289.9096985483124
 20
-106.3185216021131
 30
0.0
 11
193.9096985483123
 21
-106.3185216021132
 31
0.0
  0
LINE
  5
FD6
330
31
100
AcDbEntity
  8
0
100
AcDbLine
 10
289.9096985483124
 20
-104.3185216021131
 30
0.0
 11
193.9096985483123
 21
-104.3185216021132
 31
0.0
  0
LINE
  5
FD7
330
31
100
AcDbEntity
  8
0
100
AcDbLine
 10
193.9096985483123
 20
-104.3185216021132
 30
0.0
 11
193.9096985483124
 21
-160.5685216021135
 31
0.0
  0
LINE
  5
FD8
330
31
100
AcDbEntity
  8
0
100
AcDbLine
 10
195.9096985483123
 20
-106.3185216021132
 30
0.0
 11
195.9096985483123
 21
-158.3185216021132
 31
0.0
  0
LINE
  5
FD9
330
31
100
AcDbEntity
  8
0
100
AcDbLine
 10
287.9096985483123
 20
-106.3185216021132
 30
0.0
 11
287.9096985483124
 21
-158.3185216021132
 31
0.0
  0
DIMENSION
  5
101B
330
31
100
AcDbEntity
  8
6
100
AcDbDimension
  2
*D16
 10
308.2381321700647
 20
-104.3185216021132
 30
0.0
 11
315.7981321700646
 21
-97.83852160211315
 31
0.0
 70
    32
  1
<>\PBLK.
 71
     5
 42
1.999999999999884
  3
STANDARD
100
AcDbAlignedDimension
 13
289.9096985483124
 23
-106.3185216021131
 33
0.0
 14
289.9096985483124
 24
-104.3185216021132
 34
0.0
 50
90.0
100
AcDbRotatedDimension
  0
DIMENSION
  5
102A
330
31
100
AcDbEntity
  8
6
100
AcDbDimension
  2
*D17
 10
308.2381321700646
 20
-158.3185216021132
 30
0.0
 11
308.2381321700647
 21
-132.3185216021131
 31
0.0
 70
    32
  1
<>\PV.A.
 71
     5
 42
51.99999999999997
  3
STANDARD
100
AcDbAlignedDimension
 13
287.9096985483123
 23
-106.3185216021132
 33
0.0
 14
287.9096985483124
 24
-158.3185216021132
 34
0.0
 50
90.0
100
AcDbRotatedDimension
  0
DIMENSION
  5
1038
330
31
100
AcDbEntity
  8
6
100
AcDbDimension
  2
*D18
 10
308.2381321700646
 20
-158.3185216021131
 30
0.0
 11
298.2781321700647
 21
-167.0485216021134
 31
0.0
 70
   160
  1
<>\PPOCKET
 71
     5
 42
2.250000000000312
  3
STANDARD
100
AcDbAlignedDimension
 13
289.9096985483124
 23
-160.5685216021134
 33
0.0
 14
289.9096985483124
 24
-158.3185216021131
 34
0.0
 50
90.0
100
AcDbRotatedDimension
  0
DIMENSION
  5
1072
330
31
100
AcDbEntity
  8
6
100
AcDbDimension
  2
*D19
 10
318.9235519237923
 20
-160.5685216021134
 30
0.0
 11
318.9235519237923
 21
-129.9235216021133
 31
0.0
 70
   160
 71
     5
 42
56.25000000000021
  3
STANDARD
100
AcDbAlignedDimension
 13
292.5346980620623
 23
-104.3185216021132
 33
0.0
 14
289.9096985483124
 24
-160.5685216021134
 34
0.0
 50
90.0
100
AcDbRotatedDimension
  0
DIMENSION
  5
108E
330
31
100
AcDbEntity
  8
6
100
AcDbDimension
  2
*D21
 10
193.9096985483123
 20
-170.5735392851224
 30
0.0
 11
241.9096985483124
 21
-170.5735392851224
 31
0.0
 70
    32
  1
<> FABRIC WIDTH
 71
     5
 42
96.00000000000013
  3
STANDARD
100
AcDbAlignedDimension
 13
289.9096985483124
 23
-160.5685216021134
 33
0.0
 14
193.9096985483123
 24
-160.5685216021135
 34
0.0
100
AcDbRotatedDimension
  0
DIMENSION
  5
109C
330
31
100
AcDbEntity
  8
6
100
AcDbDimension
  2
*D22
 10
195.9096985483123
 20
-165.4697573333484
 30
0.0
 11
241.9096985483124
 21
-165.4697573333484
 31
0.0
 70
    32
  1
<> V.A.
 71
     5
 42
92.00000000000013
  3
STANDARD
100
AcDbAlignedDimension
 13
287.9096985483124
 23
-158.3185216021132
 33
0.0
 14
195.9096985483123
 24
-158.3185216021132
 34
0.0
100
AcDbRotatedDimension
  0
DIMENSION
  5
10B4
330
31
100
AcDbEntity
  8
6
100
AcDbDimension
  2
*D23
 10
193.9096985483123
 20
-165.4697573333484
 30
0.0
 11
179.8096985483123
 21
-165.4697573333484
 31
0.0
 70
    32
  1
<>\PBORDERS
 71
     5
 42
2.0
  3
STANDARD
100
AcDbAlignedDimension
 13
195.9096985483123
 23
-158.3185216021132
 33
0.0
 14
193.9096985483123
 24
-160.5685216021135
 34
0.0
100
AcDbRotatedDimension
  0
DIMENSION
  5
1167
330
31
100
AcDbEntity
  8
6
100
AcDbDimension
  2
*D24
 10
195.9096985483123
 20
-158.3185216021132
 30
0.0
 11
241.9096985483123
 21
-132.3185216021132
 31
0.0
 70
    33
  1
106" DIAG.\PACTUAL <>
 71
     5
 42
105.6787585089832
  3
STANDARD
100
AcDbAlignedDimension
 13
287.9096985483123
 23
-106.3185216021132
 33
0.0
 14
195.9096985483123
 24
-158.3185216021132
 34
0.0
  0
LWPOLYLINE
  5
12B0
102
{ACAD_REACTORS
330
12B5
102
}
330
31
100
AcDbEntity
  8
0
100
AcDbPolyline
 90
        4
 70
     1
 43
0.0
 10
193.9096985483123
 20
-106.3185216021132
 10
195.9096985483123
 20
-106.3185216021132
 10
195.9096985483123
 20
-158.3185216021132
 10
193.9096985483123
 20
-158.3185216021132
  0
LWPOLYLINE
  5
12B1
102
{ACAD_REACTORS
330
12B5
102
}
330
31
100
AcDbEntity
  8
0
100
AcDbPolyline
 90
        4
 70
     1
 43
0.0
 10
287.9096985483124
 20
-158.3185216021132
 10
289.9096985483124
 20
-158.3185216021132
 10
289.9096985483124
 20
-106.3185216021132
 10
287.9096985483124
 20
-106.3185216021132
  0
LWPOLYLINE
  5
12B2
102
{ACAD_REACTORS
330
12B7
102
}
330
31
100
AcDbEntity
  8
0
100
AcDbPolyline
 90
        4
 70
     1
 43
0.0
 10
289.9096985483124
 20
-106.3185216021132
 10
193.9096985483123
 20
-106.3185216021132
 10
193.9096985483123
 20
-104.3185216021132
 10
289.9096985483124
 20
-104.3185216021132
  0
LWPOLYLINE
  5
12B3
102
{ACAD_REACTORS
330
12B7
102
}
330
31
100
AcDbEntity
  8
0
100
AcDbPolyline
 90
        4
 70
     1
 43
0.0
 10
193.9096985483124
 20
-158.3185216021132
 10
289.9096985483124
 20
-158.3185216021132
 10
289.9096985483124
 20
-160.5685216021134
 10
193.9096985483124
 20
-160.5685216021134
  0
HATCH
  5
12B5
330
31
100
AcDbEntity
  8
0
 62
     2
100
AcDbHatch
 10
0.0
 20
0.0
 30
0.0
210
0.0
220
0.0
230
1.0
  2
ANSI31
 70
     0
 71
     1
 91
        2
 92
        1
 93
        4
 72
     1
 10
287.9096985483124
 20
-158.3185216021132
 11
289.9096985483124
 21
-158.3185216021132
 72
     1
 10
289.9096985483124
 20
-158.3185216021132
 11
289.9096985483124
 21
-106.3185216021132
 72
     1
 10
289.9096985483124
 20
-106.3185216021132
 11
287.9096985483124
 21
-106.3185216021132
 72
     1
 10
287.9096985483124
 20
-106.3185216021132
 11
287.9096985483124
 21
-158.3185216021132
 97
        1
330
12B1
 92
        1
 93
        4
 72
     1
 10
193.9096985483123
 20
-106.3185216021132
 11
195.9096985483123
 21
-106.3185216021132
 72
     1
 10
195.9096985483123
 20
-106.3185216021132
 11
195.9096985483123
 21
-158.3185216021132
 72
     1
 10
195.9096985483123
 20
-158.3185216021132
 11
193.9096985483123
 21
-158.3185216021132
 72
     1
 10
193.9096985483123
 20
-158.3185216021132
 11
193.9096985483123
 21
-106.3185216021132
 97
        1
330
12B0
 75
     0
 76
     1
 52
90.0
 41
10.0
 77
     0
 78
     1
 53
135.0
 43
12.0
 44
8.0
 45
-0.8838834764831844
 46
-0.8838834764831842
 79
     0
 98
        1
 10
12.0
 20
8.0
  0
HATCH
  5
12B7
330
31
100
AcDbEntity
  8
0
 62
     2
100
AcDbHatch
 10
0.0
 20
0.0
 30
0.0
210
0.0
220
0.0
230
1.0
  2
ANSI31
 70
     0
 71
     1
 91
        2
 92
        1
 93
        4
 72
     1
 10
289.9096985483124
 20
-106.3185216021132
 11
193.9096985483123
 21
-106.3185216021132
 72
     1
 10
193.9096985483123
 20
-106.3185216021132
 11
193.9096985483123
 21
-104.3185216021132
 72
     1
 10
193.9096985483123
 20
-104.3185216021132
 11
289.9096985483124
 21
-104.3185216021132
 72
     1
 10
289.9096985483124
 20
-104.3185216021132
 11
289.9096985483124
 21
-106.3185216021132
 97
        1
330
12B2
 92
        1
 93
        4
 72
     1
 10
193.9096985483124
 20
-158.3185216021132
 11
289.9096985483124
 21
-158.3185216021132
 72
     1
 10
289.9096985483124
 20
-158.3185216021132
 11
289.9096985483124
 21
-160.5685216021134
 72
     1
 10
289.9096985483124
 20
-160.5685216021134
 11
193.9096985483124
 21
-160.5685216021134
 72
     1
 10
193.9096985483124
 20
-160.5685216021134
 11
193.9096985483124
 21
-158.3185216021132
 97
        1
330
12B3
 75
     0
 76
     1
 52
0.0
 41
10.0
 77
     0
 78
     1
 53
45.0
 43
12.0
 44
8.0
 45
-0.8838834764831842
 46
0.8838834764831844
 79
     0
 98
        1
 10
12.0
 20
8.0
  0
LINE
  5
12D8
330
31
100
AcDbEntity
  8
0
100
AcDbLine
 10
172.0166367637618
 20
-116.3030190040863
 30
0.0
 11
172.0166367637617
 21
-158.3185216021135
 31
0.0
  0
LINE
  5
12D9
330
31
100
AcDbEntity
  8
0
100
AcDbLine
 10
172.0176367637618
 20
-116.3030190040863
 30
0.0
 11
172.0156367637618
 21
-116.3030190040863
 31
0.0
  0
LINE
  5
12DA
330
31
100
AcDbEntity
  8
0
100
AcDbLine
 10
172.0176367637618
 20
-116.3030190040863
 30
0.0
 11
172.0176367637618
 21
-158.3185216021134
 31
0.0
  0
LINE
  5
12DB
330
31
100
AcDbEntity
  8
0
100
AcDbLine
 10
172.0156367637618
 20
-104.3030190040864
 30
0.0
 11
172.0156367637618
 21
-116.3030190040863
 31
0.0
  0
LINE
  5
12DC
330
31
100
AcDbEntity
  8
0
100
AcDbLine
 10
172.0276367637619
 20
-158.3185216021135
 30
0.0
 11
172.0276367637618
 21
-104.3030190040864
 31
0.0
  0
DIMENSION
  5
1641
330
31
100
AcDbEntity
  8
6
100
AcDbDimension
  2
*D26
 10
176.6573602318445
 20
-92.94346218516821
 30
0.0
 11
173.6263602621545
 21
-92.94346218516821
 31
0.0
 70
   160
 71
     5
 42
6.061999939379972
  3
STANDARD
100
AcDbAlignedDimension
 13
170.5953602924645
 23
-97.9475190676414
 33
0.0
 14
176.6573602318445
 24
-97.9475190676414
 34
0.0
100
AcDbRotatedDimension
  0
DIMENSION
  5
166D
330
31
100
AcDbEntity
  8
6
100
AcDbDimension
  2
*D27
 10
177.5023602233945
 20
-107.2970764066807
 30
0.0
 11
188.3023602233945
 21
-107.2970764066807
 31
0.0
 70
    32
 71
     5
 42
7.754999922449997
  3
STANDARD
100
AcDbAlignedDimension
 13
169.7473603009445
 23
-104.3030190040864
 33
0.0
 14
177.5023602233945
 24
-104.3030190040864
 34
0.0
100
AcDbRotatedDimension
  0
DIMENSION
  5
167B
330
31
100
AcDbEntity
  8
6
100
AcDbDimension
  2
*D28
 10
157.0664886515868
 20
-104.3030190040864
 30
0.0
 11
157.0664886515869
 21
-101.0952690361639
 31
0.0
 70
   160
 71
     5
 42
6.415499935844991
  3
STANDARD
100
AcDbAlignedDimension
 13
170.6553602918645
 23
-97.8875190682414
 33
0.0
 14
169.7473603009445
 24
-104.3030190040864
 34
0.0
 50
90.0
100
AcDbRotatedDimension
  0
DIMENSION
  5
173C
330
31
100
AcDbEntity
  8
6
100
AcDbDimension
  2
*D29
 10
178.1263602171545
 20
-87.11283445859271
 30
0.0
 11
173.6263602621545
 21
-87.11283445859271
 31
0.0
 70
   160
 71
     5
 42
8.999999910000012
  3
STANDARD
100
AcDbAlignedDimension
 13
169.1263603071545
 23
-97.70851907003141
 33
0.0
 14
178.1263602171545
 24
-97.70851907003141
 34
0.0
100
AcDbRotatedDimension
  0
DIMENSION
  5
3C2A
330
31
100
AcDbEntity
  8
AM_REFDIM
100
AcDbDimension
  2
*D57
 10
290.8471985483124
 20
-176.3409632772893
 30
0.0
 11
243.5916334840118
 21
-176.3409632772893
 31
0.0
 70
   160
  1
<> (OVERALL LENGTH OF SLAT)
 71
     5
 42
97.87499999999994
  3
STANDARD
100
AcDbAlignedDimension
 13
192.9721985483124
 23
-160.6310216021134
 33
0.0
 14
290.8471985483124
 24
-160.6310216021135
 34
0.0
100
AcDbRotatedDimension
1001
ACAD
1000
DSTYLE
1002
{
1070
   271
1070
     2
1070
    40
1040
18.0
1070
     3
1000
"
1070
   144
1040
1.0
1070
   171
1070
     3
1070
   170
1070
     0
1002
}
  0
LINE
  5
3C2B
102
{ACAD_REACTORS
330
2DFB
102
}
330
31
100
AcDbEntity
  8
AM_VIS
100
AcDbLine
 10
193.9096985483124
 20
-158.3185216021134
 30
0.0
 11
193.9096985483124
 21
-160.5685216021134
 31
0.0
1001
ACAD
1000
ASC_BOUNDS
1002
{
1070
    19
1005
0
1002
}
  0
LINE
  5
3C2C
330
31
100
AcDbEntity
  8
AM_VIS
100
AcDbLine
 10
192.9721985483124
 20
-159.1310216021134
 30
0.0
 11
193.9096985483124
 21
-159.1310216021134
 31
0.0
  0
LINE
  5
3C2D
330
31
100
AcDbEntity
  8
AM_VIS
100
AcDbLine
 10
192.9721985483124
 20
-160.6310216021134
 30
0.0
 11
193.9096985483124
 21
-160.6310216021134
 31
0.0
  0
LINE
  5
3C2E
330
31
100
AcDbEntity
  8
AM_VIS
100
AcDbLine
 10
290.8471985483124
 20
-160.6310216021135
 30
0.0
 11
289.9096985483124
 21
-160.6310216021135
 31
0.0
  0
LINE
  5
3C2F
330
31
100
AcDbEntity
  8
AM_VIS
100
AcDbLine
 10
290.8471985483124
 20
-159.1310216021135
 30
0.0
 11
289.9096985483124
 21
-159.1310216021135
 31
0.0
  0
LINE
  5
3C30
330
31
100
AcDbEntity
  8
AM_VIS
100
AcDbLine
 10
193.9096985483124
 20
-159.3919621672944
 30
0.0
 11
193.9096985483124
 21
-160.6310216021135
 31
0.0
  0
LINE
  5
3C31
330
31
100
AcDbEntity
  8
AM_VIS
100
AcDbLine
 10
192.9721985483124
 20
-159.1310216021134
 30
0.0
 11
192.9721985483124
 21
-159.8810216021134
 31
0.0
  0
LINE
  5
3C32
330
31
100
AcDbEntity
  8
AM_VIS
100
AcDbLine
 10
192.9721985483124
 20
-159.8810216021134
 30
0.0
 11
192.9721985483124
 21
-160.6310216021134
 31
0.0
  0
LINE
  5
3C33
102
{ACAD_REACTORS
330
2DFB
102
}
330
31
100
AcDbEntity
  8
AM_VIS
100
AcDbLine
 10
289.9096985483124
 20
-160.6310216021135
 30
0.0
 11
289.9096985483124
 21
-159.3919621672944
 31
0.0
  0
LINE
  5
3C34
330
31
100
AcDbEntity
  8
AM_VIS
100
AcDbLine
 10
290.8471985483124
 20
-160.6310216021135
 30
0.0
 11
290.8471985483124
 21
-159.1310216021135
 31
0.0
  0
LINE
  5
3C56
330
31
100
AcDbEntity
  8
AM_VIS
100
AcDbLine
 10
172.0276367637619
 20
-158.3185216021135
 30
0.0
 11
172.5912498740702
 21
-160.3294621672941
 31
0.0
  0
LINE
  5
3C57
330
31
100
AcDbEntity
  8
AM_VIS
100
AcDbLine
 10
171.4540236534536
 20
-160.3294621672941
 30
0.0
 11
172.017636763762
 21
-158.3185216021135
 31
0.0
  0
LINE
  5
3C58
330
31
100
AcDbEntity
  8
AM_VIS
100
AcDbLine
 10
171.3656777391482
 20
-160.6158862400001
 30
0.0
 11
171.4540236534536
 21
-160.3294621672941
 31
0.0
  0
LINE
  5
3C59
330
31
100
AcDbEntity
  8
AM_VIS
100
AcDbLine
 10
172.5912498740702
 20
-160.3294621672941
 30
0.0
 11
172.6795957883755
 21
-160.6158862400001
 31
0.0
  0
ARC
  5
3C5A
330
31
100
AcDbEntity
  8
AM_VIS
100
AcDbCircle
 10
172.0226367637619
 20
-160.8185216021132
 30
0.0
 40
0.6875
100
AcDbArc
 50
162.8579121086096
 51
17.14208789139035
  0
CIRCLE
  5
3C5B
330
31
100
AcDbEntity
  8
AM_VIS
100
AcDbCircle
 10
172.0226367637619
 20
-160.8185216021132
 30
0.0
 40
0.75
  0
VIEWPORT
  5
3C5F
102
{ACAD_XDICTIONARY
360
3C70
102
}
330
32
100
AcDbEntity
 67
     1
  8
0
100
AcDbViewport
 10
5.352083341343196
 20
3.968749891115924
 30
0.0
 40
13.38176506936317
 41
8.992999745766947
 68
     1
 69
     1
 12
5.352083341343196
 22
3.968749891115924
 13
0.0
 23
0.0
 14
0.5
 24
0.5
 15
0.5
 25
0.5
 16
0.0
 26
0.0
 36
1.0
 17
0.0
 27
0.0
 37
0.0
 42
50.0
 43
0.0
 44
0.0
 45
8.992999745766947
 50
0.0
 51
0.0
 72
   100
 90
    32800
  1

281
     0
 71
     1
 74
     0
110
0.0
120
0.0
130
0.0
111
1.0
121
0.0
131
0.0
112
0.0
122
1.0
132
0.0
 79
     0
146
0.0
  0
ENDSEC
  0
SECTION
  2
OBJECTS
  0
DICTIONARY
  5
A68
330
0
100
AcDbDictionary
281
     1
  3
ACAD_COLOR
350
CED
  3
ACAD_GROUP
350
A69
  3
ACAD_LAYOUT
350
CF0
  3
ACAD_MATERIAL
350
CEC
  3
ACAD_MLINESTYLE
350
A6A
  3
ACAD_PLOTSETTINGS
350
CF1
  3
ACAD_PLOTSTYLENAME
350
CEA
  3
ACAD_TABLESTYLE
350
CEE
  3
ACDBHEADERROUNDTRIPXREC
350
3C6C
  3
AcDbVariableDictionary
350
F97
  3
ASE_INDEX_DICTIONARY
350
F94
  3
DWGPROPS
350
3C6B
  0
DICTIONARY
  5
1811
330
1
100
AcDbDictionary
280
     1
281
     1
  3
ACAD_LAYERSTATES
360
1812
  0
DICTIONARY
  5
FD4
330
31
100
AcDbDictionary
280
     1
281
     1
  3
ACAD_SORTENTS
360
FD5
  0
DICTIONARY
  5
3C70
330
3C5F
100
AcDbDictionary
280
     1
281
     1
  3
ACAD_XREC_ROUNDTRIP
360
3C71
  0
DICTIONARY
  5
CED
102
{ACAD_REACTORS
330
A68
102
}
330
A68
100
AcDbDictionary
281
     1
  0
DICTIONARY
  5
A69
102
{ACAD_REACTORS
330
A68
102
}
330
A68
100
AcDbDictionary
281
     1
  0
DICTIONARY
  5
CF0
102
{ACAD_REACTORS
330
A68
102
}
330
A68
100
AcDbDictionary
281
     1
  3
Layout1
350
CF3
  3
Model
350
CF2
  0
DICTIONARY
  5
CEC
102
{ACAD_REACTORS
330
A68
102
}
330
A68
100
AcDbDictionary
281
     1
  0
DICTIONARY
  5
A6A
102
{ACAD_REACTORS
330
A68
102
}
330
A68
100
AcDbDictionary
281
     1
  3
STANDARD
350
A6B
  0
DICTIONARY
  5
CF1
102
{ACAD_REACTORS
330
A68
102
}
330
A68
100
AcDbDictionary
281
     1
  0
ACDBDICTIONARYWDFLT
  5
CEA
102
{ACAD_REACTORS
330
A68
102
}
330
A68
100
AcDbDictionary
281
     1
  3
Normal
350
CEB
100
AcDbDictionaryWithDefault
340
CEB
  0
DICTIONARY
  5
CEE
102
{ACAD_REACTORS
330
A68
102
}
330
A68
100
AcDbDictionary
281
     1
  3
Standard
350
CEF
  0
DICTIONARY
  5
3C6C
102
{ACAD_REACTORS
330
A68
102
}
330
A68
100
AcDbDictionary
281
     1
  0
DICTIONARY
  5
F97
102
{ACAD_REACTORS
330
A68
102
}
330
A68
100
AcDbDictionary
281
     1
  3
CTABLESTYLE
350
F98
  3
DIMASSOC
350
F99
  3
PROJECTNAME
350
F9A
  0
DICTIONARY
  5
F94
102
{ACAD_REACTORS
330
A68
102
}
330
A68
100
AcDbDictionary
281
     1
  3
ASEBlockHierarchyIndexRecord
350
F96
1001
DCO15
1040
1573358554.911
  0
XRECORD
  5
3C6B
102
{ACAD_REACTORS
330
A68
102
}
330
A68
100
AcDbXrecord
280
     1
  1
DWGPROPS COOKIE
  2

  3

  4

  6

  7

  8

  9

300
=
301
=
302
=
303
=
304
=
305
=
306
=
307
=
308
=
309
=
 40
0.0231399189814815
 41
2444971.791666667
 42
2454527.345640093
  1

 90
        0
  0
DICTIONARY
  5
1812
102
{ACAD_REACTORS
330
1811
102
}
330
1811
100
AcDbDictionary
281
     1
  0
SORTENTSTABLE
  5
FD5
102
{ACAD_REACTORS
330
FD4
102
}
330
FD4
100
AcDbSortentsTable
330
31
331
331
  5
331
331
8CA
  5
8CA
331
368
  5
368
331
863
  5
863
331
86B
  5
86B
331
8D2
  5
8D2
331
AC
  5
AC
331
339
  5
339
331
58C
  5
58C
331
370
  5
370
331
54D
  5
54D
331
378
  5
378
331
4A7
  5
4A7
331
B4
  5
B4
331
341
  5
341
331
594
  5
594
331
4B7
  5
4B7
331
51E
  5
51E
331
FC1
  5
FC1
331
183
  5
183
331
565
  5
565
331
883
  5
883
331
4BF
  5
4BF
331
526
  5
526
331
FD9
  5
FC8
331
56D
  5
56D
331
88B
  5
88B
331
3F8
  5
3F8
331
4C7
  5
4C7
331
2F2
  5
2F2
331
893
  5
893
331
7FC
  5
7FC
331
12B1
  5
12B3
331
400
  5
400
331
2FA
  5
2FA
331
15C
  5
15C
331
361
  5
361
331
53E
  5
53E
331
102A
  5
1038
331
8C3
  5
8C3
331
369
  5
369
331
864
  5
864
331
8CB
  5
8CB
331
332
  5
332
331
33A
  5
33A
331
371
  5
371
331
4A0
  5
4A0
331
58D
  5
58D
331
8D3
  5
8D3
331
4B0
  5
4B0
331
342
  5
342
331
595
  5
595
331
379
  5
379
331
54E
  5
54E
331
51F
  5
51F
331
1072
  5
1080
331
FD6
  5
FC3
331
FC2
  5
FC4
331
4B8
  5
4B8
331
184
  5
184
331
884
  5
884
331
566
  5
566
331
527
  5
527
331
3C9
  5
3C9
331
2E3
  5
2E3
331
4C0
  5
4C0
331
88C
  5
88C
331
56E
  5
56E
331
3F9
  5
3F9
331
12B2
  5
12B6
331
7FD
  5
7FD
331
894
  5
894
331
2F3
  5
2F3
331
4C8
  5
4C8
331
2FB
  5
2FB
331
15D
  5
15D
331
362
  5
362
331
401
  5
401
331
101B
  5
102A
331
8C4
  5
8C4
331
499
  5
499
331
333
  5
333
331
8CC
  5
8CC
331
36A
  5
36A
331
865
  5
865
331
4A1
  5
4A1
331
8D4
  5
8D4
331
33B
  5
33B
331
58E
  5
58E
331
372
  5
372
331
54F
  5
54F
331
4B1
  5
4B1
331
343
  5
343
331
596
  5
596
331
FD7
  5
FC9
331
FC3
  5
FC6
331
55F
  5
55F
331
4B9
  5
4B9
331
520
  5
520
331
185
  5
185
331
567
  5
567
331
885
  5
885
331
4C1
  5
4C1
331
528
  5
528
331
88D
  5
88D
331
3CA
  5
3CA
331
3FA
  5
3FA
331
4C9
  5
4C9
331
2F4
  5
2F4
331
895
  5
895
331
12B3
  5
12B7
331
363
  5
363
331
402
  5
402
331
2FC
  5
2FC
331
8C5
  5
8C5
331
36B
  5
36B
331
49A
  5
49A
331
866
  5
866
331
8CD
  5
8CD
331
334
  5
334
331
548
  5
548
331
33C
  5
33C
331
373
  5
373
331
205
  5
205
331
4A2
  5
4A2
331
58F
  5
58F
331
8D5
  5
8D5
331
4B2
  5
4B2
331
344
  5
344
331
B7
  5
B7
331
597
  5
597
331
17E
  5
17E
331
550
  5
550
331
558
  5
558
331
560
  5
560
331
3BB
  5
3BB
331
4BA
  5
4BA
331
186
  5
186
331
521
  5
521
331
568
  5
568
331
529
  5
529
331
4C2
  5
4C2
331
88E
  5
88E
331
4CA
  5
4CA
331
35C
  5
35C
331
3FB
  5
3FB
331
896
  5
896
331
2F5
  5
2F5
331
539
  5
539
331
2FD
  5
2FD
331
364
  5
364
331
403
  5
403
331
109C
  5
10B4
331
10B4
  5
1167
331
8C6
  5
8C6
331
49B
  5
49B
331
4DA
  5
4DA
331
335
  5
335
331
8CE
  5
8CE
331
36C
  5
36C
331
588
  5
588
331
867
  5
867
331
549
  5
549
331
374
  5
374
331
4A3
  5
4A3
331
33D
  5
33D
331
8D6
  5
8D6
331
590
  5
590
331
551
  5
551
331
4B3
  5
4B3
331
17F
  5
17F
331
25E
  5
25E
331
B8
  5
B8
331
345
  5
345
331
598
  5
598
331
559
  5
559
331
561
  5
561
331
4BB
  5
4BB
331
2D6
  5
2D6
331
522
  5
522
331
187
  5
187
331
569
  5
569
331
4C3
  5
4C3
331
88F
  5
88F
331
52A
  5
52A
331
3FC
  5
3FC
331
1C7
  5
1C7
331
12B5
  5
12B1
331
2F6
  5
2F6
331
897
  5
897
331
35D
  5
35D
331
53A
  5
53A
331
365
  5
365
331
404
  5
404
331
2FE
  5
2FE
331
4D3
  5
4D3
331
46
  5
46
331
8C7
  5
8C7
331
36D
  5
36D
331
49C
  5
49C
331
589
  5
589
331
868
  5
868
331
8CF
  5
8CF
331
A9
  5
A9
331
336
  5
336
331
54A
  5
54A
331
B1
  5
B1
331
33E
  5
33E
331
591
  5
591
331
375
  5
375
331
4A4
  5
4A4
331
4B4
  5
4B4
331
25F
  5
25F
331
B9
  5
B9
331
346
  5
346
331
552
  5
552
331
108E
  5
109C
331
55A
  5
55A
331
599
  5
599
331
6A
  5
6A
331
880
  5
880
331
562
  5
562
331
180
  5
180
331
4BC
  5
4BC
331
188
  5
188
331
888
  5
888
331
56A
  5
56A
331
523
  5
523
331
52B
  5
52B
331
4C4
  5
4C4
331
890
  5
890
331
2F7
  5
2F7
331
35E
  5
35E
331
1C8
  5
1C8
331
3FD
  5
3FD
331
2FF
  5
2FF
331
366
  5
366
331
53B
  5
53B
331
47
  5
47
331
8C8
  5
8C8
331
1F8
  5
1F8
331
AA
  5
AA
331
337
  5
337
331
8D0
  5
8D0
331
36E
  5
36E
331
543
  5
543
331
58A
  5
58A
331
869
  5
869
331
54B
  5
54B
331
376
  5
376
331
4A5
  5
4A5
331
B2
  5
B2
331
33F
  5
33F
331
592
  5
592
331
553
  5
553
331
4B5
  5
4B5
331
BA
  5
BA
331
347
  5
347
331
3AE
  5
3AE
331
FD3
  5
FC2
331
59A
  5
59A
331
181
  5
181
331
881
  5
881
331
563
  5
563
331
4BD
  5
4BD
331
56B
  5
56B
331
889
  5
889
331
4C5
  5
4C5
331
891
  5
891
331
52C
  5
52C
331
7FA
  5
7FA
331
3FE
  5
3FE
331
4CD
  5
4CD
331
12B7
  5
12B5
331
2F8
  5
2F8
331
35F
  5
35F
331
367
  5
367
331
53C
  5
53C
331
1167
  5
1194
331
16A
  5
16A
331
330
  5
330
331
862
  5
862
331
8C9
  5
8C9
331
338
  5
338
331
36F
  5
36F
331
544
  5
544
331
58B
  5
58B
331
86A
  5
86A
331
8D1
  5
8D1
331
AB
  5
AB
331
54C
  5
54C
331
B3
  5
B3
331
340
  5
340
331
593
  5
593
331
377
  5
377
331
4A6
  5
4A6
331
4B6
  5
4B6
331
BB
  5
BB
331
554
  5
554
331
1038
  5
1072
331
59B
  5
59B
331
182
  5
182
331
348
  5
348
331
882
  5
882
331
564
  5
564
331
4BE
  5
4BE
331
FD8
  5
FCA
331
88A
  5
88A
331
56C
  5
56C
331
52D
  5
52D
331
12B0
  5
12B2
331
7FB
  5
7FB
331
892
  5
892
331
2F1
  5
2F1
331
4C6
  5
4C6
331
2F9
  5
2F9
331
15B
  5
15B
331
360
  5
360
331
3FF
  5
3FF
331
53D
  5
53D
  0
XRECORD
  5
3C71
102
{ACAD_REACTORS
330
3C70
102
}
330
3C70
100
AcDbXrecord
280
     1
102
SHADEPLOT
 70
     0
  0
LAYOUT
  5
CF3
102
{ACAD_XDICTIONARY
360
3C67
102
}
102
{ACAD_REACTORS
330
CF0
102
}
330
CF0
100
AcDbPlotSettings
  1

  2
\\DALITE03\PR00109
  4
Letter
  6

 40
7.143749713897705
 41
6.720425128936767
 42
7.14373779296875
 43
3.757080078125
 44
215.8999938964844
 45
279.3999938964844
 46
0.0
 47
0.0
 48
0.0
 49
0.0
140
0.0
141
0.0
142
1.0
143
1.0
 70
   688
 72
     0
 73
     1
 74
     5
  7
acad2.ctb
 75
    16
147
1.0
148
0.0
149
0.0
100
AcDbLayout
  1
Layout1
 70
     0
 71
     1
 10
-0.1479165385088583
 20
-0.2812499887361301
 11
10.85208322119525
 21
8.218749770967978
 12
0.0
 22
0.0
 32
0.0
 14
1.058749955470167
 24
0.7937500251559762
 34
0.0
 15
9.52874959923151
 25
7.143750226403783
 35
0.0
146
0.0
 13
0.0
 23
0.0
 33
0.0
 16
1.0
 26
0.0
 36
0.0
 17
0.0
 27
1.0
 37
0.0
 76
     0
330
32
331
3C5F
1001
ACAD_PSEXT
1000
\\DALITE03\PR00109
1000
HP LaserJet 5000 Series PCL
1000
Warsaw - Engineering
1000
Engineering (LaserJet 5000)
1070
     0
  0
LAYOUT
  5
CF2
102
{ACAD_XDICTIONARY
360
3C6D
102
}
102
{ACAD_REACTORS
330
CF0
102
}
330
CF0
100
AcDbPlotSettings
  1

  2
\\DALITE03\PR00109
  4

  6

 40
0.0
 41
0.0
 42
0.0
 43
0.0
 44
0.0
 45
0.0
 46
0.0
 47
0.0
 48
0.0
 49
0.0
140
0.0
141
0.0
142
1.0
143
1.0
 70
  1712
 72
     0
 73
     0
 74
     0
  7
acad2.ctb
 75
     0
147
1.0
148
0.0
149
0.0
100
AcDbLayout
  1
Model
 70
     1
 71
     0
 10
0.0
 20
0.0
 11
12.0
 21
9.0
 12
0.0
 22
0.0
 32
0.0
 14
0.0
 24
0.0
 34
0.0
 15
0.0
 25
0.0
 35
0.0
146
0.0
 13
0.0
 23
0.0
 33
0.0
 16
1.0
 26
0.0
 36
0.0
 17
0.0
 27
1.0
 37
0.0
 76
     0
330
31
  0
MLINESTYLE
  5
A6B
102
{ACAD_REACTORS
330
A6A
102
}
330
A6A
100
AcDbMlineStyle
  2
STANDARD
 70
     0
  3

 62
     0
 51
90.00000000000019
 52
90.00000000000019
 71
     2
 49
0.5
 62
   256
  6
BYLAYER
 49
-0.5
 62
   256
  6
BYLAYER
  0
ACDBPLACEHOLDER
  5
CEB
102
{ACAD_REACTORS
330
CEA
102
}
330
CEA
  0
TABLESTYLE
  5
CEF
102
{ACAD_REACTORS
330
CEE
102
}
330
CEE
100
AcDbTableStyle
  3
Standard
 70
     0
 71
     0
 40
0.06
 41
0.06
280
     0
281
     0
  7
STANDARD
140
0.18
170
     2
 62
     0
 63
     7
283
     0
274
    -2
284
     1
 64
     0
275
    -2
285
     1
 65
     0
276
    -2
286
     1
 66
     0
277
    -2
287
     1
 67
     0
278
    -2
288
     1
 68
     0
279
    -2
289
     1
 69
     0
  7
STANDARD
140
0.25
170
     5
 62
     0
 63
     7
283
     0
274
    -2
284
     1
 64
     0
275
    -2
285
     1
 65
     0
276
    -2
286
     1
 66
     0
277
    -2
287
     1
 67
     0
278
    -2
288
     1
 68
     0
279
    -2
289
     1
 69
     0
  7
STANDARD
140
0.18
170
     5
 62
     0
 63
     7
283
     0
274
    -2
284
     1
 64
     0
275
    -2
285
     1
 65
     0
276
    -2
286
     1
 66
     0
277
    -2
287
     1
 67
     0
278
    -2
288
     1
 68
     0
279
    -2
289
     1
 69
     0
  0
DICTIONARYVAR
  5
F98
102
{ACAD_REACTORS
330
F97
102
}
330
F97
100
DictionaryVariables
280
     0
  1
STANDARD
  0
DICTIONARYVAR
  5
F99
102
{ACAD_REACTORS
330
F97
102
}
330
F97
100
DictionaryVariables
280
     0
  1
1
  0
DICTIONARYVAR
  5
F9A
102
{ACAD_REACTORS
330
F97
102
}
330
F97
100
DictionaryVariables
280
     0
  1

  0
XRECORD
  5
F96
102
{ACAD_REACTORS
330
F94
102
}
330
F94
100
AcDbXrecord
280
     1
  0
DICTIONARY
  5
3C67
330
CF3
100
AcDbDictionary
280
     1
281
     1
  3
ACAD_XREC_ROUNDTRIP
360
3C6F
  3
ADSK_XREC_LAYOUTTHUMBNAIL
360
3C68
  0
DICTIONARY
  5
3C6D
330
CF2
100
AcDbDictionary
280
     1
281
     1
  3
ACAD_XREC_ROUNDTRIP
360
3C6E
  0
XRECORD
  5
3C6F
102
{ACAD_REACTORS
330
3C67
102
}
330
3C67
100
AcDbXrecord
280
     1
102
SHADEPLOT
 70
     0
102
SHADEPLOTRESLEVEL
 70
     2
102
SHADEPLOTCUSTOMDPI
 70
   300
  0
XRECORD
  5
3C68
102
{ACAD_REACTORS
330
3C67
102
}
330
3C67
100
AcDbXrecord
280
     1
310
28000000B40000008A000000010008000000000008610000000000000000000000010000000000000000000000000000FFFFFF000000000000000000000000000000000000000000000000000000000000000000330000006600000099000000CC000000FF00000000330000333300006633000099330000CC330000FF3300
310
0000660000336600006666000099660000CC660000FF66000000990000339900006699000099990000CC990000FF99000000CC000033CC000066CC000099CC0000CCCC0000FFCC000000FF000033FF000066FF000099FF0000CCFF0000FFFF000000003300330033006600330099003300CC003300FF003300003333003333
310
33006633330099333300CC333300FF33330000663300336633006666330099663300CC663300FF66330000993300339933006699330099993300CC993300FF99330000CC330033CC330066CC330099CC3300CCCC3300FFCC330000FF330033FF330066FF330099FF3300CCFF3300FFFF330000006600330066006600660099
310
006600CC006600FF00660000336600333366006633660099336600CC336600FF33660000666600336666006666660099666600CC666600FF66660000996600339966006699660099996600CC996600FF99660000CC660033CC660066CC660099CC6600CCCC6600FFCC660000FF660033FF660066FF660099FF6600CCFF6600
310
FFFF660000009900330099006600990099009900CC009900FF00990000339900333399006633990099339900CC339900FF33990000669900336699006666990099669900CC669900FF66990000999900339999006699990099999900CC999900FF99990000CC990033CC990066CC990099CC9900CCCC9900FFCC990000FF99
310
0033FF990066FF990099FF9900CCFF9900FFFF99000000CC003300CC006600CC009900CC00CC00CC00FF00CC000033CC003333CC006633CC009933CC00CC33CC00FF33CC000066CC003366CC006666CC009966CC00CC66CC00FF66CC000099CC003399CC006699CC009999CC00CC99CC00FF99CC0000CCCC0033CCCC0066CC
310
CC0099CCCC00CCCCCC00FFCCCC0000FFCC0033FFCC0066FFCC0099FFCC00CCFFCC00FFFFCC000000FF003300FF006600FF009900FF00CC00FF00FF00FF000033FF003333FF006633FF009933FF00CC33FF00FF33FF000066FF003366FF006666FF009966FF00CC66FF00FF66FF000099FF003399FF006699FF009999FF00CC
310
99FF00FF99FF0000CCFF0033CCFF0066CCFF0099CCFF00CCCCFF00FFCCFF0000FFFF0033FFFF0066FFFF0099FFFF00CCFFFF00FFFFFF00000000000D0D0D001A1A1A00282828003535350043434300505050005D5D5D006B6B6B00787878008686860093939300A1A1A100AEAEAE00BBBBBB00C9C9C900D6D6D600E4E4E400
310
F1F1F100FFFFFF0000000000000000000000000000000000000000000000000000000000000000000000000000000000F5F5F5F5F5F5F5F5F5F5F5F5F5F5F5F5F5F5F5F5F5F5F5F5F5F5F5F5F5F5F5F5F5F5F5F5F5F5F5F5F5F5F5F5F5F5F5F5F5F5F5F5F5F5F5F5F5F5F5F5F5F5F5F5F5F5F5F5F5F5F5F5F5F5F5F5F5F5F5
310
F5F5F5F5F5F5F5F5F5F5F5F5F5F5F5F5F5F5F5F5F5F5F5F5F5F5F5F5F5F5F5F5F5F5F5F5F5F5F5F5F5F5F5F5F5F5F5F5F5F5F5F5F5F5F5F5F5F5F5F5F5F5F5F5F5F5F5F5F5F5F5F5F5F5F5F5F5F5F5F5F5F5F5F5F5F5F5F5F5F5F5F5F5F5F5F5F5F5F5F5EFF5E2E2E2E2E2E2E2E2E2E2E2E2E2E2E2E2E2E2E2E2E2E2E2E2E2
310
E2E2E2E2E2E2E2E2E2E2E2E2E2E2E2E2E2E2E2E2E2E2E2E2E2E2E2E2E2E2E2E2E2E2E2E2E2E2E2E2E2E2E2E2E2E2E2E2E2E2E2E2E2E2E2E2E2E2E2E2E2E2E2E2E2E2E2E2E2E2E2E2E2E2E2E2E2E2E2E2E2E2E2E2E2E2E2E2E2E2E2E2E2E2E2E2E2E2E2E2E2E2E2E2E2E2E2E2E2E2E2E2E2E2E2E2E2E2E2E2E2E2E2E2E2E2E2
310
E2E2E2E2E2E2E2E2E2E2E2E2E2E2E2E2E2E2E2E2E2E2E2E2F5F5EFF5E2E2E2E2E2E2E2E2E2E2E2E2E2E2E2E2E2E2E2E2E2E2E2E2E2E2E2E2E2E2E2E2E2E2E2E2E2E2E2E2E2E2E2E2E2E2E2E2E2E2E2E2E2E2E2E2E2E2E2E2E2E2E2E2E2E2E2E2E2E2E2E2E2E2E2E2E2E2E2E2E2E2E2E2E2E2E2E2E2E2E2E2E2E2E2E2E2E2E2
310
E2E2E2E2E2E2E2E2E2E2E2E2E2E2E2E2E2E2E2E2E2E2E2E2E2E2E2E2E2E2E2E2E2E2E2E2E2E2E2E2E2E2E2E2E2E2E2E2E2E2E2E2E2E2E2E2E2E2E2E2E2E2E2E2E2E2E2E2E2E2E2E2E2E2E2E2E2F5F5EFF5E2E2E2E2E2E2E2E2E2E2E2E2E2E2E2E2E2E2E2E2E2E2E2E2E2E2E2E2E2E2E2E2E2E2E2E2E2E2E2E2E2E2E2E2E2E2
310
E2E2E2E2E2E2E2E2E2E2E2E2E2E2E2E2E2E2E2E2E2E2E2E2E2E2E2E2E2E2E2E2E2E2E2E2E2E2E2E2E2E2E2E2E2E2E2E2E2E2E2E2E2E2E2E2E2E2E2E2E2E2E2E2E2E2E2E2E2E2E2E2E2E2E2E2E2E2E2E2E2E2E2E2E2E2E2E2E2E2E2E2E2E2E2E2E2E2E2E2E2E2E2E2E2E2E2E2E2E2E2E2E2E2E2E2E2E2E2E2E2E2E2E2E2E2E2
310
E2E2E2F5F5EFF5E2E2E2E2E2E2E2E2E2E2E2E2E2E2E2E2E2E2E2E2E2E2E2E2E2E2E2E2E2E2E2E2E2E2E2E2E2E2E2E2E2E2E2E2E2E2E2E2E2E2E2E2E2E2E2E2E2E2E2E2E2E2E2E2E2E2E2E2E2E2E2E2E2E2E2E2E2E2E2E2E2E2E2E2E2E2E2E2E2E2E2E2E2E2E2E2E2E2E2E2E2E2E2E2E2E2E2E2E2E2E2E2E2E2E2E2E2E2E2E2
310
E2E2E2E2E2E2E2E2E2E2E2E2E2E2E2E2E2E2E2E2E2E2E2E2E2E2E2E2E2E2E2E2E2E2E2E2E2E2E2E2E2E2E2E2E2E2E2E2E2E2E2E2E2E2E2E2F5F5EFF5E2E2F5F5F5F5F5F5F5F5E2E2E2E2E2E2E2E2E2F5F5F5F5F5F5F5F5F5F5F5F5F5F5F5E2E2E2E2E2E2E2E2E2F5F5F5F5F5F5F5F5F5F5F5F5F5F5F5F5E2E2E2E2E2E2E2E2
310
F5F5F5F5F5F5F5F5F5F5F5F5F5F5F5F5E2E2E2E2E2E2E2E2F5F5F5F5F5F5F5F5F5F5F5F5F5F5F5F5E2E2E2E2E2E2E2E2F5F5F5F5F5F5F5F5F5F5F5F5F5F5F5F5E2E2E2E2E2E2E2E2E2F5F5F5F5F5F5F5F5F5F5F5F5F5F5F5E2E2E2E2E2E2E2E2E2F5F5F5F5F5F5F5F5E2E2E2E2F5F5EFF5E2E2F5E2E2E2E2E2E2E2E2E2E2E2
310
E2E2E2E2E2E2E2E2E2E2E2E2E2E2E2E2E2E2E2E2E2E2E2E2E2E2E2E2E2E2E2E2E2E2E2E2E2E2E2E2E2E2E2E2E2E2E2E2E2E2E2E2E2E2E2E2E2E2E2E2E2E2E2E2E2E2E2E2E2E2E2E2E2E2E2E2E2E2E2E2E2E2E2E2E2E2E2E2E2E2E2E2E2E2E2E2E2E2E2E2E2E2E2E2E2E2E2E2E2E2E2E2E2E2E2E2E2E2E2E2E2E2E2E2E2E2E2
310
E2E2E2E2E2E2E2E2E2E2E2E2E2E2E2E2E2E2E2E2E2E2E2E2E2E2E2E2E2E2F5E2E2E2E2F5F5EFF5E2E2F5E2E2E2E2E2E2E2E2E2E2E2E2E2E2E2E2E2E2E2E2E2E2E2E2E2E2E2E2E2E2E2E2E2E2E2E2E2E2E2E2E2E2E2E2E2E2E2E2E2E2E2E2E2E2E2E2E2E2E2E2E2E2E2E2E2E2E2E2E2E2E2E2E2E2E2E2E2E2E2E2E2E2E2E2E2
310
E2E2E2E2E2E2E2E2E2E2E2E2E2E2E2E2E2E2E2E2E2E2E2E2E2E2E2E2E2E2E2E2E2E2E2E2E2E2E2E2E2E2E2E2E2E2E2E2E2E2E2E2E2E2E2E2E2E2E2E2E2E2E2E2E2E2E2E2E2E2E2E2E2E2E2E2E2E2E2E2E2E2E2F5E2E2E2E2F5F5EFF5E2E2F5E2E2E2E2E2E2E2E2E2E2E2E2E2E2E2E2E2E2E2E2E2E2E2E2E2E2E2E2E2E2E2E2
310
E2E2E2E2E2E2E2E2E2E2E2E2E2E2E2E2E2E2E2E2E2E2E2E2E2E2E2E2E2E2E2E2E2E2E2E2E2E2E2E2E2E2E2E2E2E2E2E2E2E2E2E2E2E2E2E2E2E2E2E2E2E2E2E2E2E2E2E2E2E2E2E2E2E2E2E2E2E2E2E2E2E2E2E2E2E2E2E2E2E2E2E2E2E2E2E2E2E2E2E2E2E2E2E2E2E2E2E2E2E2E2E2E2E2E2E2E2E2E2E2E2E2E2E2E2E2E2
310
E2E2E2E2E2E2E2E2E2F5E2E2E2E2F5F5EFF5E2E2F5E2E2E2E2E2E2E2E2E2E2E2E2E2E2E2E2E2E2E2E2E2E2E2E2E2E2E2E2E2E2E2E2E2E2E2E2E2E2E2E2E2E2E2E2E2E2E2E2E2E2E2E2E2E2E2E2E2E2E2E2E2E2E2E2E2E2E2E2E2E2E2E2E2E2E2E2E2E2E2E2E2E2E2E2E2E2E2E2E2E2E2E2E2E2E2E2E2E2E2E2E2E2E2E2E2E2
310
E2E2E2E2E2E2E2E2E2E2E2E2E2E2E2E2E2E2E2E2E2E2E2E2E2E2E2E2E2E2E2E2E2E2E2E2E2E2E2E2E2E2E2E2E2E2E2E2E2E2E2E2E2E2E2E2E2E2E2E2E2E2F5E2E2E2E2F5F5EFF5E2E2F5E2E2E2E2E2E2E2E2E2E2E2E2E2E2E2E2E2E2E2E2E2E2E2E2E2E2E2E2E2E2E2E2E2E2E2E2E2E2E2E2E2E2E2E2E2E2E2E2E2E2E2E2E2
310
E2E2E2E2E2E2E2E2E2E2E2E2E2E2E2E2E2E2E2E2E2E2E2E2E2E2E2E2E2E2E2E2E2E2E2E2E2E2E2E2E2E2E2E2E2E2E2E2E2E2E2E2E2E2E2E2E2E2E2E2E2E2E2E2E2E2E2E2E2E2E2E2E2E2E2E2E2E2E2E2E2E2E2E2E2E2E2E2E2E2E2E2E2E2E2E2E2E2E2E2E2E2E2E2E2E2E2E2E2E2E2E2E2E2E2F5E2E2E2E2F5F5EFF5E2E2F5
310
E2E2E2E2E2E2E2E2E2E2E2E2E2E2E2E2E2E2E2E2E2E2E2E2E2E2E2E2E2E2E2E2E2E2E2E2E2E2E2E2E2E2E2E2E2E2E2E2E2E2E2E2E2E2E2E2E2E2E2E2E2E2E2E2E2E2E2E2E2E2E2E2E2E2E2E2E2E2E2E2E2E2E2E2E2E2E2E2E2E2E2E2E2E2E2E2E2E2E2E2E2E2E2E2E2E2E2E2E2E2E2E2E2E2E2E2E2E2E2E2E2E2E2E2E2E2E2
310
E2E2E2E2E2E2E2E2E2E2E2E2E2E2E2E2E2E2E2E2E2E2E2E2E2E2E2E2E2E2E2E2E2E2E2E2E2E2E2E2E2F5E2E2E2E2F5F5EFF5E2E2F5E2E2E2E2E2E2E2E2E2E2E2E2E2E2E2E2E2E2E2E2E2E2E2E2E2E2E2E2E2E2E2E2E2E2E2E2E2E2E2E2E2E2E2E2E2E2E2E2E2E2E2E2E2E2E2E2E2E2E2E2E2E2E2E2E2E2E2E2E2E2E2E2E2E2
310
E2E2E2E2E2E2E2E2E2E2E2E2E2E2E2E2E2E2E2E2E2E2E2E2E2E2E2E2E2E2E2E2E2E2E2E2E2E2E2E2E2E2E2E2E2E2E2E2E2E2E2E2E2E2E2E2E2E2E2E2E2E2E2E2E2E2E2E2E2E2E2E2E2E2E2E2E2E2E2E2E2E2E2E2E2E2E2E2E2E2E2E2E2E2F5E2E2E2E2F5F5EFF5E2E2F5E2E2E2E2E2E2E2E2E2E2E2E2E2E2E2E2E2E2E2E2E2
310
E2E2E2E2E2E2E2E2E2E2E2E2E2E2E2E2E2E2E2E2E2E2E2E2E2E2E2E2E2E2E2E2E2E2E2E2E2E2E2E2E2E2E2E2E2E2E2E2E2E2E2E2E2E2E2E2E2E2E2E2E2E2E2E2E2E2E2E2E2E2E2E2E2E2E2E2E2E2E2E2E2E2E2E2E2E2E2E2E2E2E2E2E2E2E2E2E2E2E2E2E2E2E2E2E2E2E2E2E2E2E2E2E2E2E2E2E2E2E2E2E2E2E2E2E2E2E2
310
E2E2E2E2E2E2E2E2E2E2E2E2E2E2E2E2E2E2E2E2F5E2E2E2E2F5F5EFF5E2E2E2E2E2E2E2E2E2E2E2E2E2E2E2E2E2E2E2E2E2E2E2E2E2E2E2E2E2E2E2E2E2E2E2E2E2E2E2E2E2E2E2E2E2E2E2E2E2E2E2E2E2E2E2E2E2E2E2E2E2E2E2E2E2E2E2E2E2E2E2E2E2E2E2E2E2E2E2E2E2E2E2E2E2E2E2E2E2E2E2E2E2E2E2E2E2E2
310
E2E2E2E2E2E2E2E2E2E2E2E2E2E2E2E2E2E2E2E2E2E2E2E2E2E2E2E2E2E2E2E2E2E2E2E2E2E2E2E2E2E2E2E2E2E2E2E2E2E2E2E2E2E2E2E2E2E2E2E2E2E2E2E2E2E2E2E2E2E2E2E2E2E2E2E2E2E2F5F5EFF5E2E2E2E2E2E2E2E2E2E2E2E2E2E2E2E2E2E2E2E2E2E2E2E2E2E2E2E2E2E2E2E2E2E2E2E2E2E2E2E2E2E2E2E2E2
310
E2E2E2E2E2E2E2E2E2E2E2E2E2E2E2E2E2E2E2E2E2E2E2E2E2E2E2E2E2E2E2E2E2E2E2E2E2E2E2E2E2E2E2E2E2E2E2E2E2E2E2E2E2E2E2E2E2E2E2E2E2E2E2E2E2E2E2E2E2E2E2E2E2E2E2E2E2E2E2E2E2E2E2E2E2E2E2E2E2E2E2E2E2E2E2E2E2E2E2E2E2E2E2E2E2E2E2E2E2E2E2E2E2E2E2E2E2E2E2E2E2E2E2E2E2E2E2
310
E2E2E2E2F5F5EFF5E2E2E2E2E2E2E2E2E2E2E2E2E2E2E2E2E2E2E2E2E2E2E2E2E2E2E2E2E2E2E2E2E2E2E2E2E2E2E2E2E2E2E2E2E2E2E2E2E2E2E2E2E2E2E2E2E2E2E2E2E2E2E2E2E2E2E2E2E2E2E2E2E2E2E2E2E2E2E2E2E2E2E2E2E2E2E2E2E2E2E2E2E2E2E2E2E2E2E2E2E2E2E2E2E2E2E2E2E2E2E2E2E2E2E2E2E2E2E2
310
E2E2E2E2E2E2E2E2E2E2E2E2E2E2E2E2E2E2E2E2E2E2E2E2E2E2E2E2E2E2E2E2E2E2E2E2E2E2E2E2E2E2E2E2E2E2E2E2E2E2E2E2E2E2E2E2E2F5F5EFF5E2E2E2E2E2E2E2E2E2E2E2E2E2E2E2E2E2E2E2E2E2E2E2E2E2E2E2E2E2E2E2E2E2E2E2E2E2E2E2E2E2E2E2E2E2E2E2E2E2E2E2E2E2E2E2E2E2E2E2E2E2E2E2E2E2E2
310
E2E2E2E2E2E2E2E2E2E2E2E2E2E2E2E2E2E2E2E2E2E2E2E2E2E2E2E2E2E2E2E2E2E2E2E2E2E2E2E2E2E2E2E2E2E2E2E2E2E2E2E2E2E2E2E2E2E2E2E2E2E2E2E2E2E2E2E2E2E2E2E2E2E2E2E2E2E2E2E2E2E2E2E2E2E2E2E2E2E2E2E2E2E2E2E2E2E2E2E2E2E2E2E2E2E2E2E2E2E2F5F5EFF5E2E2E2E2E2E2E2E2E2E2E2E2E2
310
E2E2E2E2E2E2E2E2E2E2E2E2E2E2E2E2E2E2E2E2E2E2E2E2E2E2E2E2E2E2E2E2E2E2E2E2E2E2E2E2E2E2E2E2E2E2E2E2E2E2E2E2E2E2E2E2E2E2E2E2E2E2E2E2E2E2E2E2E2E2E2E2E2E2E2E2E2E2E2E2E2E2E2E2E2E2E2E2E2E2E2E2E2E2E2E2E2E2E2E2E2E2E2E2E2E2E2E2E2E2E2E2E2E2E2E2E2E2E2E2E2E2E2E2E2E2E2
310
E2E2E2E2E2E2E2E2E2E2E2E2E2E2E2E2E2E2E2E2E2E2E2E2E2E2E2E2E2E2E2E2E2E2E2E2F5F5EFF5E2E2E2E2E2E2E2E2E2E2E2E2E2E2E2E2E2E2E2E2E2E2E2E2E2E2E2E2E2E2E2E2E2E2E2E2E2E2E2E2E2E2E2E2E2E2E2E2E2E2E2E2E2E2E2E2E2E2E2E2E2E2E2E2E2E2E2E2E2E2E2E2E2E2E2E2E2E2E2E2E2E2E2E2E2E2E2
310
E2E2E2E2E2E2E2E2E2E2E2E2E2E2E2E2E2E2E2E2E2E2E2E2E2E2E2E2E2E2E2E2E2E2E2E2E2E2E2E2E2E2E2E2E2E2E2E2E2E2E2E2E2E2E2E2E2E2E2E2E2E2E2E2E2E2E2E2E2E2E2E2E2E2E2E2E2E2E2E2E2E2E2E2E2E2E2E2E2F5F5EFF5E2E2E2E2E2E2E2E2E2E2E2E2E2E2E2E2E2E2E2E2E2E2E2E2E2E2E2E2E2E2E2E2E2E2
310
E2E2E2E2E2E2E2E2E2E2E2E2E2E2E2E2E2E2E2E2E2E2E2E2E2E2E2E2E2E2E2E2E2E2E2E2E2E2E2E2E2E2E2E2E2E2E2E2E2E2E2E2E2E2E2E2E2E2E2E2E2E2E2E2E2E2E2E2E2E2E2E2E2E2E2E2E2E2E2E2E2E2E2E2E2E2E2E2E2E2E2E2E2E2E2E2E2E2E2E2E2E2E2E2E2E2E2E2E2E2E2E2E2E2E2E2E2E2E2E2E2E2E2E2E2E2E2
310
E2E2E2E2E2E2E2E2E2E2E2E2E2E2E2F5F5EFF5E2E2E2E2E2E2E2E2E2E2E2E2E2E2E2E2E2E2E2E2E2E2E2E2E2E2E2E2E2E2E2E2E2E2E2E2E2E2E2E2E2E2E2E2E2E2E2E2E2E2E2E2E2E2E2E2E2E2E2E2E2E2E2E2E2E2E2E2E2E2E2E2E2E2E2E2E2E2E2E2E2E2E2E2E2E2E2E2E2E2E2E2E2E2E2E2E2E2E2E2E2E2E2E2E2E2E2E2
310
E2E2E2E2E2E2E2E2E2E2E2E2E2E2E2E2E2E2E2E2E2E2E2E2E2E2E2E2E2E2E2E2E2E2E2E2E2E2E2E2E2E2E2E2E2E2E2E2E2E2E2E2E2E2E2E2E2E2E2E2E2E2E2E2E2E2E2E2F5F5EFF5E2E2E2E2E2E2E2E2E2E2E2E2E2E2E2E2E2E2E2E2E2E2E2E2E2E2E2E2E2E2E2E2E2E2E2E2E2E2E2E2E2E2E2E2E2E2E2E2E2E2E2E2E2E2E2
310
E2E2E2E2E2E2E2E2E2E2E2E2E2E2E2E2E2E2E2E2E2E2E2E2E2E2E2E2E2E2E2E2E2E2E2E2E2E2E2E2E2E2E2E2E2E2E2E2E2E2E2E2E2E2E2E2E2E2E2E2E2E2E2E2E2E2E2E2E2E2E2E2E2E2E2E2E2E2E2E2E2E2E2E2E2E2E2E2E2E2E2E2E2E2E2E2E2E2E2E2E2E2E2E2E2E2E2E2E2E2E2E2E2E2E2E2E2E2E2E2E2F5F5EFF5E2E2
310
F5E2E2E2E2E2E2E2E2E2E2E2E2E2E2E2E2E2E2E2E2E2E2E2E2E2E2E2E2E2E2E2E2E2E2E2E2E2E2E2E2E2E2E2E2E2E2E2E2E2E2E2E2E2E2E2E2E2E2E2E2E2E2E2E2E2E2E2E2E2E2E2E2E2E2E2E2E2E2E2E2E2E2E2E2E2E2E2E2E2E2E2E2E2E2E2E2E2E2E2E2E2E2E2E2E2E2E2E2E2E2E2E2E2E2E2E2E2E2E2E2E2E2E2E2E2E2
310
E2E2E2E2E2E2E2E2E2E2E2E2E2E2E2E2E2E2E2E2E2E2E2E2E2E2E2E2E2E2E2E2E2E2E2E2E2E2E2E2E2E2F5E2E2E2E2F5F5EFF5E2E2F5E2E2E2E2E2E2E2E2E2E2E2E2E2E2E2E2E2E2E2E2E2E2E2E2E2E2E2E2E2E2E2E2E2E2E2E2E2E2E2E2E2E2E2E2E2E2E2E2E2E2E2E2E2E2E2E2E2E2E2E2E2E2E2E2E2E2E2E2E2E2E2E2E2
310
E2E2E2E2E2E2E2E2E2E2E2E2E2E2E2E2E2E2E2E2E2E2E2E2E2E2E2E2E2E2E2E2E2E2E2E2E2E2E2E2E2E2E2E2E2E2E2E2E2E2E2E2E2E2E2E2E2E2E2E2E2E2E2E2E2E2E2E2E2E2E2E2E2E2E2E2E2E2E2E2E2E2E2E2E2E2E2E2E2E2E2E2E2E2E2F5E2E2E2E2F5F5EFF5E2E2F5E2E2E2E2E2E2E2E2E2E2E2E2E2E2E2E2E2E2E2E2
310
E2E2E2E2E2E2E2E2E2E2E2E2E2E2E2E2E2E2E2E2E2E2E2E2E2E2E2E2E2E2E2E2E2E2E2E2E2E2E2E2E2E2E2E2E2E2E2E2E2E2E2E2E2E2E2E2E2E2E2E2E2E2E2E2E2E2E2E2E2E2E2E2E2E2E2E2E2E2E2E2E2E2E2E2E2E2E2E2E2E2E2E2E2E2E2E2E2E2E2E2E2E2E2E2E2E2E2E2E2E2E2E2E2E2E2E2E2E2E2E2E2E2E2E2E2E2E2
310
E2E2E2E2E2E2E2E2E2E2E2E2E2E2E2E2E2E2E2E2E2F5E2E2E2E2F5F5EFF5E2E2F5E2E2E2E2E2E2E2E2E2E2E2E2E2E2E2E2E2E2E2E2E2E2E2E2E2E2E2E2E2E2E2E2E2E2E2E2E2E2E2E2E2E2E2E2E2E2E2E2E2E2E2E2E2E2E2E2E2E2E2E2E2E2E2E2E2E2E2E2E2E2E2E2E2E2E2E2E2E2E2E2E2E2E2E2E2E2E2E2E2E2E2E2E2E2
310
E2E2E2E2E2E2E2E2E2E2E2E2E2E2E2E2E2E2E2E2E2E2E2E2E2E2E2E2E2E2E2E2E2E2E2E2E2E2E2E2E2E2E2E2E2E2E2E2E2E2E2E2E2E2E2E2E2E2E2E2E2E2E2E2E2E2E2E2E2E2E2E2E2E2F5E2E2E2E2F5F5EFF5E2E2F5E2E2E2E2E2E2E2E2E2E2E2E2E2E2E2E2E2E2E2E2E2E2E2E2E2E2E2E2E2E2E2E2E2E2E2E2E2E2E2E2E2
310
E2E2E2E2E2E2E2E2E2E2E2E2E2E2E2E2E2E2E2E2E2E2E2E2E2E2E2E2E2E2E2E2E2E2E2E2E2E2E2E2E2E2E2E2E2E2E2E2E2E2E2E2E2E2E2E2E2E2E2E2E2E2E2E2E2E2E2E2E2E2E2E2E2E2E2E2E2E2E2E2E2E2E2E2E2E2E2E2E2E2E2E2E2E2E2E2E2E2E2E2E2E2E2E2E2E2E2E2E2E2E2E2E2E2E2E2E2E2E2E2E2E2E2E2E2E2E2
310
F5E2E2E2E2F5F5EFF5E2E2F5E2E2E2E2E2E2E2E2E2E2E2E2E2E2E2E2E2E2E2E2E2E2E2E2E2E2E2E2E2E2E2E2E2E2E2E2E2E2E2E2E2E2E2E2E2E2E2E2E2E2E2E2E2E2E2E2E2E2E2E2E2E2E2E2E2E2E2E2E2E2E2E2E2E2E2E2E2E2E2E2E2E2E2E2E2E2E2E2E2E2E2E2E2E2E2E2E2E2E2E2E2E2E2E2E2E2E2E2E2E2E2E2E2E2E2
310
E2E2E2E2E2E2E2E2E2E2E2E2E2E2E2E2E2E2E2E2E2E2E2E2E2E2E2E2E2E2E2E2E2E2E2E2E2E2E2E2E2E2E2E2E2E2E2E2E2E2E2E2E2F5E2E2E2E2F5F5EFF5E2E2F5E2E2E2E2E2E2E2E2E2E2E2E2E2E2E2E2E2E2E2E2E2E2E2E2E2E2E2E2E2E2E2E2E2E2E2E2E2E2E2E2E2E2E2E2E2E2E2E2E2E2E2E2E2E2E2E2E2E2E2E2E2E2
310
E2E2E2E2E2E2E2E2E2E2E2E2E2E2E2E2E2E2E2E2E2E2E2E2E2E2E2E2E2E2E2E2E2E2E2E2E2E2E2E2E2E2E2E2E2E2E2E2E2E2E2E2E2E2E2E2E2E2E2E2E2E2E2E2E2E2E2E2E2E2E2E2E2E2E2E2E2E2E2E2E2E2E2E2E2E2E2E2E2E2E2E2E2E2E2E2E2E2E2E2E2E2E2E2E2E2F5E2E2E2E2F5F5EFF5E2E2F5E2E2E2E2E2E2E2E2E2
310
E2E2E2E2E2E2E2E2E2E2E2E2E2E2E2E2E2E2E2E2E2E2E2E2E2E2E2E2E2E2E2E2E2E2E2E2E2E2E2E2E2E2E2E2E2E2E2E2E2E2E2E2E2E2E2E2E2E2E2E2E2E2E2E2E2E2E2E2E2E2E2E2E2E2E2E2E2E2E2E2E2E2E2E2E2E2E2E2E2E2E2E2E2E2E2E2E2E2E2E2E2E2E2E2E2E2E2E2E2E2E2E2E2E2E2E2E2E2E2E2E2E2E2E2E2E2E2
310
E2E2E2E2E2E2E2E2E2E2E2E2E2E2E2E2E2E2E2E2E2E2E2E2E2E2E2E2E2E2E2E2F5E2E2E2E2F5F5EFF5E2E2F5E2E2E2E2E2E2E2E2E2E2E2E2E2E2E2E2E2E2E2E2E2E2E2E2E2E2E2E2E2E2E2E2E2E2E2E2E2E2E2E2E2E2E2E2E2E2E2E2E2E2E2E2E2E2E2E2E2E2E2E2E2E2E2E2E2E2E2E2E2E2E2E2E2E2E2E2E2E2E2E2E2E2E2
310
E2E2E2E2E2E2E2E2E2E2E2E2E2E2E2E2E2E2E2E2E2E2E2E2E2E2E2E2E2E2E2E2E2E2E2E2E2E2E2E2E2E2E2E2E2E2E2E2E2E2E2E2E2E2E2E2E2E2E2E2E2E2E2E2E2E2E2E2E2E2E2E2E2E2E2E2E2E2E2E2E2E2E2E2E2F5E2E2E2E2F5F5EFF5E2E2F5E2E2E2E2E2E2E2E2E2E2E2E2E2E2E2E2E2E2E2E2E2E2E2E2E2E2E2E2E2E2
310
E2E2E2E2E2E2E2E2E2E2E2E2E2E2E2E2E2E2E2E2E2E2E2E2E2E2E2E2E2E2E2E2E2E2E2E2E2E2E2E2E2E2E2E2E2E2E2E2E2E2E2E2E2E2E2E2E2E2E2E2E2E2E2E2E2E2E2E2E2E2E2E2E2E2E2E2E2E2E2E2E2E2E2E2E2E2E2E2E2E2E2E2E2E2E2E2E2E2E2E2E2E2E2E2E2E2E2E2E2E2E2E2E2E2E2E2E2E2E2E2E2E2E2E2E2E2E2
310
E2E2E2E2E2E2E2E2E2E2E2F5E2E2E2E2F5F5EFF5E2E2F5E2E2E2E2E2E2E2E2E2E2E2E2E2E2E2E2E2E2E2E2E2E2E2E2E2E2E2E2E2E2E2E2E2E2E2E2E2E2E2E2E2E2E2E2E2E2E2E2E2E2E2E2E2E2E2E2E2E2E2E2E2E2E2E2E2E2E2E2E2E2E2E2E2E2E2E2E2E2E2E2E2E2E2E2E2E2E2E2E2E2E2E2E2E2E2E2E2E2E2E2E2E2E2E2
310
E2E2E2E2E2E2E2E2E2E2E2E2E2E2E2E2E2E2E2E2E2E2E2E2E2E2E2E2E2E2E2E2E2E2E2E2E2E2E2E2E2E2E2E2E2E2E2E2E2E2E2E2E2E2E2E2E2E2E2E2E2E2E2E2F5E2E2E2E2F5F5EFF5E2E2F5E2E2E2E2E2E2E2E2E2E2E2E2E2E2E2E2E2E2E2E2E2E2E2E2E2E2E2E2E2E2E2E2E2E2E2E2E2E2E2E2E2E2E2E2E2E2E2E2E2E2E2
310
E2E2E2E2E2E2E2E2E2E2E2E2E2E2E2E2E2E2E2E2E2E2E2E2E2E2E2E2E2E2E2E2E2E2E2E2E2E2E2E2E2E2E2E2E2E2E2E2E2E2E2E2E2E2E2E2E2E2E2E2E2E2E2E2E2E2E2E2E2E2E2E2E2E2E2E2E2E2E2E2E2E2E2E2E2E2E2E2E2E2E2E2E2E2E2E2E2E2E2E2E2E2E2E2E2E2E2E2E2E2E2E2E2E2E2E2E2F5E2E2E2E2F5F5EFF5E2
310
E2F5E2E2E2E2E2E2E2E2E2E2E2E2E2E2E2E2E2E2E2E2E2E2E2E2E2E2E2E2E2E2E2E2E2E2E2E2E2E2E2E2E2E2E2E2E2E2E2E2E2E2E2E2E2E2E2E2E2E2E2E2E2E2E2E2E2E2E2E2E2E2E2E2E2E2E2E2E2E2E2E2E2E2E2E2E2E2E2E2E2E2E2E2E2E2E2E2E2E2E2E2E2E2E2E2E2E2E2E2E2E2E2E2E2E2E2E2E2E2E2E2E2E2E2E2E2
310
E2E2E2E2E2E2E2E2E2E2E2E2E2E2E2E2E2E2E2E2E2E2E2E2E2E2E2E2E2E2E2E2E2E2E2E2E2E2E2E2E2E2E2F5E2E2E2E2F5F5EFF5E2E2F5E2E2E2E2E2E2E2E2E2E2E2E2E2E2E2E2E2E2E2E2E2E2E2E2E2E2E2E2E2E2E2E2E2E2E2E2E2E2E2E2E2E2E2E2E2E2E2E2E2E2E2E2E2E2E2E2E2E2E2E2E2E2E2E2E2E2E2E2E2E2E2E2
310
E2E2E2E2E2E2E2E2E2E2E2E2E2E2E2E2E2E2E2E2E2E2E2E2E2E2E2E2E2E2E2E2E2E2E2E2E2E2E2E2E2E2E2E2E2E2E2E2E2E2E2E2E2E2E2E2E2E2E2E2E2E2E2E2E2E2E2E2E2E2E2E2E2E2E2E2E2E2E2E2E2E2E2E2E2E2E2E2E2E2E2E2E2E2E2E2F5E2E2E2E2F5F5EFF5E2E2F5E2E2E2E2E2E2E2E2E2E2E2E2E2E2E2E2E2E2E2
310
E2E2E2E2E2E2E2E2E2E2E2E2E2E2E2E2E2E2E2E2E2E2E2E2E2E2E2E2E2E2E2E2E2E2E2E2E2E2E2E2E2E2E2E2E2E2E2E2E2E2E2E2E2E2E2E2E2E2E2E2E2E2E2E2E2E2E2E2E2E2E2E2E2E2E2E2E2E2E2E2E2E2E2E2E2E2E2E2E2E2E2E2E2E2E2E2E2E2E2E2E2E2E2E2E2E2E2E2E2E2E2E2E2E2E2E2E2E2E2E2E2E2E2E2E2E2E2
310
E2E2E2E2E2E2E2E2E2E2E2E2E2E2E2E2E2E2E2E2E2E2F5E2E2E2E2F5F5EFF5E2E2F5E2E2E2E2E2E2E2E2E2E2E2E2E2E2E2E2E2E2E2E2E2E2E2E2E2E2E2E2E2E2E2E2E2E2E2E2E2E2E2E2E2E2E2E2E2E2E2E2E2E2E2E2E2E2E2E2E2E2E2E2E2E2E2E2E2E2E2E2E2E2E2E2E2E2E2E2E2E2E2E2E2E2E2E2E2E2E2E2E2E2E2E2E2
310
E2E2E2E2E2E2E2E2E2E2E2E2E2E2E2E2E2E2E2E2E2E2E2E2E2E2E2E2E2E2E2E2E2E2E2E2E2E2E2E2E2E2E2E2E2E2E2E2E2E2E2E2E2E2E2E2E2E2E2E2E2E2E2E2E2E2E2E2E2E2E2E2E2E2E2F5E2E2E2E2F5F5EFF5E2E2E2E2E2E2E2E2E2E2E2E2E2E2E2E2E2E2E2E2E2E2E2E2E2E2E2E2E2E2E2E2E2E2E2E2E2E2E2E2E2E2E2
310
E2E2E2E2E2E2E2E2E2E2E2E2E2E2E2E2E2E2E2E2E2E2E2E2E2E2E2E2E2E2E2E2E2E2E2E2E2E2E2E2E2E2E2E2E2E2E2E2E2E2E2E2E2E2E2E2E2E2E2E2E2E2E2E2E2E2E2E2E2E2E2E2E2E2E2E2E2E2E2E2E2E2E2E2E2E2E2E2E2E2E2E2E2E2E2E2E2E2E2E2E2E2E2E2E2E2E2E2E2E2E2E2E2E2E2E2E2E2E2E2E2E2E2E2E2E2E2
310
E2E2E2E2E2E2F5F5EFF5E2E2E2E2E2E2E2E2E2E2E2E2E2E2E2E2E2E2E2E2E2E2E2E2E2E2E2E2E2E2E2E2E2E2E2E2E2E2E2E2E2E2E2E2E2E2E2E2E2E2E2E2E2E2E2E2E2E2E2E2E2E2E2E2E2E2E2E2E2E2E2E2E2E2E2E2E2E2E2E2E2E2E2E2E2E2E2E2E2E2E2E2E2E2E2E2E2E2E2E2E2E2E2E2E2E2E2E2E2E2E2E2E2E2E2E2E2
310
E2E2E2E2E2E2E2E2E2E2E2E2E2E2E2E2E2E2E2E2E2E2E2E2E2E2E2E2E2E2E2E2E2E2E2E2E2E2E2E2E2E2E2E2E2E2E2E2E2E2E2E2E2E2E2E2E2E2E2F5F5EFF5E2E2E2E2E2E2E2E2E2E2E2E2E2E2E2E2E2E2E2E2E2E2E2E2E2E2E2E2E2E2E2E2E2E2E2E2E2E2E2E2E2E2E2E2E2E2E2E2E2E2E2E2E2E2E2E2E2E2E2E2E2E2E2E2
310
E2E2E2E2E2E2E2E2E2E2E2E2E2E2E2E2E2E2E2E2E2E2E2E2E2E2E2E2E2E2E2E2E2E2E2E2E2E2E2E2E2E2E2E2E2E2E2E2E2E2E2E2E2E2E2E2E2E2E2E2E2E2E2E2E2E2E2E2E2E2E2E2E2E2E2E2E2E2E2E2E2E2E2E2E2E2E2E2E2E2E2E2E2E2E2E2E2E2E2E2E2E2E2E2E2E2E2E2E2E2E2E2F5F5EFF5E2E2E2E2E2E2E2E2E2E2E2
310
E2E2E2E2E2E2E2E2E2E2E2E2E2E2E2E2E2E2E2E2E2E2E2E2E2E2E2E2E2E2E2E2E2E2E2E2E2E2E2E2E2E2E2E2E2E2E2E2E2E2E2E2E2E2E2E2E2E2E2E2E2E2E2E2E2E2E2E2E2E2E2E2E2E2E2E2E2E2E2E2E2E2E2E2E2E2E2E2E2E2E2E2E2E2E2E2E2E2E2E2E2E2E2E2E2E2E2E2E2E2E2E2E2E2E2E2E2E2E2E2E2E2E2E2E2E2E2
310
E2E2E2E2E2E2E2E2E2E2E2E2E2E2E2E2E2E2E2E2E2E2E2E2E2E2E2E2E2E2E2E2E2E2E2E2E2E2F5F5EFF5E2E2E2E2E2E2E2E2E2E2E2E2E2E2E2E2E2E2E2E2E2E2E2E2E2E2E2E2E2E2E2E2E2E2E2E2E2E2E2E2E2E2E2E2E2E2E2E2E2E2E2E2E2E2E2E2E2E2E2E2E2E2E2E2E2E2E2E2E2E2E2E2E2E2E2E2E2E2E2E2E2E2E2E2E2
310
E2E2E2E2E2E2E2E2E2E2E2E2E2E2E2E2E2E2E2E2E2E2E2E2E2E2E2E2E2E2E2E2E2E2E2E2E2E2E2E2E2E2E2E2E2E2E2E2E2E2E2E2E2E2E2E2E2E2E2E2E2E2E2E2E2E2E2E2E2E2E2E2E2E2E2E2E2E2E2E2E2E2E2E2E2E2E2E2E2E2E2F5F5EFF5E2E2E2E2E2E2E2E2E2E2E2E2E2E2E2E2E2E2E2E2E2E2E2E2E2E2E2E2E2E2E2E2
310
E2E2E2E2E2E2E2E2E2E2E2E2E2E2E2E2E2E2E2E2E2E2E2E2E2E2E2E2E2E2E2E2E2E2E2E2E2E2E2E2E2E2E2E2E2E2E2E2E2E2E2E2E2E2E2E2E2E2E2E2E2E2E2E2E2E2E2E2E2E2E2E2E2E2E2E2E2E2E2E2E2E2E2E2E2E2E2E2E2E2E2E2E2E2E2E2E2E2E2E2E2E2E2E2E2E2E2E2E2E2E2E2E2E2E2E2E2E2E2E2E2E2E2E2E2E2E2
310
E2E2E2E2E2E2E2E2E2E2E2E2E2E2E2E2E2F5F5EFF5E2E2E2E2E2E2E2E2E2E2E2E2E2E2E2E2E2E2E2E2E2E2E2E2E2E2E2E2E2E2E2E2E2E2E2E2E2E2E2E2E2E2E2E2E2E2E2E2E2E2E2E2E2E2E2E2E2E2E2E2E2E2E2E2E2E2E2E2E2E2E2E2E2E2E2E2E2E2E2E2E2E2E2E2E2E2E2E2E2E2E2E2E2E2E2E2E2E2E2E2E2E2E2E2E2E2
310
E2E2E2E2E2E2E2E2E2E2E2E2E2E2E2E2E2E2E2E2E2E2E2E2E2E2E2E2E2E2E2E2E2E2E2E2E2E2E2E2E2E2E2E2E2E2E2E2E2E2E2E2E2E2E2E2E2E2E2E2E2E2E2E2E2E2E2E2E2E2F5F5EFF5E2E2E2E2E2E2E2E2E2E2E2E2E2E2E2E2E2E2E2E2E2E2E2E2E2E2E2E2E2E2E2E2E2E2E2E2E2E2E2E2E2E2E2E2E2E2E2E2E2E2E2E2E2
310
E2E2E2E2E2E2E2E2E2E2E2E2E2E2E2E2E2E2E2E2E2E2E2E2E2E2E2E2E2E2E2E2E2E2E2E2E2E2E2E2E2E2E2E2E2E2E2E2E2E2E2E2E2E2E2E2E2E2E2E2E2E2E2E2E2E2E2E2E2E2E2E2E2E2E2E2E2E2E2E2E2E2E2E2E2E2E2E2E2E2E2E2E2E2E2E2E2E2E2E2E2E2E2E2E2E2E2E2E2E2E2E2E2E2E2E2E2E2E2E2E2E2E2F5F5EFF5
310
E2E2E2E2E2E2E2E2E2E2E2E2E2E2E2E2E2E2E2E2E2E2E2E2E2E2E2E2E2E2E2E2E2E2E2E2E2E2E2E2E2E2E2E2E2E2E2E2E2E2E2E2E2E2E2E2E2E2E2E2E2E2E2E2E2E2E2E2E2E2E2E2E2E2E2E2E2E2E2E2E2E2E2E2E2E2E2E2E2E2E2E2E2E2E2E2E2E2E2E2E2E2E2E2E2E2E2E2E2E2E2E2E2E2E2E2E2E2E2E2E2E2E2E2E2E2E2
310
E2E2E2E2E2E2E2E2E2E2E2E2E2E2E2E2E2E2E2E2E2E2E2E2E2E2E2E2E2E2E2E2E2E2E2E2E2E2E2E2E2E2E2E2E2E2E2E2E2F5F5EFF5E2E2F5E2E2E2E2E2E2E2E2E2E2E2E2E2E2E2E2E2E2E2E2E2E2E2E2E2E2E2E2E2E2E2E2E2E2E2E2E2E2E2E2E2E2E2E2E2E2E2E2E2E2E2E2E2E2E2E2E2E2E2E2E2E2E2E2E2E2E2E2E2E2E2
310
E2E2E2E2E2E2E2E2E2E2E2E2E2E2E2E2E2E2E2E2E2E2E2E2E2E2E2E2E2E2E2E2E2E2E2E2E2E2E2E2E2E2E2E2E2E2E2E2E2E2E2E2E2E2E2E2E2E2E2E2E2E2E2E2E2E2E2E2E2E2E2E2E2E2E2E2E2E2E2E2E2E2E2E2E2E2E2E2E2E2E2E2E2E2E2E2E2F5E2E2E2E2F5F5EFF5E2E2F5E2E2E2E2E2E2E2E2E2E2E2E2E2E2E2E2E2E2
310
E2E2E2E2E2E2E2E2E2E2E2E2E2E2E2E2E2E2E2E2E2E2E2E2E2E2E2E2E2E2E2E2E2E2E2E2E2E2E2E2E2E2E2E2E2E2E2E2E2E2E2E2E2E2E2E2E2E2E2E2E2E2E2E2E2E2E2E2E2E2E2E2E2E2E2E2E2E2E2E2E2E2E2E2E2E2E2E2E2E2E2E2E2E2E2E2E2E2E2E2E2E2E2E2E2E2E2E2E2E2E2E2E2E2E2E2E2E2E2E2E2E2E2E2E2E2E2
310
E2E2E2E2E2E2E2E2E2E2E2E2E2E2E2E2E2E2E2E2E2E2E2F5E2E2E2E2F5F5EFF5E2E2F5E2E2E2E2E2E2E2E2E2E2E2E2E2E2E2E2E2E2E2E2E2E2E2E2E2E2E2E2E2E2E2E2E2E2E2E2E2E2E2E2E2E2E2E2E2E2E2E2E2E2E2E2E2E2E2E2E2E2E2E2E2E2E2E2E2E2E2E2E2E2E2E2E2E2E2E2E2E2E2E2E2E2E2E2E2E2E2E2E2E2E2E2
310
E2E2E2E2E2E2E2E2E2E2E2E2E2E2E2E2E2E2E2E2E2E2E2E2E2E2E2E2E2E2E2E2E2E2E2E2E2E2E2E2E2E2E2E2E2E2E2E2E2E2E2E2E2E2E2E2E2E2E2E2E2E2E2E2E2E2E2E2E2E2E2E2E2E2E2E2F5E2E2E2E2F5F5EFF5E2E2F5E2E2E2E2E2E2E2E2E2E2E2E2E2E2E2E2E2E2E2E2E2E2E2E2E2E2E2E2E2E2E2E2E2E2E2E2E2E2E2
310
E2E2E2E2E2E2E2E2E2E2E2E2E2E2E2E2E2E2E2E2E2E2E2E2E2E2E2E2E2E2E2E2E2E2E2E2E2E2E2E2E2E2E2E2E2E2E2E2E2E2E2E2E2E2E2E2E2E2E2E2E2E2E2E2E2E2E2E2E2E2E2E2E2E2E2E2E2E2E2E2E2E2E2E2E2E2E2E2E2E2E2E2E2E2E2E2E2E2E2E2E2E2E2E2E2E2E2E2E2E2E2E2E2E2E2E2E2E2E2E2E2E2E2E2E2E2E2
310
E2E2F5E2E2E2E2F5F5EFF5E2E2F5E2E2E2E2E2E2E2E2E2E2E2E2E2E2E2E2E2E2E2E2E2E2E2E2E2E2E2E2E2E2E2E2E2E2E2E2E2E2E2E2E2E2E2E2E2E2E2E2E2E2E2E2E2E2E2E2E2E2E2E2E2E2E2E2E2E2E2E2E2E2E2E2E2E2E2E2E2E2E2E2E2E2E2E2E2E2E2E2E2E2E2E2E2E2E2E2E2E2E2E2E2E2E2E2E2E2E2E2E2E2E2E2E2
310
E2E2E2E2E2E2E2E2E2E2E2E2E2E2E2E2E2E2E2E2E2E2E2E2E2E2E2E2E2E2E2E2E2E2E2E2E2E2E2E2E2E2E2E2E2E2E2E2E2E2E2E2E2E2E2F5E2E2E2E2F5F5EFF5E2E2F5E2E2E2E2E2E2E2E2E2E2E2E2E2E2E2E2E2E2E2E2E2E2E2E2E2E2E2E2E2E2E2E2E2E2E2E2E2E2E2E2E2E2E2E2E2E2E2E2E2E2E2E2E2E2E2E2E2E2E2E2
310
E2E2E2E2E2E2E2E2E2E2E2E2E2E2E2E2E2E2E2E2E2E2E2E2E2E2E2E2E2E2E2E2E2E2E2E2E2E2E2E2E2E2E2E2E2E2E2E2E2E2E2E2E2E2E2E2E2E2E2E2E2E2E2E2E2E2E2E2E2E2E2E2E2E2E2E2E2E2E2E2E2E2E2E2E2E2E2E2E2E2E2E2E2E2E2E2E2E2E2E2E2E2E2E2E2E2E2E2F5E2E2E2E2F5F5EFF5E2E2F5E2E2E2E2E2E2E2
310
E2E2E2E2E2E2E2E2E2E2E2E2E2E2E2E2E2E2E2E2E2E2E2E2E2E2E2E2E2E2E2E2E2E2E2E2E2E2E2E2E2E2E2E2E2E2E2E2E2E2E2E2E2E2E2E2E2E2E2E2E2E2E2E2E2E2E2E2E2E2E2E2E2E2E2E2E2E2E2E2E2E2E2E2E2E2E2E2E2E2E2E2E2E2E2E2E2E2E2E2E2E2E2E2E2E2E2E2E2E2E2E2E2E2E2E2E2E2E2E2E2E2E2E2E2E2E2
310
E2E2E2E2E2E2E2E2E2E2E2E2E2E2E2E2E2E2E2E2E2E2E2E2E2E2E2E2E2E2E2E2E2E2F5E2E2E2E2F5F5EFF5E2E2F5E2E2E2E2E2E2E2E2E2E2E2E2E2E2E2E2E2E2E2E2E2E2E2E2E2E2E2E2E2E2E2E2E2E2E2E2E2E2E2E2E2E2E2E2E2E2E2E2E2E2E2E2E2E2E2E2E2E2E2E2E2E2E2E2E2E2E2E2E2E2E2E2E2E2E2E2E2E2E2E2E2
310
E2E2E2E2E2E2E2E2E2E2E2E2E2E2E2E2E2E2E2E2E2E2E2E2E2E2E2E2E2E2E2E2E2E2E2E2E2E2E2E2E2E2E2E2E2E2E2E2E2E2E2E2E2E2E2E2E2E2E2E2E2E2E2E2E2E2E2E2E2E2E2E2E2E2E2E2E2E2E2E2E2E2E2E2E2E2E2F5E2E2E2E2F5F5EFF5E2E2F5E2E2E2E2E2E2E2E2E2E2E2E2E2E2E2E2E2E2E2E2E2E2E2E2E2E2E2E2
310
E2E2E2E2E2E2E2E2E2E2E2E2E2E2E2E2E2E2E2E2E2E2E2E2E2E2E2E2E2E2E2E2E2E2E2E2E2E2E2E2E2E2E2E2E2E2E2E2E2E2E2E2E2E2E2E2E2E2E2E2E2E2E2E2E2E2E2E2E2E2E2E2E2E2E2E2E2E2E2E2E2E2E2E2E2E2E2E2E2E2E2E2E2E2E2E2E2E2E2E2E2E2E2E2E2E2E2E2E2E2E2E2E2E2E2E2E2E2E2E2E2E2E2E2E2E2E2
310
E2E2E2E2E2E2E2E2E2E2E2E2E2F5E2E2E2E2F5F5EFF5E2E2F5E2E2E2E2E2E2E2E2E2E2E2E2E2E2E2E2E2E2E2E2E2E2E2E2E2E2E2E2E2E2E2E2E2E2E2E2E2E2E2E2E2E2E2E2E2E2E2E2E2E2E2E2E2E2E2E2E2E2E2E2E2E2E2E2E2E2E2E2E2E2E2E2E2E2E2E2E2E2E2E2E2E2E2E2E2E2E2E2E2E2E2E2E2E2E2E2E2E2E2E2E2E2
310
E2E2E2E2E2E2E2E2E2E2E2E2E2E2E2E2E2E2E2E2E2E2E2E2E2E2E2E2E2E2E2E2E2E2E2E2E2E2E2E2E2E2E2E2E2E2E2E2E2E2E2E2E2E2E2E2E2E2E2E2E2E2E2E2E2E2F5E2E2E2E2F5F5EFF5E2E2F5E2E2E2E2E2E2E2E2E2E2E2E2E2E2E2E2E2E2E2E2E2E2E2E2E2E2E2E2E2E2E2E2E2E2E2E2E2E2E2E2E2E2E2E2E2E2E2E2E2
310
E2E2E2E2E2E2E2E2E2E2E2E2E2E2E2E2E2E2E2E2E2E2E2E2E2E2E2E2E2E2E2E2E2E2E2E2E2E2E2E2E2E2E2E2E2E2E2E2E2E2E2E2E2E2E2E2E2E2E2E2E2E2E2E2E2E2E2E2E2E2E2E2E2E2E2E2E2E2E2E2E2E2E2E2E2E2E2E2E2E2E2E2E2E2E2E2E2E2E2E2E2E2E2E2E2E2E2E2E2E2E2E2E2E2E2E2E2E2E2F5E2E2E2E2F5F5EF
310
F5E2E2F5E2E2E2E2E2E2E2E2E2E2E2E2E2E2E2E2E2E2E2E2E2E2E2E2E2E2E2E2E2E2E2E2E2E2E2E2E2E2E2E2E2E2E2E2E2E2E2E2E2E2E2E2E2E2E2E2E2E2E2E2E2E2E2E2E2E2E2E2E2E2E2E2E2E2E2E2E2E2E2E2E2E2E2E2E2E2E2E2E2E2E2E2E2E2E2E2E2E2E2E2E2E2E2E2E2E2E2E2E2E2E2E2E2E2E2E2E2E2E2E2E2E2E2
310
E2E2E2E2E2E2E2E2E2E2E2E2E2E2E2E2E2E2E2E2E2E2E2E2E2E2E2E2E2E2E2E2E2E2E2E2E2E2E2E2E2E2E2E2E2F5E2E2E2E2F5F5EFF5E2E2F5E2E2E2E2E2E2E2E2E2E2E2E2E2E2E2E2E2E2E2E2E2E2E2E2E2E2E2E2E2E2E2E2E2E2E2E2E2E2E2E2E2E2E2E2E2E2E2E2E2E2E2E2E2E2E2E2E2E2E2E2E2E2E2E2E2E2E2E2E2E2
310
E2E2E2E2E2E2E2E2E2E2E2E2E2E2E2E2E2E2E2E2E2E2E2E2E2E2E2E2E2E2E2E2E2E2E2E2E2E2E2E2E2E2E2E2E2E2E2E2E2E2E2E2E2E2E2E2E2E2E2E2E2E2E2E2E2E2E2E2E2E2E2E2E2E2E2E2E2E2E2E2E2E2E2E2E2E2E2E2E2E2E2E2E2E2E2E2E2E2F5E2E2E2E2F5F5EFF5E2E2F5E2E2E2E2E2E2E2E2E2E2E2E2E2E2E2E2E2
310
E2E2E2E2E2E2E2E2E2E2E2E2E2E2E2E2E2E2E2E2E2E2E2E2E2E2E2E2E2E2E2E2E2E2E2E2E2E2E2E2E2E2E2E2E2E2E2E2E2E2E2E2E2E2E2E2E2E2E2E2E2E2E2E2E2E2E2E2E2E2E2E2E2E2E2E2E2E2E2E2E2E2E2E2E2E2E2E2E2E2E2E2E2E2E2E2E2E2E2E2E2E2E2E2E2E2E2E2E2E2E2E2E2E2E2E2E2E2E2E2E2E2E2E2E2E2E2
310
E2E2E2E2E2E2E2E2E2E2E2E2E2E2E2E2E2E2E2E2E2E2E2E2F5E2E2E2E2F5F5EFF5E2E2F5E2E2E2E2E2E2E2E2E2E2E2E2E2E2E2E2E2E2E2E2E2E2E2E2E2E2E2E2E2E2E2E2E2E2E2E2E2E2E2E2E2E2E2E2E2E2E2E2E2E2E2E2E2E2E2E2E2E2E2E2E2E2E2E2E2E2E2E2E2E2E2E2E2E2E2E2E2E2E2E2E2E2E2E2E2E2E2E2E2E2E2
310
E2E2E2E2E2E2E2E2E2E2E2E2E2E2E2E2E2E2E2E2E2E2E2E2E2E2E2E2E2E2E2E2E2E2E2E2E2E2E2E2E2E2E2E2E2E2E2E2E2E2E2E2E2E2E2E2E2E2E2E2E2E2E2E2E2E2E2E2E2E2E2E2E2E2E2E2E2F5E2E2E2E2F5F5EFF5E2E2F5E2E2E2E2E2E2E2E2E2E2E2E2E2E2E2E2E2E2E2E2E2E2E2E2E2E2E2E2E2E2E2E2E2E2E2E2E2E2
310
E2E2E2E2E2E2E2E2E2E2E2E2E2E2E2E2E2E2E2E2E2E2E2E2E2E2E2E2E2E2E2E2E2E2E2E2E2E2E2E2E2E2E2E2E2E2E2E2E2E2E2E2E2E2E2E2E2E2E2E2E2E2E2E2E2E2E2E2E2E2E2E2E2E2E2E2E2E2E2E2E2E2E2E2E2E2E2E2E2E2E2E2E2E2E2E2E2E2E2E2E2E2E2E2E2E2E2E2E2E2E2E2E2E2E2E2E2E2E2E2E2E2E2E2E2E2E2
310
E2E2E2F5E2E2E2E2F5F5EFF5E2E2E2E2E2E2E2E2E2E2E2E2E2E2E2E2E2E2E2E2E2E2E2E2E2E2E2E2E2E2E2E2E2E2E2E2E2E2E2E2E2E2E2E2E2E2E2E2E2E2E2E2E2E2E2E2E2E2E2E2E2E2E2E2E2E2E2E2E2E2E2E2E2E2E2E2E2E2E2E2E2E2E2E2E2E2E2E2E2E2E2E2E2E2E2E2E2E2E2E2E2E2E2E2E2E2E2E2E2E2E2E2E2E2E2
310
E2E2E2E2E2E2E2E2E2E2E2E2E2E2E2E2E2E2E2E2E2E2E2E2E2E2E2E2E2E2E2E2E2E2E2E2E2E2E2E2E2E2E2E2E2E2E2E2E2E2E2E2E2E2E2E2E2E2E2E2E2F5F5EFF5E2E2E2E2E2E2E2E2E2E2E2E2E2E2E2E2E2E2E2E2E2E2E2E2E2E2E2E2E2E2E2E2E2E2E2E2E2E2E2E2E2E2E2E2E2E2E2E2E2E2E2E2E2E2E2E2E2E2E2E2E2E2
310
E2E2E2E2E2E2E2E2E2E2E2E2E2E2E2E2E2E2E2E2E2E2E2E2E2E2E2E2E2E2E2E2E2E2E2E2E2E2E2E2E2E2E2E2E2E2E2E2E2E2E2E2E2E2E2E2E2E2E2E2E2E2E2E2E2E2E2E2E2E2E2E2E2E2E2E2E2E2E2E2E2E2E2E2E2E2E2E2E2E2E2E2E2E2E2E2E2E2E2E2E2E2E2E2E2E2E2E2E2E2E2E2E2E2F5F5EFF5E2E2E2E2E2E2E2E2E2
310
E2E2E2E2E2E2E2E2E2E2E2E2E2E2E2E2E2E2E2E2E2E2E2E2E2E2E2E2E2E2E2E2E2E2E2E2E2E2E2E2E2E2E2E2E2E2E2E2E2E2E2E2E2E2E2E2E2E2E2E2E2E2E2E2E2E2E2E2E2E2E2E2E2E2E2E2E2E2E2E2E2E2E2E2E2E2E2E2E2E2E2E2E2E2E2E2E2E2E2E2E2E2E2E2E2E2E2E2E2E2E2E2E2E2E2E2E2E2E2E2E2E2E2E2E2E2E2
310
E2E2E2E2E2E2E2E2E2E2E2E2E2E2E2E2E2E2E2E2E2E2E2E2E2E2E2E2E2E2E2E2E2E2E2E2E2E2E2E2F5F5EFF5E2E2E2E2E2E2E2E2E2E2E2E2E2E2E2E2E2E2E2E2E2E2E2E2E2E2E2E2E2E2E2E2E2E2E2E2E2E2E2E2E2E2E2E2E2E2E2E2E2E2E2E2E2E2E2E2E2E2E2E2E2E2E2E2E2E2E2E2E2E2E2E2E2E2E2E2E2E2E2E2E2E2E2
310
E2E2E2E2E2E2E2E2E2E2E2E2E2E2E2E2E2E2E2E2E2E2E2E2E2E2E2E2E2E2E2E2E2E2E2E2E2E2E2E2E2E2E2E2E2E2E2E2E2E2E2E2E2E2E2E2E2E2E2E2E2E2E2E2E2E2E2E2E2E2E2E2E2E2E2E2E2E2E2E2E2E2E2E2E2E2E2E2E2E2E2E2E2F5F5EFF5E2E2E2E2E2E2E2E2E2E2E2E2E2E2E2E2E2E2E2E2E2E2E2E2E2E2E2E2E2E2
310
E2E2E2E2E2E2E2E2E2E2E2E2E2E2E2E2E2E2E2E2E2E2E2E2E2E2E2E2E2E2E2E2E2E2E2E2E2E2E2E2E2E2E2E2E2E2E2E2E2E2E2E2E2E2E2E2E2E2E2E2E2E2E2E2E2E2E2E2E2E2E2E2E2E2E2E2E2E2E2E2E2E2E2E2E2E2E2E2E2E2E2E2E2E2E2E2E2E2E2E2E2E2E2E2E2E2E2E2E2E2E2E2E2E2E2E2E2E2E2E2E2E2E2E2E2E2E2
310
E2E2E2E2E2E2E2E2E2E2E2E2E2E2E2E2E2E2E2F5F5EFF5E2E2E2E2E2E2E2E2E2E2E2E2E2E2E2E2E2E2E2E2E2E2E2E2E2E2E2E2E2E2E2E2E2E2E2E2E2E2E2E2E2E2E2E2E2E2E2E2E2E2E2E2E2E2E2E2E2E2E2E2E2E2E2E2E2E2E2E2E2E2E2E2E2E2E2E2E2E2E2E2E2E2E2E2E2E2E2E2E2E2E2E2E2E2E2E2E2E2E2E2E2E2E2E2
310
E2E2E2E2E2E2E2E2E2E2E2E2E2E2E2E2E2E2E2E2E2E2E2E2E2E2E2E2E2E2E2E2E2E2E2E2E2E2E2E2E2E2E2E2E2E2E2E2E2E2E2E2E2E2E2E2E2E2E2E2E2E2E2E2E2E2E2E2E2E2E2E2F5F5EFF5E2E2E2E2E2E2E2E2E2E2E2E2E2E2E2E2E2E2E2E2E2E2E2E2E2E2E2E2E2E2E2E2E2E2E2E2E2E2E2E2E2E2E2E2E2E2E2E2E2E2E2
310
E2E2E2E2E2E2E2E2E2E2E2E2E2E2E2E2E2E2E2E2E2E2E2E2E2E2E2E2E2E2E2E2E2E2E2E2E2E2E2E2E2E2E2E2E2E2E2E2E2E2E2E2E2E2E2E2E2E2E2E2E2E2E2E2E2E2E2E2E2E2E2E2E2E2E2E2E2E2E2E2E2E2E2E2E2E2E2E2E2E2E2E2E2E2E2E2E2E2E2E2E2E2E2E2E2E2E2E2E2E2E2E2E2E2E2E2E2E2E2E2E2E2E2E2E2F5F5
310
EFF5E2E2E2E2E2E2E2E2E2E2E2E2E2E2E2E2E2E2E2E2E2E2E2E2E2E2E2E2E2E2E2E2E2E2E2E2E2E2E2E2E2E2E2E2E2E2E2E2E2E2E2E2E2E2E2E2E2E2E2E2E2E2E2E2E2E2E2E2E2E2E2E2E2E2E2E2E2E2E2E2E2E2E2E2E2E2E2E2E2E2E2E2E2E2E2E2E2E2E2E2E2E2E2E2E2E2E2E2E2E2E2E2E2E2E2E2E2E2E2E2E2E2E2E2E2
310
E2E2E2E2E2E2E2E2E2E2E2E2E2E2E2E2E2E2E2E2E2E2E2E2E2E2E2E2E2E2E2E2E2E2E2E2E2E2E2E2E2E2E2E2E2E2E2E2E2E2E2F5F5EFF5E2E2E2E2E2E2E2E2E2E2E2E2E2E2E2E2E2E2E2E2E2E2E2E2E2E2E2E2E2E2E2E2E2E2E2E2E2E2E2E2E2E2E2E2E2E2E2E2E2E2E2E2E2E2E2E2E2E2E2E2E2E2E2E2E2E2E2E2E2E2E2E2
310
E2E2E2E2E2E2E2E2E2E2E2E2E2E2E2E2E2E2E2E2E2E2E2E2E2E2E2E2E2E2E2E2E2E2E2E2E2E2E2E2E2E2E2E2E2E2E2E2E2E2E2E2E2E2E2E2E2E2E2E2E2E2E2E2E2E2E2E2E2E2E2E2E2E2E2E2E2E2E2E2E2E2E2E2E2E2E2E2E2E2E2E2E2E2E2E2E2E2E2E2E2E2E2E2F5F5EFF5E2E2E2E2E2E2E2E2E2E2E2E2E2E2E2E2E2E2E2
310
E2E2E2E2E2E2E2E2E2E2E2E2E2E2E2E2E2E2E2E2E2E2E2E2E2E2E2E2E2E2E2E2E2E2E2E2E2E2E2E2E2E2E2E2E2E2E2E2E2E2E2E2E2E2E2E2E2E2E2E2E2E2E2E2E2E2E2E2E2E2E2E2E2E2E2E2E2E2E2E2E2E2E2E2E2E2E2E2E2E2E2E2E2E2E2E2E2E2E2E2E2E2E2E2E2E2E2E2E2E2E2E2E2E2E2E2E2E2E2E2E2E2E2E2E2E2E2
310
E2E2E2E2E2E2E2E2E2E2E2E2E2E2E2E2E2E2E2E2E2E2E2E2E2E2E2E2E2E2F5F5EFF5E2E2F5E2E2E2E2E2E2E2E2E2E2E2E2E2E2E2E2E2E2E2E2E2E2E2E2E2E2E2E2E2E2E2E2E2E2E2E2E2E2E2E2E2E2E2E2E2E2E2E2E2E2E2E2E2E2E2E2E2E2E2E2E2E2E2E2E2E2E2E2E2E2E2E2E2E2E2E2E2E2E2E2E2E2E2E2E2E2E2E2E2E2
310
E2E2E2E2E2E2E2E2E2E2E2E2E2E2E2E2E2E2E2E2E2E2E2E2E2E2E2E2E2E2E2E2E2E2E2E2E2E2E2E2E2E2E2E2E2E2E2E2E2E2E2E2E2E2E2E2E2E2E2E2E2E2E2E2E2E2E2E2E2E2E2E2E2E2E2E2E2E2F5E2E2E2E2F5F5EFF5E2E2F5E2E2E2E2E2E2E2E2E2E2E2E2E2E2E2E2E2E2E2E2E2E2E2E2E2E2E2E2E2E2E2E2E2E2E2E2E2
310
E2E2E2E2E2E2E2E2E2E2E2E2E2E2E2E2E2E2E2E2E2E2E2E2E2E2E2E2E2E2E2E2E2E2E2E2E2E2E2E2E2E2E2E2E2E2E2E2E2E2E2E2E2E2E2E2E2E2E2E2E2E2E2E2E2E2E2E2E2E2E2E2E2E2E2E2E2E2E2E2E2E2E2E2E2E2E2E2E2E2E2E2E2E2E2E2E2E2E2E2E2E2E2E2E2E2E2E2E2E2E2E2E2E2E2E2E2E2E2E2E2E2E2E2E2E2E2
310
E2E2E2E2F5E2E2E2E2F5F5EFF5E2E2F5E2E2E2E2E2E2E2E2E2E2E2E2E2E2E2E2E2E2E2E2E2E2E2E2E2E2E2E2E2E2E2E2E2E2E2E2E2E2E2E2E2E2E2E2E2E2E2E2E2E2E2E2E2E2E2E2E2E2E2E2E2E2E2E2E2E2E2E2E2E2E2E2E2E2E2E2E2E2E2E2E2E2E2E2E2E2E2E2E2E2E2E2E2E2E2E2E2E2E2E2E2E2E2E2E2E2E2E2E2E2E2
310
E2E2E2E2E2E2E2E2E2E2E2E2E2E2E2E2E2E2E2E2E2E2E2E2E2E2E2E2E2E2E2E2E2E2E2E2E2E2E2E2E2E2E2E2E2E2E2E2E2E2E2E2E2E2E2E2E2F5E2E2E2E2F5F5EFF5E2E2F5E2E2E2E2E2E2E2E2E2E2E2E2E2E2E2E2E2E2E2E2E2E2E2E2E2E2E2E2E2E2E2E2E2E2E2E2E2E2E2E2E2E2E2E2E2E2E2E2E2E2E2E2E2E2E2E2E2E2
310
E2E2E2E2E2E2E2E2E2E2E2E2E2E2E2E2E2E2E2E2E2E2E2E2E2E2E2E2E2E2E2E2E2E2E2E2E2E2E2E2E2E2E2E2E2E2E2E2E2E2E2E2E2E2E2E2E2E2E2E2E2E2E2E2E2E2E2E2E2E2E2E2E2E2E2E2E2E2E2E2E2E2E2E2E2E2E2E2E2E2E2E2E2E2E2E2E2E2E2E2E2E2E2E2E2E2E2E2E2E2F5E2E2E2E2F5F5EFF5E2E2F5E2E2E2E2E2
310
E2E2E2E2E2E2E2E2E2E2E2E2E2E2E2E2E2E2E2E2E2E2E2E2E2E2E2E2E2E2E2E2E2E2E2E2E2E2E2E2E2E2E2E2E2E2E2E2E2E2E2E2E2E2E2E2E2E2E2E2E2E2E2E2E2E2E2E2E2E2E2E2E2E2E2E2E2E2E2E2E2E2E2E2E2E2E2E2E2E2E2E2E2E2E2E2E2E2E2E2E2E2E2E2E2E2E2E2E2E2E2E2E2E2E2E2E2E2E2E2E2E2E2E2E2E2E2
310
E2E2E2E2E2E2E2E2E2E2E2E2E2E2E2E2E2E2E2E2E2E2E2E2E2E2E2E2E2E2E2E2E2E2E2E2F5E2E2E2E2F5F5EFF5E2E2F5E2E2E2E2E2E2E2E2E2E2E2E2E2E2E2E2E2E2E2E2E2E2E2E2E2E2E2E2E2E2E2E2E2E2E2E2E2E2E2E2E2E2E2E2E2E2E2E2E2E2E2E2E2E2E2E2E2E2E2E2E2E2E2E2E2E2E2E2E2E2E2E2E2E2E2E2E2E2E2
310
E2E2E2E2E2E2E2E2E2E2E2E2E2E2E2E2E2E2E2E2E2E2E2E2E2E2E2E2E2E2E2E2E2E2E2E2E2E2E2E2E2E2E2E2E2E2E2E2E2E2E2E2E2E2E2E2E2E2E2E2E2E2E2E2E2E2E2E2E2E2E2E2E2E2E2E2E2E2E2E2E2E2E2E2E2E2E2E2E2F5E2E2E2E2F5F5EFF5E2E2F5E2E2E2E2E2E2E2E2E2E2E2E2E2E2E2E2E2E2E2E2E2E2E2E2E2E2
310
E2E2E2E2E2E2E2E2E2E2E2E2E2E2E2E2E2E2E2E2E2E2E2E2E2E2E2E2E2E2E2E2E2E2E2E2E2E2E2E2E2E2E2E2E2E2E2E2E2E2E2E2E2E2E2E2E2E2E2E2E2E2E2E2E2E2E2E2E2E2E2E2E2E2E2E2E2E2E2E2E2E2E2E2E2E2E2E2E2E2E2E2E2E2E2E2E2E2E2E2E2E2E2E2E2E2E2E2E2E2E2E2E2E2E2E2E2E2E2E2E2E2E2E2E2E2E2
310
E2E2E2E2E2E2E2E2E2E2E2E2E2E2E2F5E2E2E2E2F5F5EFF5E2E2F5E2E2E2E2E2E2E2E2E2E2E2E2E2E2E2E2E2E2E2E2E2E2E2E2E2E2E2E2E2E2E2E2E2E2E2E2E2E2E2E2E2E2E2E2E2E2E2E2E2E2E2E2E2E2E2E2E2E2E2E2E2E2E2E2E2E2E2E2E2E2E2E2E2E2E2E2E2E2E2E2E2E2E2E2E2E2E2E2E2E2E2E2E2E2E2E2E2E2E2E2
310
E2E2E2E2E2E2E2E2E2E2E2E2E2E2E2E2E2E2E2E2E2E2E2E2E2E2E2E2E2E2E2E2E2E2E2E2E2E2E2E2E2E2E2E2E2E2E2E2E2E2E2E2E2E2E2E2E2E2E2E2E2E2E2E2E2E2E2E2F5E2E2E2E2F5F5EFF5E2E2F5E2E2E2E2E2E2E2E2E2E2E2E2E2E2E2E2E2E2E2E2E2E2E2E2E2E2E2E2E2E2E2E2E2E2E2E2E2E2E2E2E2E2E2E2E2E2E2
310
E2E2E2E2E2E2E2E2E2E2E2E2E2E2E2E2E2E2E2E2E2E2E2E2E2E2E2E2E2E2E2E2E2E2E2E2E2E2E2E2E2E2E2E2E2E2E2E2E2E2E2E2E2E2E2E2E2E2E2E2E2E2E2E2E2E2E2E2E2E2E2E2E2E2E2E2E2E2E2E2E2E2E2E2E2E2E2E2E2E2E2E2E2E2E2E2E2E2E2E2E2E2E2E2E2E2E2E2E2E2E2E2E2E2E2E2E2E2E2E2E2F5E2E2E2E2F5
310
F5EFF5E2E2F5E2E2E2E2E2E2E2E2E2E2E2E2E2E2E2E2E2E2E2E2E2E2E2E2E2E2E2E2E2E2E2E2E2E2E2E2E2E2E2E2E2E2E2E2E2E2E2E2E2E2E2E2E2E2E2E2E2E2E2E2E2E2E2E2E2E2E2E2E2E2E2E2E2E2E2E2E2E2E2E2E2E2E2E2E2E2E2E2E2E2E2E2E2E2E2E2E2E2E2E2E2E2E2E2E2E2E2E2E2E2E2E2E2E2E2E2E2E2E2E2E2
310
E2E2E2E2E2E2E2E2E2E2E2E2E2E2E2E2E2E2E2E2E2E2E2E2E2E2E2E2E2E2E2E2E2E2E2E2E2E2E2E2E2E2E2E2E2E2E2F5E2E2E2E2F5F5EFF5E2E2F5E2E2E2E2E2E2E2E2E2E2E2E2E2E2E2E2E2E2E2E2E2E2E2E2E2E2E2E2E2E2E2E2E2E2E2E2E2E2E2E2E2E2E2E2E2E2E2E2E2E2E2E2E2E2E2E2E2E2E2E2E2E2E2E2E2E2E2E2
310
E2E2E2E2E2E2E2E2E2E2E2E2E2E2E2E2E2E2E2E2E2E2E2E2E2E2E2E2E2E2E2E2E2E2E2E2E2E2E2E2E2E2E2E2E2E2E2E2E2E2E2E2E2E2E2E2E2E2E2E2E2E2E2E2E2E2E2E2E2E2E2E2E2E2E2E2E2E2E2E2E2E2E2E2E2E2E2E2E2E2E2E2E2E2E2E2E2E2E2E2F5E2E2E2E2F5F5EFF5E2E2F5E2E2E2E2E2E2E2E2E2E2E2E2E2E2E2
310
E2E2E2E2E2E2E2E2E2E2E2E2E2E2E2E2E2E2E2E2E2E2E2E2E2E2E2E2E2E2E2E2E2E2E2E2E2E2E2E2E2E2E2E2E2E2E2E2E2E2E2E2E2E2E2E2E2E2E2E2E2E2E2E2E2E2E2E2E2E2E2E2E2E2E2E2E2E2E2E2E2E2E2E2E2E2E2E2E2E2E2E2E2E2E2E2E2E2E2E2E2E2E2E2E2E2E2E2E2E2E2E2E2E2E2E2E2E2E2E2E2E2E2E2E2E2E2
310
E2E2E2E2E2E2E2E2E2E2E2E2E2E2E2E2E2E2E2E2E2E2E2E2E2E2F5E2E2E2E2F5F5EFF5E2E2F5E2E2E2E2E2E2E2E2E2E2E2E2E2E2E2E2E2E2E2E2E2E2E2E2E2E2E2E2E2E2E2E2E2E2E2E2E2E2E2E2E2E2E2E2E2E2E2E2E2E2E2E2E2E2E2E2E2E2E2E2E2E2E2E2E2E2E2E2E2E2E2E2E2E2E2E2E2E2E2E2E2E2E2E2E2E2E2E2E2
310
E2E2E2E2E2E2E2E2E2E2E2E2E2E2E2E2E2E2E2E2E2E2E2E2E2E2E2E2E2E2E2E2E2E2E2E2E2E2E2E2E2E2E2E2E2E2E2E2E2E2E2E2E2E2E2E2E2E2E2E2E2E2E2E2E2E2E2E2E2E2E2E2E2E2E2E2E2E2E2F5E2E2E2E2F5F5EFF5E2E2F5E2E2E2E2E2E2E2E2E2E2E2E2E2E2E2E2E2E2E2E2E2E2E2E2E2E2E2E2E2E2E2E2E2E2E2E2
310
E2E2E2E2E2E2E2E2E2E2E2E2E2E2E2E2E2E2E2E2E2E2E2E2E2E2E2E2E2E2E2E2E2E2E2E2E2E2E2E2E2E2E2E2E2E2E2E2E2E2E2E2E2E2E2E2E2E2E2E2E2E2E2E2E2E2E2E2E2E2E2E2E2E2E2E2E2E2E2E2E2E2E2E2E2E2E2E2E2E2E2E2E2E2E2E2E2E2E2E2E2E2E2E2E2E2E2E2E2E2E2E2E2E2E2E2E2E2E2E2E2E2E2E2E2E2E2
310
E2E2E2E2E2F5E2E2E2E2F5F5EFF5E2E2F5E2E2E2E2E2E2E2E2E2E2E2E2E2E2E2E2E2E2E2E2E2E2E2E2E2E2E2E2E2E2E2E2E2E2E2E2E2E2E2E2E2E2E2E2E2E2E2E2E2E2E2E2E2E2E2E2E2E2E2E2E2E2E2E2E2E2E2E2E2E2E2E2E2E2E2E2E2E2E2E2E2E2E2E2E2E2E2E2E2E2E2E2E2E2E2E2E2E2E2E2E2E2E2E2E2E2E2E2E2E2
310
E2E2E2E2E2E2E2E2E2E2E2E2E2E2E2E2E2E2E2E2E2E2E2E2E2E2E2E2E2E2E2E2E2E2E2E2E2E2E2E2E2E2E2E2E2E2E2E2E2E2E2E2E2E2E2E2E2E2F5E2E2E2E2F5F5EFF5E2E2F5E2E2E2E2E2E2E2E2E2E2E2E2E2E2E2E2E2E2E2E2E2E2E2E2E2E2E2E2E2E2E2E2E2E2E2E2E2E2E2E2E2E2E2E2E2E2E2E2E2E2E2E2E2E2E2E2E2
310
E2E2E2E2E2E2E2E2E2E2E2E2E2E2E2E2E2E2E2E2E2E2E2E2E2E2E2E2E2E2E2E2E2E2E2E2E2E2E2E2E2E2E2E2E2E2E2E2E2E2E2E2E2E2E2E2E2E2E2E2E2E2E2E2E2E2E2E2E2E2E2E2E2E2E2E2E2E2E2E2E2E2E2E2E2E2E2E2E2E2E2E2E2E2E2E2E2E2E2E2E2E2E2E2E2E2E2E2E2E2E2F5E2E2E2E2F5F5EFF5E2E2E2E2E2E2E2
310
E2E2E2E2E2E2E2E2E2E2E2E2E2E2E2E2E2E2E2E2E2E2E2E2E2E2E2E2E2E2E2E2E2E2E2E2E2E2E2E2E2E2E2E2E2E2E2E2E2E2E2E2E2E2E2E2E2E2E2E2E2E2E2E2E2E2E2E2E2E2E2E2E2E2E2E2E2E2E2E2E2E2E2E2E2E2E2E2E2E2E2E2E2E2E2E2E2E2E2E2E2E2E2E2E2E2E2E2E2E2E2E2E2E2E2E2E2E2E2E2E2E2E2E2E2E2E2
310
E2E2E2E2E2E2E2E2E2E2E2E2E2E2E2E2E2E2E2E2E2E2E2E2E2E2E2E2E2E2E2E2E2E2E2E2E2E2E2E2E2E2F5F5EFF5E2E2E2E2E2E2E2E2E2E2E2E2E2E2E2E2E2E2E2E2E2E2E2E2E2E2E2E2E2E2E2E2E2E2E2E2E2E2E2E2E2E2E2E2E2E2E2E2E2E2E2E2E2E2E2E2E2E2E2E2E2E2E2E2E2E2E2E2E2E2E2E2E2E2E2E2E2E2E2E2E2
310
E2E2E2E2E2E2E2E2E2E2E2E2E2E2E2E2E2E2E2E2E2E2E2E2E2E2E2E2E2E2E2E2E2E2E2E2E2E2E2E2E2E2E2E2E2E2E2E2E2E2E2E2E2E2E2E2E2E2E2E2E2E2E2E2E2E2E2E2E2E2E2E2E2E2E2E2E2E2E2E2E2E2E2E2E2E2E2E2E2E2E2E2E2E2E2F5F5EFF5E2E2E2E2E2E2E2E2E2E2E2E2E2E2E2E2E2E2E2E2E2E2E2E2E2E2E2E2
310
E2E2E2E2E2E2E2E2E2E2E2E2E2E2E2E2E2E2E2E2E2E2E2E2E2E2E2E2E2E2E2E2E2E2E2E2E2E2E2E2E2E2E2E2E2E2E2E2E2E2E2E2E2E2E2E2E2E2E2E2E2E2E2E2E2E2E2E2E2E2E2E2E2E2E2E2E2E2E2E2E2E2E2E2E2E2E2E2E2E2E2E2E2E2E2E2E2E2E2E2E2E2E2E2E2E2E2E2E2E2E2E2E2E2E2E2E2E2E2E2E2E2E2E2E2E2E2
310
E2E2E2E2E2E2E2E2E2E2E2E2E2E2E2E2E2E2E2E2E2F5F5EFF5E2E2E2E2E2E2E2E2E2E2E2E2E2E2E2E2E2E2E2E2E2E2E2E2E2E2E2E2E2E2E2E2E2E2E2E2E2E2E2E2E2E2E2E2E2E2E2E2E2E2E2E2E2E2E2E2E2E2E2E2E2E2E2E2E2E2E2E2E2E2E2E2E2E2E2E2E2E2E2E2E2E2E2E2E2E2E2E2E2E2E2E2E2E2E2E2E2E2E2E2E2E2
310
E2E2E2E2E2E2E2E2E2E2E2E2E2E2E2E2E2E2E2E2E2E2E2E2E2E2E2E2E2E2E2E2E2E2E2E2E2E2E2E2E2E2E2E2E2E2E2E2E2E2E2E2E2E2E2E2E2E2E2E2E2E2E2E2E2E2E2E2E2E2E2E2E2E2F5F5EFF5E2E2E2E2E2E2E2E2E2E2E2E2E2E2E2E2E2E2E2E2E2E2E2E2E2E2E2E2E2E2E2E2E2E2E2E2E2E2E2E2E2E2E2E2E2E2E2E2E2
310
E2E2E2E2E2E2E2E2E2E2E2E2E2E2E2E2E2E2E2E2E2E2E2E2E2E2E2E2E2E2E2E2E2E2E2E2E2E2E2E2E2E2E2E2E2E2E2E2E2E2E2E2E2E2E2E2E2E2E2E2E2E2E2E2E2E2E2E2E2E2E2E2E2E2E2E2E2E2E2E2E2E2E2E2E2E2E2E2E2E2E2E2E2E2E2E2E2E2E2E2E2E2E2E2E2E2E2E2E2E2E2E2E2E2E2E2E2E2E2E2E2E2E2E2E2E2E2
310
F5F5EFF5E2E2E2E2E2E2E2E2E2E2E2E2E2E2E2E2E2E2E2E2E2E2E2E2E2E2E2E2E2E2E2E2E2E2E2E2E2E2E2E2E2E2E2E2E2E2E2E2E2E2E2E2E2E2E2E2E2E2E2E2E2E2E2E2E2E2E2E2E2E2E2E2E2E2E2E2E2E2E2E2E2E2E2E2E2E2E2E2E2E2E2E2E2E2E2E2E2E2E2E2E2E2E2E2E2E2E2E2E2E2E2E2E2E2E2E2E2E2E2E2E2E2E2
310
E2E2E2E2E2E2E2E2E2E2E2E2E2E2E2E2E2E2E2E2E2E2E2E2E2E2E2E2E2E2E2E2E2E2E2E2E2E2E2E2E2E2E2E2E2E2E2E2E2E2E2E2E2F5F5EFF5E2E2E2E2E2E2E2E2E2E2E2E2E2E2E2E2E2E2E2E2E2E2E2E2E2E2E2E2E2E2E2E2E2E2E2E2E2E2E2E2E2E2E2E2E2E2E2E2E2E2E2E2E2E2E2E2E2E2E2E2E2E2E2E2E2E2E2E2E2E2
310
E2E2E2E2E2E2E2E2E2E2E2E2E2E2E2E2E2E2E2E2E2E2E2E2E2E2E2E2E2E2E2E2E2E2E2E2E2E2E2E2E2E2E2E2E2E2E2E2E2E2E2E2E2E2E2E2E2E2E2E2E2E2E2E2E2E2E2E2E2E2E2E2E2E2E2E2E2E2E2E2E2E2E2E2E2E2E2E2E2E2E2E2E2E2E2E2E2E2E2E2E2E2E2E2E2E2F5F5EFF5E2E2E2E2E2E2E2E2E2E2E2E2E2E2E2E2E2
310
E2E2E2E2E2E2E2E2E2E2E2E2E2E2E2E2E2E2E2E2E2E2E2E2E2E2E2E2E2E2E2E2E2E2E2E2E2E2E2E2E2E2E2E2E2E2E2E2E2E2E2E2E2E2E2E2E2E2E2E2E2E2E2E2E2E2E2E2E2E2E2E2E2E2E2E2E2E2E2E2E2E2E2E2E2E2E2E2E2E2E2E2E2E2E2E2E2E2E2E2E2E2E2E2E2E2E2E2E2E2E2E2E2E2E2E2E2E2E2E2E2E2E2E2E2E2E2
310
E2E2E2E2E2E2E2E2E2E2E2E2E2E2E2E2E2E2E2E2E2E2E2E2E2E2E2E2E2E2E2E2F5F5EFF5E2E2E2E2E2E2E2E2E2E2E2E2E2E2E2E2E2E2E2E2E2E2E2E2E2E2E2E2E2E2E2E2E2E2E2E2E2E2E2E2E2E2E2E2E2E2E2E2E2E2E2E2E2E2E2E2E2E2E2E2E2E2E2E2E2E2E2E2E2E2E2E2E2E2E2E2E2E2E2E2E2E2E2E2E2E2E2E2E2E2E2
310
E2E2E2E2E2E2E2E2E2E2E2E2E2E2E2E2E2E2E2E2E2E2E2E2E2E2E2E2E2E2E2E2E2E2E2E2E2E2E2E2E2E2E2E2E2E2E2E2E2E2E2E2E2E2E2E2E2E2E2E2E2E2E2E2E2E2E2E2E2E2E2E2E2E2E2E2E2E2E2E2E2E2E2E2E2F5F5EFF5E2E2F5E2E2E2E2E2E2E2E2E2E2E2E2E2E2E2E2E2E2E2E2E2E2E2E2E2E2E2E2E2E2E2E2E2E2E2
310
E2E2E2E2E2E2E2E2E2E2E2E2E2E2E2E2E2E2E2E2E2E2E2E2E2E2E2E2E2E2E2E2E2E2E2E2E2E2E2E2E2E2E2E2E2E2E2E2E2E2E2E2E2E2E2E2E2E2E2E2E2E2E2E2E2E2E2E2E2E2E2E2E2E2E2E2E2E2E2E2E2E2E2E2E2E2E2E2E2E2E2E2E2E2E2E2E2E2E2E2E2E2E2E2E2E2E2E2E2E2E2E2E2E2E2E2E2E2E2E2E2E2E2E2E2E2E2
310
E2E2E2E2E2E2F5E2E2E2E2F5F5EFF5E2E2F5E2E2E2E2E2E2E2E2E2E2E2E2E2E2E2E2E2E2E2E2E2E2E2E2E2E2E2E2E2E2E2E2E2E2E2E2E2E2E2E2E2E2E2E2E2E2E2E2E2E2E2E2E2E2E2E2E2E2E2E2E2E2E2E2E2E2E2E2E2E2E2E2E2E2E2E2E2E2E2E2E2E2E2E2E2E2E2E2E2E2E2E2E2E2E2E2E2E2E2E2E2E2E2E2E2E2E2E2E2
310
E2E2E2E2E2E2E2E2E2E2E2E2E2E2E2E2E2E2E2E2E2E2E2E2E2E2E2E2E2E2E2E2E2E2E2E2E2E2E2E2E2E2E2E2E2E2E2E2E2E2E2E2E2E2E2E2E2E2E2F5E2E2E2E2F5F5EFF5E2E2F5E2E2E2E2E2E2E2E2E2E2E2E2E2E2E2E2E2E2E2E2E2E2E2E2E2E2E2E2E2E2E2E2E2E2E2E2E2E2E2E2E2E2E2E2E2E2E2E2E2E2E2E2E2E2E2E2
310
E2E2E2E2E2E2E2E2E2E2E2E2E2E2E2E2E2E2E2E2E2E2E2E2E2E2E2E2E2E2E2E2E2E2E2E2E2E2E2E2E2E2E2E2E2E2E2E2E2E2E2E2E2E2E2E2E2E2E2E2E2E2E2E2E2E2E2E2E2E2E2E2E2E2E2E2E2E2E2E2E2E2E2E2E2E2E2E2E2E2E2E2E2E2E2E2E2E2E2E2E2E2E2E2E2E2E2E2E2E2E2E2F5E2E2E2E2F5F5EFF5E2E2F5E2E2E2
310
E2E2E2E2E2E2E2E2E2E2E2E2E2E2E2E2E2E2E2E2E2E2E2E2E2E2E2E2E2E2E2E2E2E2E2E2E2E2E2E2E2E2E2E2E2E2E2E2E2E2E2E2E2E2E2E2E2E2E2E2E2E2E2E2E2E2E2E2E2E2E2E2E2E2E2E2E2E2E2E2E2E2E2E2E2E2E2E2E2E2E2E2E2E2E2E2E2E2E2E2E2E2E2E2E2E2E2E2E2E2E2E2E2E2E2E2E2E2E2E2E2E2E2E2E2E2E2
310
E2E2E2E2E2E2E2E2E2E2E2E2E2E2E2E2E2E2E2E2E2E2E2E2E2E2E2E2E2E2E2E2E2E2E2E2E2E2F5E2E2E2E2F5F5EFF5E2E2F5E2E2E2E2E2E2E2E2E2E2E2E2E2E2E2E2E2E2E2E2E2E2E2E2E2E2E2E2E2E2E2E2E2E2E2E2E2E2E2E2E2E2E2E2E2E2E2E2E2E2E2E2E2E2E2E2E2E2E2E2E2E2E2E2E2E2E2E2E2E2E2E2E2E2E2E2E2
310
E2E2E2E2E2E2E2E2E2E2E2E2E2E2E2E2E2E2E2E2E2E2E2E2E2E2E2E2E2E2E2E2E2E2E2E2E2E2E2E2E2E2E2E2E2E2E2E2E2E2E2E2E2E2E2E2E2E2E2E2E2E2E2E2E2E2E2E2E2E2E2E2E2E2E2E2E2E2E2E2E2E2E2E2E2E2E2E2E2E2E2F5E2E2E2E2F5F5EFF5E2E2F5E2E2E2E2E2E2E2E2E2E2E2E2E2E2E2E2E2E2E2E2E2E2E2E2
310
E2E2E2E2E2E2E2E2E2E2E2E2E2E2E2E2E2E2E2E2E2E2E2E2E2E2E2E2E2E2E2E2E2E2E2E2E2E2E2E2E2E2E2E2E2E2E2E2E2E2E2E2E2E2E2E2E2E2E2E2E2E2E2E2E2E2E2E2E2E2E2E2E2E2E2E2E2E2E2E2E2E2E2E2E2E2E2E2E2E2E2E2E2E2E2E2E2E2E2E2E2E2E2E2E2E2E2E2E2E2E2E2E2E2E2E2E2E2E2E2E2E2E2E2E2E2E2
310
E2E2E2E2E2E2E2E2E2E2E2E2E2E2E2E2E2F5E2E2E2E2F5F5EFF5E2E2F5E2E2E2E2E2E2E2E2E2E2E2E2E2E2E2E2E2E2E2E2E2E2E2E2E2E2E2E2E2E2E2E2E2E2E2E2E2E2E2E2E2E2E2E2E2E2E2E2E2E2E2E2E2E2E2E2E2E2E2E2E2E2E2E2E2E2E2E2E2E2E2E2E2E2E2E2E2E2E2E2E2E2E2E2E2E2E2E2E2E2E2E2E2E2E2E2E2E2
310
E2E2E2E2E2E2E2E2E2E2E2E2E2E2E2E2E2E2E2E2E2E2E2E2E2E2E2E2E2E2E2E2E2E2E2E2E2E2E2E2E2E2E2E2E2E2E2E2E2E2E2E2E2E2E2E2E2E2E2E2E2E2E2E2E2E2E2E2E2E2F5E2E2E2E2F5F5EFF5E2E2F5E2E2E2E2E2E2E2E2E2E2E2E2E2E2E2E2E2E2E2E2E2E2E2E2E2E2E2E2E2E2E2E2E2E2E2E2E2E2E2E2E2E2E2E2E2
310
E2E2E2E2E2E2E2E2E2E2E2E2E2E2E2E2E2E2E2E2E2E2E2E2E2E2E2E2E2E2E2E2E2E2E2E2E2E2E2E2E2E2E2E2E2E2E2E2E2E2E2E2E2E2E2E2E2E2E2E2E2E2E2E2E2E2E2E2E2E2E2E2E2E2E2E2E2E2E2E2E2E2E2E2E2E2E2E2E2E2E2E2E2E2E2E2E2E2E2E2E2E2E2E2E2E2E2E2E2E2E2E2E2E2E2E2E2E2E2E2E2E2E2F5E2E2E2
310
E2F5F5EFF5E2E2F5E2E2E2E2E2E2E2E2E2E2E2E2E2E2E2E2E2E2E2E2E2E2E2E2E2E2E2E2E2E2E2E2E2E2E2E2E2E2E2E2E2E2E2E2E2E2E2E2E2E2E2E2E2E2E2E2E2E2E2E2E2E2E2E2E2E2E2E2E2E2E2E2E2E2E2E2E2E2E2E2E2E2E2E2E2E2E2E2E2E2E2E2E2E2E2E2E2E2E2E2E2E2E2E2E2E2E2E2E2E2E2E2E2E2E2E2E2E2E2
310
E2E2E2E2E2E2E2E2E2E2E2E2E2E2E2E2E2E2E2E2E2E2E2E2E2E2E2E2E2E2E2E2E2E2E2E2E2E2E2E2E2E2E2E2E2E2E2E2E2F5E2E2E2E2F5F5EFF5E2E2F5E2E2E2E2E2E2E2E2E2E2E2E2E2E2E2E2E2E2E2E2E2E2E2E2E2E2E2E2E2E2E2E2E2E2E2E2E2E2E2E2E2E2E2E2E2E2E2E2E2E2E2E2E2E2E2E2E2E2E2E2E2E2E2E2E2E2
310
E2E2E2E2E2E2E2E2E2E2E2E2E2E2E2E2E2E2E2E2E2E2E2E2E2E2E2E2E2E2E2E2E2E2E2E2E2E2E2E2E2E2E2E2E2E2E2E2E2E2E2E2E2E2E2E2E2E2E2E2E2E2E2E2E2E2E2E2E2E2E2E2E2E2E2E2E2E2E2E2E2E2E2E2E2E2E2E2E2E2E2E2E2E2E2E2E2E2E2E2E2E2F5E2E2E2E2F5F5EFF5E2E2F5E2E2E2E2E2E2E2E2E2E2E2E2E2
310
E2E2E2E2E2E2E2E2E2E2E2E2E2E2E2E2E2E2E2E2E2E2E2E2E2E2E2E2E2E2E2E2E2E2E2E2E2E2E2E2E2E2E2E2E2E2E2E2E2E2E2E2E2E2E2E2E2E2E2E2E2E2E2E2E2E2E2E2E2E2E2E2E2E2E2E2E2E2E2E2E2E2E2E2E2E2E2E2E2E2E2E2E2E2E2E2E2E2E2E2E2E2E2E2E2E2E2E2E2E2E2E2E2E2E2E2E2E2E2E2E2E2E2E2E2E2E2
310
E2E2E2E2E2E2E2E2E2E2E2E2E2E2E2E2E2E2E2E2E2E2E2E2E2E2E2E2F5E2E2E2E2F5F5EFF5E2E2F5E2E2E2E2E2E2E2E2E2E2E2E2E2E2E2E2E2E2E2E2E2E2E2E2E2E2E2E2E2E2E2E2E2E2E2E2E2E2E2E2E2E2E2E2E2E2E2E2E2E2E2E2E2E2E2E2E2E2E2E2E2E2E2E2E2E2E2E2E2E2E2E2E2E2E2E2E2E2E2E2E2E2E2E2E2E2E2
310
E2E2E2E2E2E2E2E2E2E2E2E2E2E2E2E2E2E2E2E2E2E2E2E2E2E2E2E2E2E2E2E2E2E2E2E2E2E2E2E2E2E2E2E2E2E2E2E2E2E2E2E2E2E2E2E2E2E2E2E2E2E2E2E2E2E2E2E2E2E2E2E2E2E2E2E2E2E2E2E2E2F5E2E2E2E2F5F5EFF5E2E2F5E2E2E2E2E2E2E2E2E2E2E2E2E2E2E2E2E2E2E2E2E2E2E2E2E2E2E2E2E2E2E2E2E2E2
310
E2E2E2E2E2E2E2E2E2E2E2E2E2E2E2E2E2E2E2E2E2E2E2E2E2E2E2E2E2E2E2E2E2E2E2E2E2E2E2E2E2E2E2E2E2E2E2E2E2E2E2E2E2E2E2E2E2E2E2E2E2E2E2E2E2E2E2E2E2E2E2E2E2E2E2E2E2E2E2E2E2E2E2E2E2E2E2E2E2E2E2E2E2E2E2E2E2E2E2E2E2E2E2E2E2E2E2E2E2E2E2E2E2E2E2E2E2E2E2E2E2E2E2E2E2E2E2
310
E2E2E2E2E2E2E2F5E2E2E2E2F5F5EFF5E2E2F5E2E2E2E2E2E2E2E2E2E2E2E2E2E2E2E2E2E2E2E2E2E2E2E2E2E2E2E2E2E2E2E2E2E2E2E2E2E2E2E2E2E2E2E2E2E2E2E2E2E2E2E2E2E2E2E2E2E2E2E2E2E2E2E2E2E2E2E2E2E2E2E2E2E2E2E2E2E2E2E2E2E2E2E2E2E2E2E2E2E2E2E2E2E2E2E2E2E2E2E2E2E2E2E2E2E2E2E2
310
E2E2E2E2E2E2E2E2E2E2E2E2E2E2E2E2E2E2E2E2E2E2E2E2E2E2E2E2E2E2E2E2E2E2E2E2E2E2E2E2E2E2E2E2E2E2E2E2E2E2E2E2E2E2E2E2E2E2E2E2F5E2E2E2E2F5F5EFF5E2E2F5E2E2E2E2E2E2E2E2E2E2E2E2E2E2E2E2E2E2E2E2E2E2E2E2E2E2E2E2E2E2E2E2E2E2E2E2E2E2E2E2E2E2E2E2E2E2E2E2E2E2E2E2E2E2E2
310
E2E2E2E2E2E2E2E2E2E2E2E2E2E2E2E2E2E2E2E2E2E2E2E2E2E2E2E2E2E2E2E2E2E2E2E2E2E2E2E2E2E2E2E2E2E2E2E2E2E2E2E2E2E2E2E2E2E2E2E2E2E2E2E2E2E2E2E2E2E2E2E2E2E2E2E2E2E2E2E2E2E2E2E2E2E2E2E2E2E2E2E2E2E2E2E2E2E2E2E2E2E2E2E2E2E2E2E2E2E2E2E2E2F5E2E2E2E2F5F5EFF5E2E2F5E2E2
310
E2E2E2E2E2E2E2E2E2E2E2E2E2E2E2E2E2E2E2E2E2E2E2E2E2E2E2E2E2E2E2E2E2E2E2E2E2E2E2E2E2E2E2E2E2E2E2E2E2E2E2E2E2E2E2E2E2E2E2E2E2E2E2E2E2E2E2E2E2E2E2E2E2E2E2E2E2E2E2E2E2E2E2E2E2E2E2E2E2E2E2E2E2E2E2E2E2E2E2E2E2E2E2E2E2E2E2E2E2E2E2E2E2E2E2E2E2E2E2E2E2E2E2E2E2E2E2
310
E2E2E2E2E2E2E2E2E2E2E2E2E2E2E2E2E2E2E2E2E2E2E2E2E2E2E2E2E2E2E2E2E2E2E2E2E2E2E2F5E2E2E2E2F5F5EFF5E2E2E2E2E2E2E2E2E2E2E2E2E2E2E2E2E2E2E2E2E2E2E2E2E2E2E2E2E2E2E2E2E2E2E2E2E2E2E2E2E2E2E2E2E2E2E2E2E2E2E2E2E2E2E2E2E2E2E2E2E2E2E2E2E2E2E2E2E2E2E2E2E2E2E2E2E2E2E2
310
E2E2E2E2E2E2E2E2E2E2E2E2E2E2E2E2E2E2E2E2E2E2E2E2E2E2E2E2E2E2E2E2E2E2E2E2E2E2E2E2E2E2E2E2E2E2E2E2E2E2E2E2E2E2E2E2E2E2E2E2E2E2E2E2E2E2E2E2E2E2E2E2E2E2E2E2E2E2E2E2E2E2E2E2E2E2E2E2E2E2E2E2E2E2E2E2E2F5F5EFF5E2E2E2E2E2E2E2E2E2E2E2E2E2E2E2E2E2E2E2E2E2E2E2E2E2E2
310
E2E2E2E2E2E2E2E2E2E2E2E2E2E2E2E2E2E2E2E2E2E2E2E2E2E2E2E2E2E2E2E2E2E2E2E2E2E2E2E2E2E2E2E2E2E2E2E2E2E2E2E2E2E2E2E2E2E2E2E2E2E2E2E2E2E2E2E2E2E2E2E2E2E2E2E2E2E2E2E2E2E2E2E2E2E2E2E2E2E2E2E2E2E2E2E2E2E2E2E2E2E2E2E2E2E2E2E2E2E2E2E2E2E2E2E2E2E2E2E2E2E2E2E2E2E2E2
310
E2E2E2E2E2E2E2E2E2E2E2E2E2E2E2E2E2E2E2E2E2E2E2F5F5EFF5E2E2E2E2E2E2E2E2E2E2E2E2E2E2E2E2E2E2E2E2E2E2E2E2E2E2E2E2E2E2E2E2E2E2E2E2E2E2E2E2E2E2E2E2E2E2E2E2E2E2E2E2E2E2E2E2E2E2E2E2E2E2E2E2E2E2E2E2E2E2E2E2E2E2E2E2E2E2E2E2E2E2E2E2E2E2E2E2E2E2E2E2E2E2E2E2E2E2E2E2
310
E2E2E2E2E2E2E2E2E2E2E2E2E2E2E2E2E2E2E2E2E2E2E2E2E2E2E2E2E2E2E2E2E2E2E2E2E2E2E2E2E2E2E2E2E2E2E2E2E2E2E2E2E2E2E2E2E2E2E2E2E2E2E2E2E2E2E2E2E2E2E2E2E2E2E2E2F5F5EFF5E2E2E2E2E2E2E2E2E2E2E2E2E2E2E2E2E2E2E2E2E2E2E2E2E2E2E2E2E2E2E2E2E2E2E2E2E2E2E2E2E2E2E2E2E2E2E2
310
E2E2E2E2E2E2E2E2E2E2E2E2E2E2E2E2E2E2E2E2E2E2E2E2E2E2E2E2E2E2E2E2E2E2E2E2E2E2E2E2E2E2E2E2E2E2E2E2E2E2E2E2E2E2E2E2E2E2E2E2E2E2E2E2E2E2E2E2E2E2E2E2E2E2E2E2E2E2E2E2E2E2E2E2E2E2E2E2E2E2E2E2E2E2E2E2E2E2E2E2E2E2E2E2E2E2E2E2E2E2E2E2E2E2E2E2E2E2E2E2E2E2E2E2E2E2E2
310
E2E2F5F5EFF5E2E2E2E2E2E2E2E2E2E2E2E2E2E2E2E2E2E2E2E2E2E2E2E2E2E2E2E2E2E2E2E2E2E2E2E2E2E2E2E2E2E2E2E2E2E2E2E2E2E2E2E2E2E2E2E2E2E2E2E2E2E2E2E2E2E2E2E2E2E2E2E2E2E2E2E2E2E2E2E2E2E2E2E2E2E2E2E2E2E2E2E2E2E2E2E2E2E2E2E2E2E2E2E2E2E2E2E2E2E2E2E2E2E2E2E2E2E2E2E2E2
310
E2E2E2E2E2E2E2E2E2E2E2E2E2E2E2E2E2E2E2E2E2E2E2E2E2E2E2E2E2E2E2E2E2E2E2E2E2E2E2E2E2E2E2E2E2E2E2E2E2E2E2E2E2E2E2F5F5EFF5E2E2E2E2E2E2E2E2E2E2E2E2E2E2E2E2E2E2E2E2E2E2E2E2E2E2E2E2E2E2E2E2E2E2E2E2E2E2E2E2E2E2E2E2E2E2E2E2E2E2E2E2E2E2E2E2E2E2E2E2E2E2E2E2E2E2E2E2
310
E2E2E2E2E2E2E2E2E2E2E2E2E2E2E2E2E2E2E2E2E2E2E2E2E2E2E2E2E2E2E2E2E2E2E2E2E2E2E2E2E2E2E2E2E2E2E2E2E2E2E2E2E2E2E2E2E2E2E2E2E2E2E2E2E2E2E2E2E2E2E2E2E2E2E2E2E2E2E2E2E2E2E2E2E2E2E2E2E2E2E2E2E2E2E2E2E2E2E2E2E2E2E2E2E2E2E2E2F5F5EFF5E2E2E2E2E2E2E2E2E2E2E2E2E2E2E2
310
E2E2E2E2E2E2E2E2E2E2E2E2E2E2E2E2E2E2E2E2E2E2E2E2E2E2E2E2E2E2E2E2E2E2E2E2E2E2E2E2E2E2E2E2E2E2E2E2E2E2E2E2E2E2E2E2E2E2E2E2E2E2E2E2E2E2E2E2E2E2E2E2E2E2E2E2E2E2E2E2E2E2E2E2E2E2E2E2E2E2E2E2E2E2E2E2E2E2E2E2E2E2E2E2E2E2E2E2E2E2E2E2E2E2E2E2E2E2E2E2E2E2E2E2E2E2E2
310
E2E2E2E2E2E2E2E2E2E2E2E2E2E2E2E2E2E2E2E2E2E2E2E2E2E2E2E2E2E2E2E2E2E2F5F5EFF5E2E2E2E2E2E2E2E2E2E2E2E2E2E2E2E2E2E2E2E2E2E2E2E2E2E2E2E2E2E2E2E2E2E2E2E2E2E2E2E2E2E2E2E2E2E2E2E2E2E2E2E2E2E2E2E2E2E2E2E2E2E2E2E2E2E2E2E2E2E2E2E2E2E2E2E2E2E2E2E2E2E2E2E2E2E2E2E2E2
310
E2E2E2E2E2E2E2E2E2E2E2E2E2E2E2E2E2E2E2E2E2E2E2E2E2E2E2E2E2E2E2E2E2E2E2E2E2E2E2E2E2E2E2E2E2E2E2E2E2E2E2E2E2E2E2E2E2E2E2E2E2E2E2E2E2E2E2E2E2E2E2E2E2E2E2E2E2E2E2E2E2E2E2E2E2E2E2F5F5EFF5E2E2E2E2E2E2E2E2E2E2E2E2E2E2E2E2E2E2E2E2E2E2E2E2E2E2E2E2E2E2E2E2E2E2E2E2
310
E2E2E2E2E2E2E2E2E2E2E2E2E2E2E2E2E2E2E2E2E2E2E2E2E2E2E2E2E2E2E2E2E2E2E2E2E2E2E2E2E2E2E2E2E2E2E2E2E2E2E2E2E2E2E2E2E2E2E2E2E2E2E2E2E2E2E2E2E2E2E2E2E2E2E2E2E2E2E2E2E2E2E2E2E2E2E2E2E2E2E2E2E2E2E2E2E2E2E2E2E2E2E2E2E2E2E2E2E2E2E2E2E2E2E2E2E2E2E2E2E2E2E2E2E2E2E2
310
E2E2E2E2E2E2E2E2E2E2E2E2E2F5F5EFF5E2E2F5E2E2E2E2E2E2E2E2E2E2E2E2E2E2E2E2E2E2E2E2E2E2E2E2E2E2E2E2E2E2E2E2E2E2E2E2E2E2E2E2E2E2E2E2E2E2E2E2E2E2E2E2E2E2E2E2E2E2E2E2E2E2E2E2E2E2E2E2E2E2E2E2E2E2E2E2E2E2E2E2E2E2E2E2E2E2E2E2E2E2E2E2E2E2E2E2E2E2E2E2E2E2E2E2E2E2E2
310
E2E2E2E2E2E2E2E2E2E2E2E2E2E2E2E2E2E2E2E2E2E2E2E2E2E2E2E2E2E2E2E2E2E2E2E2E2E2E2E2E2E2E2E2E2E2E2E2E2E2E2E2E2E2E2E2E2E2E2E2E2F5E2E2E2E2F5F5EFF5E2E2F5E2E2E2E2E2E2E2E2E2E2E2E2E2E2E2E2E2E2E2E2E2E2E2E2E2E2E2E2E2E2E2E2E2E2E2E2E2E2E2E2E2E2E2E2E2E2E2E2E2E2E2E2E2E2
310
E2E2E2E2E2E2E2E2E2E2E2E2E2E2E2E2E2E2E2E2E2E2E2E2E2E2E2E2E2E2E2E2E2E2E2E2E2E2E2E2E2E2E2E2E2E2E2E2E2E2E2E2E2E2E2E2E2E2E2E2E2E2E2E2E2E2E2E2E2E2E2E2E2E2E2E2E2E2E2E2E2E2E2E2E2E2E2E2E2E2E2E2E2E2E2E2E2E2E2E2E2E2E2E2E2E2E2E2E2E2E2E2E2E2F5E2E2E2E2F5F5EFF5E2E2F5E2
310
E2E2E2E2E2E2E2E2E2E2E2E2E2E2E2E2E2E2E2E2E2E2E2E2E2E2E2E2E2E2E2E2E2E2E2E2E2E2E2E2E2E2E2E2E2E2E2E2E2E2E2E2E2E2E2E2E2E2E2E2E2E2E2E2E2E2E2E2E2E2E2E2E2E2E2E2E2E2E2E2E2E2E2E2E2E2E2E2E2E2E2E2E2E2E2E2E2E2E2E2E2E2E2E2E2E2E2E2E2E2E2E2E2E2E2E2E2E2E2E2E2E2E2E2E2E2E2
310
E2E2E2E2E2E2E2E2E2E2E2E2E2E2E2E2E2E2E2E2E2E2E2E2E2E2E2E2E2E2E2E2E2E2E2E2E2E2E2E2F5E2E2E2E2F5F5EFF5E2E2F5E2E2E2E2E2E2E2E2E2E2E2E2E2E2E2E2E2E2E2E2E2E2E2E2E2E2E2E2E2E2E2E2E2E2E2E2E2E2E2E2E2E2E2E2E2E2E2E2E2E2E2E2E2E2E2E2E2E2E2E2E2E2E2E2E2E2E2E2E2E2E2E2E2E2E2
310
E2E2E2E2E2E2E2E2E2E2E2E2E2E2E2E2E2E2E2E2E2E2E2E2E2E2E2E2E2E2E2E2E2E2E2E2E2E2E2E2E2E2E2E2E2E2E2E2E2E2E2E2E2E2E2E2E2E2E2E2E2E2E2E2E2E2E2E2E2E2E2E2E2E2E2E2E2E2E2E2E2E2E2E2E2E2E2E2E2E2E2E2E2F5E2E2E2E2F5F5EFF5E2E2F5E2E2E2E2E2E2E2E2E2E2E2E2E2E2E2E2E2E2E2E2E2E2
310
E2E2E2E2E2E2E2E2E2E2E2E2E2E2E2E2E2E2E2E2E2E2E2E2E2E2E2E2E2E2E2E2E2E2E2E2E2E2E2E2E2E2E2E2E2E2E2E2E2E2E2E2E2E2E2E2E2E2E2E2E2E2E2E2E2E2E2E2E2E2E2E2E2E2E2E2E2E2E2E2E2E2E2E2E2E2E2E2E2E2E2E2E2E2E2E2E2E2E2E2E2E2E2E2E2E2E2E2E2E2E2E2E2E2E2E2E2E2E2E2E2E2E2E2E2E2E2
310
E2E2E2E2E2E2E2E2E2E2E2E2E2E2E2E2E2E2E2F5E2E2E2E2F5F5EFF5E2E2F5E2E2E2E2E2E2E2E2E2E2E2E2E2E2E2E2E2E2E2E2E2E2E2E2E2E2E2E2E2E2E2E2E2E2E2E2E2E2E2E2E2E2E2E2E2E2E2E2E2E2E2E2E2E2E2E2E2E2E2E2E2E2E2E2E2E2E2E2E2E2E2E2E2E2E2E2E2E2E2E2E2E2E2E2E2E2E2E2E2E2E2E2E2E2E2E2
310
E2E2E2E2E2E2E2E2E2E2E2E2E2E2E2E2E2E2E2E2E2E2E2E2E2E2E2E2E2E2E2E2E2E2E2E2E2E2E2E2E2E2E2E2E2E2E2E2E2E2E2E2E2E2E2E2E2E2E2E2E2E2E2E2E2E2E2E2E2E2E2E2F5E2E2E2E2F5F5EFF5E2E2F5E2E2E2E2E2E2E2E2E2E2E2E2E2E2E2E2E2E2E2E2E2E2E2E2E2E2E2E2E2E2E2E2E2E2E2E2E2E2E2E2E2E2E2
310
E2E2E2E2E2E2E2E2E2E2E2E2E2E2E2E2E2E2E2E2E2E2E2E2E2E2E2E2E2E2E2E2E2E2E2E2E2E2E2E2E2E2E2E2E2E2E2E2E2E2E2E2E2E2E2E2E2E2E2E2E2E2E2E2E2E2E2E2E2E2E2E2E2E2E2E2E2E2E2E2E2E2E2E2E2E2E2E2E2E2E2E2E2E2E2E2E2E2E2E2E2E2E2E2E2E2E2E2E2E2E2E2E2E2E2E2E2E2E2E2E2E2E2E2E2F5E2
310
E2E2E2F5F5EFF5E2E2F5E2E2E2E2E2E2E2E2E2E2E2E2E2E2E2E2E2E2E2E2E2E2E2E2E2E2E2E2E2E2E2E2E2E2E2E2E2E2E2E2E2E2E2E2E2E2E2E2E2E2E2E2E2E2E2E2E2E2E2E2E2E2E2E2E2E2E2E2E2E2E2E2E2E2E2E2E2E2E2E2E2E2E2E2E2E2E2E2E2E2E2E2E2E2E2E2E2E2E2E2E2E2E2E2E2E2E2E2E2E2E2E2E2E2E2E2E2
310
E2E2E2E2E2E2E2E2E2E2E2E2E2E2E2E2E2E2E2E2E2E2E2E2E2E2E2E2E2E2E2E2E2E2E2E2E2E2E2E2E2E2E2E2E2E2E2E2E2E2E2F5E2E2E2E2F5F5EFF5E2E2F5F5F5F5F5F5F5F5E2E2E2E2E2E2E2E2E2F5F5F5F5F5F5F5F5F5F5F5F5F5F5F5E2E2E2E2E2E2E2E2E2F5F5F5F5F5F5F5F5F5F5F5F5F5F5F5F5E2E2E2E2E2E2E2E2
310
F5F5F5F5F5F5F5F5F5F5F5F5F5F5F5F5E2E2E2E2E2E2E2E2F5F5F5F5F5F5F5F5F5F5F5F5F5F5F5F5E2E2E2E2E2E2E2E2F5F5F5F5F5F5F5F5F5F5F5F5F5F5F5F5E2E2E2E2E2E2E2E2E2F5F5F5F5F5F5F5F5F5F5F5F5F5F5F5E2E2E2E2E2E2E2E2E2F5F5F5F5F5F5F5F5E2E2E2E2F5F5EFF5E2E2E2E2E2E2E2E2E2E2E2E2E2E2
310
E2E2E2E2E2E2E2E2E2E2E2E2E2E2E2E2E2E2E2E2E2E2E2E2E2E2E2E2E2E2E2E2E2E2E2E2E2E2E2E2E2E2E2E2E2E2E2E2E2E2E2E2E2E2E2E2E2E2E2E2E2E2E2E2E2E2E2E2E2E2E2E2E2E2E2E2E2E2E2E2E2E2E2E2E2E2E2E2E2E2E2E2E2E2E2E2E2E2E2E2E2E2E2E2E2E2E2E2E2E2E2E2E2E2E2E2E2E2E2E2E2E2E2E2E2E2E2
310
E2E2E2E2E2E2E2E2E2E2E2E2E2E2E2E2E2E2E2E2E2E2E2E2E2E2E2E2E2E2E2E2E2E2E2F5F5EFF5E2E2E2E2E2E2E2E2E2E2E2E2E2E2E2E2E2E2E2E2E2E2E2E2E2E2E2E2E2E2E2E2E2E2E2E2E2E2E2E2E2E2E2E2E2E2E2E2E2E2E2E2E2E2E2E2E2E2E2E2E2E2E2E2E2E2E2E2E2E2E2E2E2E2E2E2E2E2E2E2E2E2E2E2E2E2E2E2
310
E2E2E2E2E2E2E2E2E2E2E2E2E2E2E2E2E2E2E2E2E2E2E2E2E2E2E2E2E2E2E2E2E2E2E2E2E2E2E2E2E2E2E2E2E2E2E2E2E2E2E2E2E2E2E2E2E2E2E2E2E2E2E2E2E2E2E2E2E2E2E2E2E2E2E2E2E2E2E2E2E2E2E2E2E2E2E2E2F5F5EFF5E2E2E2E2E2E2E2E2E2E2E2E2E2E2E2E2E2E2E2E2E2E2E2E2E2E2E2E2E2E2E2E2E2E2E2
310
E2E2E2E2E2E2E2E2E2E2E2E2E2E2E2E2E2E2E2E2E2E2E2E2E2E2E2E2E2E2E2E2E2E2E2E2E2E2E2E2E2E2E2E2E2E2E2E2E2E2E2E2E2E2E2E2E2E2E2E2E2E2E2E2E2E2E2E2E2E2E2E2E2E2E2E2E2E2E2E2E2E2E2E2E2E2E2E2E2E2E2E2E2E2E2E2E2E2E2E2E2E2E2E2E2E2E2E2E2E2E2E2E2E2E2E2E2E2E2E2E2E2E2E2E2E2E2
310
E2E2E2E2E2E2E2E2E2E2E2E2E2E2F5EFEFF5E2E2E2E2E2E2E2E2E2E2E2E2E2E2E2E2E2E2E2E2E2E2E2E2E2E2E2E2E2E2E2E2E2E2E2E2E2E2E2E2E2E2E2E2E2E2E2E2E2E2E2E2E2E2E2E2E2E2E2E2E2E2E2E2E2E2E2E2E2E2E2E2E2E2E2E2E2E2E2E2E2E2E2E2E2E2E2E2E2E2E2E2E2E2E2E2E2E2E2E2E2E2E2E2E2E2E2E2E2
310
E2E2E2E2E2E2E2E2E2E2E2E2E2E2E2E2E2E2E2E2E2E2E2E2E2E2E2E2E2E2E2E2E2E2E2E2E2E2E2E2E2E2E2E2E2E2E2E2E2E2E2E2E2E2E2E2E2E2E2E2E2E2E2E2E2E2E2F5EFEFF5F5F5F5F5F5F5F5F5F5F5F5F5F5F5F5F5F5F5F5F5F5F5F5F5F5F5F5F5F5F5F5F5F5F5F5F5F5F5F5F5F5F5F5F5F5F5F5F5F5F5F5F5F5F5F5F5
310
F5F5F5F5F5F5F5F5F5F5F5F5F5F5F5F5F5F5F5F5F5F5F5F5F5F5F5F5F5F5F5F5F5F5F5F5F5F5F5F5F5F5F5F5F5F5F5F5F5F5F5F5F5F5F5F5F5F5F5F5F5F5F5F5F5F5F5F5F5F5F5F5F5F5F5F5F5F5F5F5F5F5F5F5F5F5F5F5F5F5F5F5F5F5F5F5F5F5F5F5F5F5F5F5F5F5F5F5F5F5F5F5F5F5F5F5F5F5F5F5F5EFEF
  0
XRECORD
  5
3C6E
102
{ACAD_REACTORS
330
3C6D
102
}
330
3C6D
100
AcDbXrecord
280
     1
102
SHADEPLOT
 70
     0
102
SHADEPLOTRESLEVEL
 70
     2
102
SHADEPLOTCUSTOMDPI
 70
   300
  0
ENDSEC
  0
EOF
